  0
SECTION
  2
HEADER
  9
$ACADVER
  1
AC1009
  9
$INSBASE
 10
0.000000000
 20
0.000000000
  9
$EXTMIN
 10
-33.185818458
 20
-22.265543478
  9
$EXTMAX
 10
365.044003035
 20
244.920978261
  9
$LIMMIN
 10
-33.185818458
 20
-22.265543478
  9
$LIMMAX
 10
365.044003035
 20
244.920978261
  9
$SNAPBASE
 10
0.000000000
 20
0.000000000
  9
$SNAPANG
 50
0.000000000
  9
$SNAPSTYLE
 70
0
  9
$GRIDMODE
 70
0
  9
$GRIDUNIT
 10
0.000000000
 20
0.000000000
  9
$DIMEXO
 40
0.000000000
  9
$DIMDLI
 40
8.000000000
  9
$DIMDLE
 40
0.000000000
  9
$DIMEXE
 40
1.000000000
  9
$DIMTIH
 70
1
  9
$DIMTOH
 70
1
  9
$DIMTAD
 70
2
  9
$DIMZIN
 70
0
  9
$FILLETRAD
 40
1.000000000
  9
$CHAMFERA
 40
1.000000000
  9
$CHAMFERB
 40
1.000000000
  9
$TDCREATE
 40
2454152.720949074
  9
$TDUPDATE
 40
2454152.720949074
  9
$ANGBASE
 50
0.000000000
  9
$ANGDIR
 70
0
  0
ENDSEC
  0
SECTION
  2
TABLES
  0
TABLE
  2
LTYPE
 70
4
  0
LTYPE
  2
CENTER
 70
64
  3
___ _ ___ _ __
 72
65
 73
4
 40
13.000000000
 49
8.500000000
 49
-1.500000000
 49
1.500000000
 49
-1.500000000
  0
LTYPE
  2
CONTINUOUS
 70
64
  3
______________
 72
65
 73
0
 40
0.000000000
  0
LTYPE
  2
DIVIDE
 70
64
  3
___ . . ___ . 
 72
65
 73
6
 40
12.999999523
 49
5.199999809
 49
-2.599999905
 49
0.000000000
 49
-2.599999905
 49
0.000000000
 49
-2.599999905
  0
LTYPE
  2
PHANTOM
 70
64
  3
___ _ _ ___ _ 
 72
65
 73
6
 40
12.999999762
 49
4.000000000
 49
-1.799999952
 49
1.799999952
 49
-1.799999952
 49
1.799999952
 49
-1.799999952
  0
ENDTAB
  0
TABLE
  2
LAYER
 70
6
  0
LAYER
  2
1
 70
0
 62
7
  6
CONTINUOUS
  0
LAYER
  2
2
 70
0
 62
7
  6
CONTINUOUS
  0
LAYER
  2
5
 70
0
 62
7
  6
CONTINUOUS
999
Comment
  0
LAYER
  2
15
 70
0
 62
5
  6
CONTINUOUS
999
ﾁｬｯｸ
  0
LAYER
  2
17
 70
0
 62
3
  6
CONTINUOUS
999
226
  0
LAYER
  2
30
 70
0
 62
7
  6
CONTINUOUS
999
111
  0
LAYER
  2
_CONSTR
 70
0
 62
5
  6
CONTINUOUS
  0
ENDTAB
  0
TABLE
  2
STYLE
 70
1
  0
STYLE
  2
STANDARD
 70
64
 40
0.000000000
 41
1.000000000
 50
0.000000000
 71
0
 42
3.200000000
  3
TXT
  4
EXTFONT
  0
ENDTAB
  0
TABLE
  2
VIEW
 70
0
  0
ENDTAB
  0
ENDSEC
  0
SECTION
  2
BLOCKS
  0
BLOCK
  8
0
  2
*D46
 70
65
 10
0.000000000
 20
0.000000000
  3
*D
  0
TEXT
  8
1
 62
4
  6
CONTINUOUS
 72
5
 10
308.458147157
 20
124.020374449
 40
2.800000000
  1
3.8
 41
1.199998800
 50
11.999999995
 11
315.031299034
 21
125.417541011
  0
LINE
  8
1
 62
4
  6
CONTINUOUS
 10
291.177738487
 20
177.930644754
 11
303.762633239
 21
118.723369955
  0
POLYLINE
  8
1
 62
4
  6
CONTINUOUS
 66
1
  0
VERTEX
  8
1
 10
301.328141149
 20
120.557286055
  0
VERTEX
  8
1
 10
303.346809858
 20
120.679665156
  0
SEQEND
  8
1
  0
POLYLINE
  8
1
 62
4
  6
CONTINUOUS
 66
1
  0
VERTEX
  8
1
 10
300.412367056
 20
120.055930084
  0
VERTEX
  8
1
 10
303.346809858
 20
120.679665156
  0
VERTEX
  8
1
 10
301.452888164
 20
119.970397494
  0
SEQEND
  8
1
  0
LINE
  8
1
 62
4
  6
CONTINUOUS
 10
303.346809858
 20
120.679665156
 11
307.063770745
 21
121.469729582
  0
POLYLINE
  8
1
 62
4
  6
CONTINUOUS
 66
1
  0
VERTEX
  8
1
 10
309.082439453
 20
121.592108683
  0
VERTEX
  8
1
 10
307.063770745
 20
121.469729582
  0
SEQEND
  8
1
  0
POLYLINE
  8
1
 62
4
  6
CONTINUOUS
 66
1
  0
VERTEX
  8
1
 10
309.998213547
 20
122.093464654
  0
VERTEX
  8
1
 10
307.063770745
 20
121.469729582
  0
VERTEX
  8
1
 10
308.957692439
 20
122.178997243
  0
SEQEND
  8
1
  0
LINE
  8
1
 62
4
  6
CONTINUOUS
 10
304.690245618
 20
132.636287362
 11
307.479594126
 21
119.513434380
  0
POLYLINE
  8
1
 62
4
  6
CONTINUOUS
 66
1
  0
VERTEX
  8
1
 10
307.063770745
 20
121.469729582
  0
VERTEX
  8
1
 10
317.429606634
 20
123.673056016
  0
SEQEND
  8
1
  0
ENDBLK
  8
0
  0
BLOCK
  8
0
  2
*D47
 70
65
 10
0.000000000
 20
0.000000000
  3
*D
  0
TEXT
  8
1
 62
4
  6
CONTINUOUS
 72
5
 10
309.463075084
 20
148.539050236
 40
2.800000000
  1
(
 41
1.650001650
 50
11.999999995
 11
310.969422389
 21
148.859234239
  0
TEXT
  8
1
 62
4
  6
CONTINUOUS
 72
5
 10
311.722596041
 20
149.019326241
 40
2.800000000
  1
φ
 41
1.164760695
 50
11.999999995
 11
314.735290652
 21
149.659694249
  0
TEXT
  8
1
 62
4
  6
CONTINUOUS
 72
5
 10
316.241637957
 20
149.979878253
 40
2.800000000
  1
12
 41
1.031247938
 50
11.999999995
 11
320.007506220
 21
150.780338262
  0
TEXT
  8
1
 62
4
  6
CONTINUOUS
 72
5
 10
320.760679872
 20
150.940430264
 40
2.800000000
  1
)
 41
1.650001650
 50
11.999999995
 11
322.267027177
 21
151.260614267
  0
LINE
  8
1
 62
4
  6
CONTINUOUS
 10
296.121125642
 20
144.092421146
 11
296.667826873
 21
141.520394070
  0
POLYLINE
  8
1
 62
4
  6
CONTINUOUS
 66
1
  0
VERTEX
  8
1
 10
298.145925186
 20
144.185956934
  0
VERTEX
  8
1
 10
296.252003492
 20
143.476689272
  0
VERTEX
  8
1
 10
298.270672201
 20
143.599068373
  0
SEQEND
  8
1
  0
LINE
  8
1
 62
4
  6
CONTINUOUS
 10
296.252003492
 20
143.476689272
 11
307.989774701
 21
145.971629561
  0
POLYLINE
  8
1
 62
4
  6
CONTINUOUS
 66
1
  0
VERTEX
  8
1
 10
306.095853007
 20
145.262361899
  0
VERTEX
  8
1
 10
307.989774701
 20
145.971629561
  0
VERTEX
  8
1
 10
305.971105992
 20
145.849250459
  0
SEQEND
  8
1
  0
LINE
  8
1
 62
4
  6
CONTINUOUS
 10
307.873664629
 20
146.517884500
 11
308.405598082
 21
144.015334359
  0
POLYLINE
  8
1
 62
4
  6
CONTINUOUS
 66
1
  0
VERTEX
  8
1
 10
307.989774701
 20
145.971629561
  0
VERTEX
  8
1
 10
324.666704184
 20
149.516420349
  0
SEQEND
  8
1
  0
ENDBLK
  8
0
  0
BLOCK
  8
0
  2
*D105
 70
65
 10
0.000000000
 20
0.000000000
  3
*D
  0
TEXT
  8
1
 62
4
  6
CONTINUOUS
 72
5
 10
252.522937126
 20
152.087038871
 40
2.800000000
  1
(
 41
1.650001650
 50
348.000000000
 11
254.029284432
 21
151.766854868
  0
TEXT
  8
1
 62
4
  6
CONTINUOUS
 72
5
 10
254.782458084
 20
151.606762866
 40
2.800000000
  1
φ
 41
1.164760695
 50
348.000000000
 11
257.795152694
 21
150.966394858
  0
TEXT
  8
1
 62
4
  6
CONTINUOUS
 72
5
 10
259.301500000
 20
150.646210854
 40
2.800000000
  1
14
 41
1.031247938
 50
348.000000000
 11
263.067368262
 21
149.845750844
  0
TEXT
  8
1
 62
4
  6
CONTINUOUS
 72
5
 10
263.820541915
 20
149.685658843
 40
2.800000000
  1
)
 41
1.650001650
 50
348.000000000
 11
265.326889220
 21
149.365474839
  0
LINE
  8
1
 62
4
  6
CONTINUOUS
 10
281.993844511
 20
141.732250784
 11
282.783111582
 21
145.445460412
  0
POLYLINE
  8
1
 62
4
  6
CONTINUOUS
 66
1
  0
VERTEX
  8
1
 10
280.348619492
 20
143.611544312
  0
VERTEX
  8
1
 10
282.367288201
 20
143.489165210
  0
VERTEX
  8
1
 10
280.473366506
 20
144.198432872
  0
SEQEND
  8
1
  0
LINE
  8
1
 62
4
  6
CONTINUOUS
 10
282.367288201
 20
143.489165210
 11
268.673221790
 21
146.399928882
  0
POLYLINE
  8
1
 62
4
  6
CONTINUOUS
 66
1
  0
VERTEX
  8
1
 10
270.691890499
 20
146.277549780
  0
VERTEX
  8
1
 10
268.673221790
 20
146.399928882
  0
VERTEX
  8
1
 10
270.567143485
 20
145.690661220
  0
SEQEND
  8
1
  0
LINE
  8
1
 62
4
  6
CONTINUOUS
 10
268.248647922
 20
144.402465878
 11
269.089045172
 21
148.356224083
  0
POLYLINE
  8
1
 62
4
  6
CONTINUOUS
 66
1
  0
VERTEX
  8
1
 10
282.367288201
 20
143.489165210
  0
VERTEX
  8
1
 10
250.108196647
 20
150.346046793
  0
SEQEND
  8
1
  0
ENDBLK
  8
0
  0
BLOCK
  8
0
  2
*D127
 70
65
 10
0.000000000
 20
0.000000000
  3
*D
  0
TEXT
  8
1
 62
4
  6
CONTINUOUS
 72
5
 10
158.185549628
 20
216.860434783
 40
2.800000000
  1
79.6
 41
1.099999267
 11
167.425549628
 21
216.860434783
  0
POLYLINE
  8
1
 62
4
  6
CONTINUOUS
 66
1
  0
VERTEX
  8
1
 10
124.997149628
 20
214.955434783
  0
VERTEX
  8
1
 10
122.997149628
 20
214.655434783
  0
VERTEX
  8
1
 10
124.997149628
 20
214.355434783
  0
SEQEND
  8
1
  0
LINE
  8
1
 62
4
  6
CONTINUOUS
 10
122.997149628
 20
214.655434783
 11
202.597149628
 21
214.655434783
  0
POLYLINE
  8
1
 62
4
  6
CONTINUOUS
 66
1
  0
VERTEX
  8
1
 10
200.597149628
 20
214.355434783
  0
VERTEX
  8
1
 10
202.597149628
 20
214.655434783
  0
VERTEX
  8
1
 10
200.597149628
 20
214.955434783
  0
SEQEND
  8
1
  0
LINE
  8
1
 62
4
  6
CONTINUOUS
 10
202.597149628
 20
198.555434783
 11
202.597149628
 21
216.655434783
  0
ENDBLK
  8
0
  0
BLOCK
  8
0
  2
*D130
 70
65
 10
0.000000000
 20
0.000000000
  3
*D
  0
TEXT
  8
1
 62
4
  6
CONTINUOUS
 72
5
 10
224.592149628
 20
181.998834783
 40
2.800000000
  1
φ
 41
1.270648030
 50
90.000000000
 11
224.592149628
 21
185.358834783
  0
TEXT
  8
1
 62
4
  6
CONTINUOUS
 72
5
 10
224.592149628
 20
187.038834783
 40
2.800000000
  1
18.9
 41
1.237498917
 50
90.000000000
 11
224.592149628
 21
196.278834783
  0
LINE
  8
1
 62
4
  6
CONTINUOUS
 10
214.497149628
 20
198.580434783
 11
228.797149628
 21
198.580434783
  0
POLYLINE
  8
1
 62
4
  6
CONTINUOUS
 66
1
  0
VERTEX
  8
1
 10
227.097149628
 20
196.580434783
  0
VERTEX
  8
1
 10
226.797149628
 20
198.580434783
  0
VERTEX
  8
1
 10
226.497149628
 20
196.580434783
  0
SEQEND
  8
1
  0
LINE
  8
1
 62
4
  6
CONTINUOUS
 10
226.797149628
 20
198.580434783
 11
226.797149628
 21
179.680434783
  0
POLYLINE
  8
1
 62
4
  6
CONTINUOUS
 66
1
  0
VERTEX
  8
1
 10
226.497149628
 20
181.680434783
  0
VERTEX
  8
1
 10
226.797149628
 20
179.680434783
  0
VERTEX
  8
1
 10
227.097149628
 20
181.680434783
  0
SEQEND
  8
1
  0
LINE
  8
1
 62
4
  6
CONTINUOUS
 10
214.497149628
 20
179.680434783
 11
228.797149628
 21
179.680434783
  0
ENDBLK
  8
0
  0
BLOCK
  8
0
  2
*D131
 70
65
 10
0.000000000
 20
0.000000000
  3
*D
  0
TEXT
  8
1
 62
4
  6
CONTINUOUS
 72
5
 10
140.792149628
 20
153.862234783
 40
2.800000000
  1
φ
 41
1.270648030
 50
90.000000000
 11
140.792149628
 21
157.222234783
  0
TEXT
  8
1
 62
4
  6
CONTINUOUS
 72
5
 10
140.792149628
 20
158.902234783
 40
2.800000000
  1
19.05
 41
1.199999314
 50
90.000000000
 11
140.792149628
 21
170.662234783
  0
TEXT
  8
1
 62
4
  6
CONTINUOUS
 72
5
 10
139.028149628
 20
171.502234783
 40
1.400000000
  1
-0.01
 41
1.710000684
 50
90.000000000
 11
139.028149628
 21
179.482234783
  0
TEXT
  8
1
 62
4
  6
CONTINUOUS
 72
5
 10
141.170149628
 20
171.502234783
 40
1.400000000
  1
-0.02
 41
1.554544889
 50
90.000000000
 11
141.170149628
 21
179.482234783
  0
POLYLINE
  8
1
 62
4
  6
CONTINUOUS
 66
1
  0
VERTEX
  8
1
 10
143.297149628
 20
196.655434783
  0
VERTEX
  8
1
 10
142.997149628
 20
198.655434783
  0
VERTEX
  8
1
 10
142.697149628
 20
196.655434783
  0
SEQEND
  8
1
  0
LINE
  8
1
 62
4
  6
CONTINUOUS
 10
142.997149628
 20
198.655434783
 11
142.997149628
 21
179.605434783
  0
POLYLINE
  8
1
 62
4
  6
CONTINUOUS
 66
1
  0
VERTEX
  8
1
 10
142.697149628
 20
181.605434783
  0
VERTEX
  8
1
 10
142.997149628
 20
179.605434783
  0
VERTEX
  8
1
 10
143.297149628
 20
181.605434783
  0
SEQEND
  8
1
  0
POLYLINE
  8
1
 62
4
  6
CONTINUOUS
 66
1
  0
VERTEX
  8
1
 10
142.997149628
 20
198.655434783
  0
VERTEX
  8
1
 10
142.997149628
 20
151.849634783
  0
SEQEND
  8
1
  0
ENDBLK
  8
0
  0
BLOCK
  8
0
  2
*D132
 70
65
 10
0.000000000
 20
0.000000000
  3
*D
  0
TEXT
  8
1
 62
4
  6
CONTINUOUS
 72
5
 10
110.792149628
 20
153.862234783
 40
2.800000000
  1
φ
 41
1.270648030
 50
90.000000000
 11
110.792149628
 21
157.222234783
  0
TEXT
  8
1
 62
4
  6
CONTINUOUS
 72
5
 10
110.792149628
 20
158.902234783
 40
2.800000000
  1
19.05
 41
1.199999314
 50
90.000000000
 11
110.792149628
 21
170.662234783
  0
TEXT
  8
1
 62
4
  6
CONTINUOUS
 72
5
 10
109.028149628
 20
171.502234783
 40
1.400000000
  1
 0
 41
2.333335926
 50
90.000000000
 11
109.028149628
 21
174.442234783
  0
TEXT
  8
1
 62
4
  6
CONTINUOUS
 72
5
 10
111.170149628
 20
171.502234783
 40
1.400000000
  1
-0.01
 41
1.710000684
 50
90.000000000
 11
111.170149628
 21
179.482234783
  0
POLYLINE
  8
1
 62
4
  6
CONTINUOUS
 66
1
  0
VERTEX
  8
1
 10
113.297149628
 20
196.655434783
  0
VERTEX
  8
1
 10
112.997149628
 20
198.655434783
  0
VERTEX
  8
1
 10
112.697149628
 20
196.655434783
  0
SEQEND
  8
1
  0
LINE
  8
1
 62
4
  6
CONTINUOUS
 10
112.997149628
 20
198.655434783
 11
112.997149628
 21
179.605434783
  0
POLYLINE
  8
1
 62
4
  6
CONTINUOUS
 66
1
  0
VERTEX
  8
1
 10
112.697149628
 20
181.605434783
  0
VERTEX
  8
1
 10
112.997149628
 20
179.605434783
  0
VERTEX
  8
1
 10
113.297149628
 20
181.605434783
  0
SEQEND
  8
1
  0
POLYLINE
  8
1
 62
4
  6
CONTINUOUS
 66
1
  0
VERTEX
  8
1
 10
112.997149628
 20
198.655434783
  0
VERTEX
  8
1
 10
112.997149628
 20
151.849634783
  0
SEQEND
  8
1
  0
ENDBLK
  8
0
  0
BLOCK
  8
0
  2
*D135
 70
65
 10
0.000000000
 20
0.000000000
  3
*D
  0
TEXT
  8
1
 62
4
  6
CONTINUOUS
 72
5
 10
201.385663953
 20
216.860434783
 40
2.800000000
  1
(
 41
1.650001650
 11
202.925663953
 21
216.860434783
  0
TEXT
  8
1
 62
4
  6
CONTINUOUS
 72
5
 10
203.695663953
 20
216.860434783
 40
2.800000000
  1
12.2
 41
1.134374007
 11
212.165663953
 21
216.860434783
  0
TEXT
  8
1
 62
4
  6
CONTINUOUS
 72
5
 10
212.935663953
 20
216.860434783
 40
2.800000000
  1
)
 41
1.650001650
 11
214.475663953
 21
216.860434783
  0
LINE
  8
1
 62
4
  6
CONTINUOUS
 10
214.797149628
 20
198.280434783
 11
214.797149628
 21
216.655434783
  0
POLYLINE
  8
1
 62
4
  6
CONTINUOUS
 66
1
  0
VERTEX
  8
1
 10
212.797149628
 20
214.355434783
  0
VERTEX
  8
1
 10
214.797149628
 20
214.655434783
  0
VERTEX
  8
1
 10
212.797149628
 20
214.955434783
  0
SEQEND
  8
1
  0
LINE
  8
1
 62
4
  6
CONTINUOUS
 10
214.797149628
 20
214.655434783
 11
202.597149628
 21
214.655434783
  0
POLYLINE
  8
1
 62
4
  6
CONTINUOUS
 66
1
  0
VERTEX
  8
1
 10
204.597149628
 20
214.955434783
  0
VERTEX
  8
1
 10
202.597149628
 20
214.655434783
  0
VERTEX
  8
1
 10
204.597149628
 20
214.355434783
  0
SEQEND
  8
1
  0
LINE
  8
1
 62
4
  6
CONTINUOUS
 10
202.597149628
 20
198.555434783
 11
202.597149628
 21
216.655434783
  0
ENDBLK
  8
0
  0
BLOCK
  8
0
  2
*D137
 70
65
 10
0.000000000
 20
0.000000000
  3
*D
  0
TEXT
  8
1
 62
4
  6
CONTINUOUS
 72
5
 10
139.569798320
 20
224.860434783
 40
2.800000000
  1
(
 41
1.800001800
 11
141.249798320
 21
224.860434783
  0
TEXT
  8
1
 62
4
  6
CONTINUOUS
 72
5
 10
142.089798320
 20
224.860434783
 40
2.800000000
  1
133.7
 41
1.145453817
 11
153.849798320
 21
224.860434783
  0
TEXT
  8
1
 62
4
  6
CONTINUOUS
 72
5
 10
154.689798320
 20
224.860434783
 40
2.800000000
  1
)
 41
1.800001800
 11
156.369798320
 21
224.860434783
  0
LINE
  8
1
 62
4
  6
CONTINUOUS
 10
81.125647012
 20
192.553084513
 11
81.125647012
 21
224.655434783
  0
POLYLINE
  8
1
 62
4
  6
CONTINUOUS
 66
1
  0
VERTEX
  8
1
 10
83.125647012
 20
222.955434783
  0
VERTEX
  8
1
 10
81.125647012
 20
222.655434783
  0
VERTEX
  8
1
 10
83.125647012
 20
222.355434783
  0
SEQEND
  8
1
  0
LINE
  8
1
 62
4
  6
CONTINUOUS
 10
81.125647012
 20
222.655434783
 11
214.797149628
 21
222.655434783
  0
POLYLINE
  8
1
 62
4
  6
CONTINUOUS
 66
1
  0
VERTEX
  8
1
 10
212.797149628
 20
222.355434783
  0
VERTEX
  8
1
 10
214.797149628
 20
222.655434783
  0
VERTEX
  8
1
 10
212.797149628
 20
222.955434783
  0
SEQEND
  8
1
  0
LINE
  8
1
 62
4
  6
CONTINUOUS
 10
214.797149628
 20
198.280434783
 11
214.797149628
 21
224.655434783
  0
ENDBLK
  8
0
  0
BLOCK
  8
0
  2
*D138
 70
65
 10
0.000000000
 20
0.000000000
  3
*D
  0
TEXT
  8
1
 62
4
  6
CONTINUOUS
 72
5
 10
81.924098320
 20
216.860434783
 40
2.800000000
  1
(
 41
1.650001650
 11
83.464098320
 21
216.860434783
  0
TEXT
  8
1
 62
4
  6
CONTINUOUS
 72
5
 10
84.234098320
 20
216.860434783
 40
2.800000000
  1
14.7
 41
1.134374007
 11
92.704098320
 21
216.860434783
  0
TEXT
  8
1
 62
4
  6
CONTINUOUS
 72
5
 10
93.474098320
 20
216.860434783
 40
2.800000000
  1
)
 41
1.650001650
 11
95.014098320
 21
216.860434783
  0
LINE
  8
1
 62
4
  6
CONTINUOUS
 10
81.125647012
 20
192.553084513
 11
81.125647012
 21
216.655434783
  0
POLYLINE
  8
1
 62
4
  6
CONTINUOUS
 66
1
  0
VERTEX
  8
1
 10
83.125647012
 20
214.955434783
  0
VERTEX
  8
1
 10
81.125647012
 20
214.655434783
  0
VERTEX
  8
1
 10
83.125647012
 20
214.355434783
  0
SEQEND
  8
1
  0
LINE
  8
1
 62
4
  6
CONTINUOUS
 10
81.125647012
 20
214.655434783
 11
95.797149628
 21
214.655434783
  0
POLYLINE
  8
1
 62
4
  6
CONTINUOUS
 66
1
  0
VERTEX
  8
1
 10
93.797149628
 20
214.355434783
  0
VERTEX
  8
1
 10
95.797149628
 20
214.655434783
  0
VERTEX
  8
1
 10
93.797149628
 20
214.955434783
  0
SEQEND
  8
1
  0
LINE
  8
1
 62
4
  6
CONTINUOUS
 10
95.797149628
 20
198.405434783
 11
95.797149628
 21
216.655434783
  0
ENDBLK
  8
0
  0
BLOCK
  8
0
  2
*D139
 70
65
 10
0.000000000
 20
0.000000000
  3
*D
  0
TEXT
  8
1
 62
4
  6
CONTINUOUS
 72
5
 10
102.265549628
 20
216.860434783
 40
2.800000000
  1
(
 41
1.800001800
 11
103.945549628
 21
216.860434783
  0
TEXT
  8
1
 62
4
  6
CONTINUOUS
 72
5
 10
104.785549628
 20
216.860434783
 40
2.800000000
  1
27.2
 41
1.099999267
 11
114.025549628
 21
216.860434783
  0
TEXT
  8
1
 62
4
  6
CONTINUOUS
 72
5
 10
114.865549628
 20
216.860434783
 40
2.800000000
  1
)
 41
1.800001800
 11
116.545549628
 21
216.860434783
  0
LINE
  8
1
 62
4
  6
CONTINUOUS
 10
95.797149628
 20
198.405434783
 11
95.797149628
 21
216.655434783
  0
POLYLINE
  8
1
 62
4
  6
CONTINUOUS
 66
1
  0
VERTEX
  8
1
 10
97.797149628
 20
214.955434783
  0
VERTEX
  8
1
 10
95.797149628
 20
214.655434783
  0
VERTEX
  8
1
 10
97.797149628
 20
214.355434783
  0
SEQEND
  8
1
  0
LINE
  8
1
 62
4
  6
CONTINUOUS
 10
95.797149628
 20
214.655434783
 11
122.997149628
 21
214.655434783
  0
POLYLINE
  8
1
 62
4
  6
CONTINUOUS
 66
1
  0
VERTEX
  8
1
 10
120.997149628
 20
214.355434783
  0
VERTEX
  8
1
 10
122.997149628
 20
214.655434783
  0
VERTEX
  8
1
 10
120.997149628
 20
214.955434783
  0
SEQEND
  8
1
  0
LINE
  8
1
 62
4
  6
CONTINUOUS
 10
122.997149628
 20
198.655434783
 11
122.997149628
 21
216.655434783
  0
ENDBLK
  8
0
  0
BLOCK
  8
0
  2
*D141
 70
65
 10
0.000000000
 20
0.000000000
  3
*D
  0
TEXT
  8
1
 62
4
  6
CONTINUOUS
 72
5
 10
62.920647012
 20
181.998834783
 40
2.800000000
  1
φ
 41
1.270648030
 50
90.000000000
 11
62.920647012
 21
185.358834783
  0
TEXT
  8
1
 62
4
  6
CONTINUOUS
 72
5
 10
62.920647012
 20
187.038834783
 40
2.800000000
  1
11.8
 41
1.414284098
 50
90.000000000
 11
62.920647012
 21
196.278834783
  0
LINE
  8
1
 62
4
  6
CONTINUOUS
 10
84.684492739
 20
195.030434783
 11
63.125647012
 21
195.030434783
  0
POLYLINE
  8
1
 62
4
  6
CONTINUOUS
 66
1
  0
VERTEX
  8
1
 10
65.425647012
 20
193.030434783
  0
VERTEX
  8
1
 10
65.125647012
 20
195.030434783
  0
VERTEX
  8
1
 10
64.825647012
 20
193.030434783
  0
SEQEND
  8
1
  0
LINE
  8
1
 62
4
  6
CONTINUOUS
 10
65.125647012
 20
195.030434783
 11
65.125647012
 21
183.230434783
  0
POLYLINE
  8
1
 62
4
  6
CONTINUOUS
 66
1
  0
VERTEX
  8
1
 10
64.825647012
 20
185.230434783
  0
VERTEX
  8
1
 10
65.125647012
 20
183.230434783
  0
VERTEX
  8
1
 10
65.425647012
 20
185.230434783
  0
SEQEND
  8
1
  0
LINE
  8
1
 62
4
  6
CONTINUOUS
 10
84.684492739
 20
183.230434783
 11
63.125647012
 21
183.230434783
  0
ENDBLK
  8
0
  0
BLOCK
  8
0
  2
*D160
 70
65
 10
0.000000000
 20
0.000000000
  3
*D
  0
TEXT
  8
1
 62
4
  6
CONTINUOUS
 72
5
 10
278.379493389
 20
122.077050387
 40
2.800000000
  1
12
 41
1.124997750
 50
354.000000000
 11
282.556485349
 21
121.638030841
  0
TEXT
  8
1
 62
4
  6
CONTINUOUS
 72
5
 10
283.391883742
 20
121.550226932
 40
2.800000000
  1
°
 41
1.270648030
 50
354.000000000
 11
286.733477310
 21
121.199011295
  0
LINE
  8
1
 62
4
  6
CONTINUOUS
 10
286.416560768
 20
177.930644754
 11
273.831666010
 21
118.723369956
  0
POLYLINE
  8
1
 62
4
  6
CONTINUOUS
 66
1
  0
VERTEX
  8
1
 10
276.266158101
 20
120.557286056
  0
VERTEX
  8
1
 10
274.247489392
 20
120.679665157
  0
VERTEX
  8
1
 10
276.141411086
 20
119.970397495
  0
SEQEND
  8
1
  0
ARC
  8
1
 62
4
  6
CONTINUOUS
 10
288.797149628
 20
189.130434783
 40
69.980000538
 50
258.000000000
 51
270.000000000
  0
POLYLINE
  8
1
 62
4
  6
CONTINUOUS
 66
1
  0
VERTEX
  8
1
 10
286.797149628
 20
118.850434245
  0
VERTEX
  8
1
 10
288.797149628
 20
119.150434245
  0
VERTEX
  8
1
 10
286.797149628
 20
119.450434245
  0
SEQEND
  8
1
  0
LINE
  8
1
 62
4
  6
CONTINUOUS
 10
288.797149628
 20
177.680434783
 11
288.797149628
 21
117.150434245
  0
ENDBLK
  8
0
  0
BLOCK
  8
0
  2
*D161
 70
65
 10
0.000000000
 20
0.000000000
  3
*D
  0
TEXT
  8
1
 62
4
  6
CONTINUOUS
 72
5
 10
262.828203165
 20
125.361170386
 40
2.800000000
  1
3.8
 41
1.199998800
 50
348.000000007
 11
269.401355042
 21
123.964003823
  0
LINE
  8
1
 62
4
  6
CONTINUOUS
 10
272.609645419
 20
131.251205589
 11
270.114705129
 21
119.513434380
  0
POLYLINE
  8
1
 62
4
  6
CONTINUOUS
 66
1
  0
VERTEX
  8
1
 10
268.636606817
 20
122.178997243
  0
VERTEX
  8
1
 10
270.530528511
 20
121.469729581
  0
SEQEND
  8
1
  0
POLYLINE
  8
1
 62
4
  6
CONTINUOUS
 66
1
  0
VERTEX
  8
1
 10
267.596085709
 20
122.093464653
  0
VERTEX
  8
1
 10
270.530528511
 20
121.469729581
  0
VERTEX
  8
1
 10
268.511859802
 20
121.592108683
  0
SEQEND
  8
1
  0
LINE
  8
1
 62
4
  6
CONTINUOUS
 10
270.530528511
 20
121.469729581
 11
274.247489392
 21
120.679665157
  0
POLYLINE
  8
1
 62
4
  6
CONTINUOUS
 66
1
  0
VERTEX
  8
1
 10
276.141411087
 20
119.970397496
  0
VERTEX
  8
1
 10
274.247489392
 20
120.679665157
  0
SEQEND
  8
1
  0
POLYLINE
  8
1
 62
4
  6
CONTINUOUS
 66
1
  0
VERTEX
  8
1
 10
277.181932195
 20
120.055930085
  0
VERTEX
  8
1
 10
274.247489392
 20
120.679665157
  0
VERTEX
  8
1
 10
276.266158101
 20
120.557286056
  0
SEQEND
  8
1
  0
LINE
  8
1
 62
4
  6
CONTINUOUS
 10
286.416560768
 20
177.930644754
 11
273.831666011
 21
118.723369956
  0
POLYLINE
  8
1
 62
4
  6
CONTINUOUS
 66
1
  0
VERTEX
  8
1
 10
270.530528511
 20
121.469729581
  0
VERTEX
  8
1
 10
260.413462685
 20
123.620178308
  0
SEQEND
  8
1
  0
ENDBLK
  8
0
  0
BLOCK
  8
0
  2
*D171
 70
65
 10
0.000000000
 20
0.000000000
  3
*D
  0
TEXT
  8
1
 62
4
  6
CONTINUOUS
 72
5
 10
292.548326697
 20
121.376375192
 40
2.800000000
  1
12
 41
1.124997750
 50
6.000000000
 11
296.725318658
 21
121.815394737
  0
TEXT
  8
1
 62
4
  6
CONTINUOUS
 72
5
 10
297.560717050
 20
121.903198646
 40
2.800000000
  1
°
 41
1.270648030
 50
6.000000000
 11
300.902310618
 21
122.254414283
  0
POLYLINE
  8
1
 62
4
  6
CONTINUOUS
 66
1
  0
VERTEX
  8
1
 10
290.797149628
 20
119.450434245
  0
VERTEX
  8
1
 10
288.797149628
 20
119.150434245
  0
VERTEX
  8
1
 10
290.797149628
 20
118.850434245
  0
SEQEND
  8
1
  0
ARC
  8
1
 62
4
  6
CONTINUOUS
 10
288.797149628
 20
189.130434783
 40
69.980000538
 50
270.000000000
 51
282.000000000
  0
POLYLINE
  8
1
 62
4
  6
CONTINUOUS
 66
1
  0
VERTEX
  8
1
 10
301.452888169
 20
119.970397495
  0
VERTEX
  8
1
 10
303.346809863
 20
120.679665157
  0
VERTEX
  8
1
 10
301.328141154
 20
120.557286056
  0
SEQEND
  8
1
  0
LINE
  8
1
 62
4
  6
CONTINUOUS
 10
291.177738487
 20
177.930644754
 11
303.762633244
 21
118.723369956
  0
ENDBLK
  8
0
  0
BLOCK
  8
0
  2
*D180
 70
65
 10
0.000000000
 20
0.000000000
  3
*D
  0
TEXT
  8
1
 62
4
  6
CONTINUOUS
 72
5
 10
327.176038621
 20
173.088921319
 40
2.800000000
  1
(
 41
1.800001800
 50
282.000000005
 11
327.525330262
 21
171.445633349
  0
TEXT
  8
1
 62
4
  6
CONTINUOUS
 72
5
 10
327.699976082
 20
170.623989365
 40
2.800000000
  1
57
 41
0.899998740
 50
282.000000005
 11
328.573205183
 21
166.515769442
  0
TEXT
  8
1
 62
4
  6
CONTINUOUS
 72
5
 10
328.747851003
 20
165.694125457
 40
2.800000000
  1
)
 41
1.800001800
 50
282.000000005
 11
329.097142644
 21
164.050837488
  0
LINE
  8
1
 62
4
  6
CONTINUOUS
 10
288.797149628
 20
189.130434783
 11
322.054168053
 21
196.199432268
  0
POLYLINE
  8
1
 62
4
  6
CONTINUOUS
 66
1
  0
VERTEX
  8
1
 10
320.807140514
 20
193.889687192
  0
VERTEX
  8
1
 10
320.097872852
 20
195.783608886
  0
VERTEX
  8
1
 10
320.220251953
 20
193.764940177
  0
SEQEND
  8
1
  0
LINE
  8
1
 62
4
  6
CONTINUOUS
 10
320.097872852
 20
195.783608886
 11
331.858184578
 21
140.455692243
  0
POLYLINE
  8
1
 62
4
  6
CONTINUOUS
 66
1
  0
VERTEX
  8
1
 10
331.148916916
 20
142.349613937
  0
VERTEX
  8
1
 10
331.858184578
 20
140.455692243
  0
VERTEX
  8
1
 10
331.735805476
 20
142.474360952
  0
SEQEND
  8
1
  0
LINE
  8
1
 62
4
  6
CONTINUOUS
 10
310.143307841
 20
135.840052709
 11
333.814479779
 21
140.871515625
  0
ENDBLK
  8
0
  0
BLOCK
  8
0
  2
*D183
 70
65
 10
0.000000000
 20
0.000000000
  3
*D
  0
TEXT
  8
1
 62
4
  6
CONTINUOUS
 72
5
 10
248.353445422
 20
163.374729478
 40
2.800000000
  1
(
 41
1.800001800
 50
78.000000015
 11
248.702737062
 21
165.018017447
  0
TEXT
  8
1
 62
4
  6
CONTINUOUS
 72
5
 10
248.877382882
 20
165.839661432
 40
2.800000000
  1
58
 41
0.899998740
 50
78.000000015
 11
249.750611983
 21
169.947881355
  0
TEXT
  8
1
 62
4
  6
CONTINUOUS
 72
5
 10
249.925257803
 20
170.769525340
 40
2.800000000
  1
)
 41
1.800001800
 50
78.000000015
 11
250.274549444
 21
172.412813309
  0
LINE
  8
1
 62
4
  6
CONTINUOUS
 10
288.797149628
 20
189.130434783
 11
255.540131202
 21
196.199432266
  0
POLYLINE
  8
1
 62
4
  6
CONTINUOUS
 66
1
  0
VERTEX
  8
1
 10
257.374047302
 20
193.764940176
  0
VERTEX
  8
1
 10
257.496426403
 20
195.783608885
  0
VERTEX
  8
1
 10
256.787158742
 20
193.889687190
  0
SEQEND
  8
1
  0
LINE
  8
1
 62
4
  6
CONTINUOUS
 10
257.496426403
 20
195.783608885
 11
245.441706465
 21
139.070610467
  0
POLYLINE
  8
1
 62
4
  6
CONTINUOUS
 66
1
  0
VERTEX
  8
1
 10
245.564085566
 20
141.089279176
  0
VERTEX
  8
1
 10
245.441706465
 20
139.070610467
  0
VERTEX
  8
1
 10
246.150974127
 20
140.964532162
  0
SEQEND
  8
1
  0
LINE
  8
1
 62
4
  6
CONTINUOUS
 10
267.156583195
 20
134.454970935
 11
243.485411264
 21
139.486433849
  0
ENDBLK
  8
0
  0
ENDSEC
  0
SECTION
  2
ENTITIES
  0
LINE
  8
1
 62
7
  6
CONTINUOUS
 10
95.697149628
 20
184.530434783
 11
95.797149628
 21
184.430434783
  0
LINE
  8
1
 62
7
  6
CONTINUOUS
 10
119.397149628
 20
184.832106619
 11
119.397149628
 21
193.428762946
  0
LINE
  8
1
 62
7
  6
CONTINUOUS
 10
93.097149628
 20
193.730434783
 11
95.697149628
 21
193.730434783
  0
LINE
  8
1
 62
7
  6
CONTINUOUS
 10
92.997149628
 20
193.830434783
 11
93.097149628
 21
193.730434783
  0
LINE
  8
1
 62
7
  6
CONTINUOUS
 10
88.275647012
 20
183.230434783
 11
88.275647012
 21
195.030434783
  0
LINE
  8
1
 62
7
  6
CONTINUOUS
 10
92.625647012
 20
193.830434783
 11
92.997149628
 21
193.830434783
  0
LINE
  8
17
 62
1
  6
CENTER
 10
69.125647012
 20
189.130434783
 11
216.797149628
 21
189.130434783
  0
LINE
  8
1
 62
4
  6
CONTINUOUS
 10
93.197149628
 20
191.401998121
 11
95.597149628
 21
186.858871444
  0
LINE
  8
1
 62
7
  6
CONTINUOUS
 10
92.997149628
 20
184.430434783
 11
93.097149628
 21
184.530434783
  0
LINE
  8
1
 62
7
  6
CONTINUOUS
 10
93.097149628
 20
184.530434783
 11
95.697149628
 21
184.530434783
  0
LINE
  8
1
 62
7
  6
CONTINUOUS
 10
116.197149628
 20
184.832106619
 11
119.397149628
 21
184.832106619
  0
LINE
  8
1
 62
4
  6
CONTINUOUS
 10
95.597149628
 20
191.401998121
 11
93.197149628
 21
186.858871444
  0
LINE
  8
1
 62
4
  6
CONTINUOUS
 10
116.197149628
 20
193.428762946
 11
119.397149628
 21
184.832106619
  0
LINE
  8
1
 62
7
  6
CONTINUOUS
 10
95.697149628
 20
193.730434783
 11
95.797149628
 21
193.830434783
  0
LINE
  8
1
 62
7
  6
CONTINUOUS
 10
214.797149628
 20
197.630434783
 11
204.797149628
 21
197.630434783
  0
LINE
  8
1
 62
7
  6
CONTINUOUS
 10
92.625647012
 20
184.430434783
 11
92.997149628
 21
184.430434783
  0
ARC
  8
1
 62
7
  6
CONTINUOUS
 10
202.347149628
 20
197.830434783
 40
0.450000000
 50
0.000000000
 51
56.251011412
  0
LINE
  8
1
 62
7
  6
CONTINUOUS
 10
157.797149628
 20
193.428762946
 11
157.797149628
 21
184.832106619
  0
LINE
  8
1
 62
7
  6
CONTINUOUS
 10
160.997149628
 20
193.428762946
 11
160.997149628
 21
184.832106619
  0
LINE
  8
1
 62
7
  6
CONTINUOUS
 10
157.797149628
 20
184.832106619
 11
160.997149628
 21
184.832106619
  0
LINE
  8
1
 62
7
  6
CONTINUOUS
 10
157.797149628
 20
193.428762946
 11
160.997149628
 21
193.428762946
  0
LINE
  8
1
 62
7
  6
CONTINUOUS
 10
202.797149628
 20
198.580434783
 11
202.797149628
 21
179.680434783
  0
LINE
  8
1
 62
4
  6
PHANTOM
 10
214.797149628
 20
179.980434783
 11
214.797149628
 21
180.630434783
  0
LINE
  8
1
 62
4
  6
PHANTOM
 10
214.497149628
 20
179.680434783
 11
204.797149628
 21
179.680434783
  0
LINE
  8
1
 62
4
  6
PHANTOM
 10
214.497149628
 20
198.580434783
 11
214.797149628
 21
198.280434783
  0
LINE
  8
1
 62
4
  6
PHANTOM
 10
214.497149628
 20
198.580434783
 11
204.797149628
 21
198.580434783
  0
LINE
  8
1
 62
4
  6
PHANTOM
 10
214.797149628
 20
179.980434783
 11
214.497149628
 21
179.680434783
  0
LINE
  8
5
 62
7
  6
CONTINUOUS
 10
122.997149628
 20
198.655434783
 11
122.997149628
 21
179.605434783
  0
LINE
  8
30
 62
7
  6
CONTINUOUS
 10
98.197149628
 20
179.805434783
 11
98.397149628
 21
179.605434783
  0
LINE
  8
30
 62
7
  6
CONTINUOUS
 10
98.397149628
 20
179.605434783
 11
122.997149628
 21
179.605434783
  0
LINE
  8
30
 62
7
  6
CONTINUOUS
 10
122.997149628
 20
179.605434783
 11
122.997149628
 21
198.655434783
  0
LINE
  8
1
 62
4
  6
CONTINUOUS
 10
157.797149628
 20
193.428762946
 11
160.997149628
 21
184.832106619
  0
LINE
  8
1
 62
4
  6
CONTINUOUS
 10
160.997149628
 20
193.428762946
 11
157.797149628
 21
184.832106619
  0
LINE
  8
30
 62
7
  6
CONTINUOUS
 10
98.197149628
 20
179.805434783
 11
98.197149628
 21
198.455434783
  0
LINE
  8
5
 62
7
  6
CONTINUOUS
 10
202.597149628
 20
198.555434783
 11
202.597149628
 21
179.705434783
  0
LINE
  8
30
 62
7
  6
CONTINUOUS
 10
98.197149628
 20
198.455434783
 11
98.397149628
 21
198.655434783
  0
LINE
  8
5
 62
7
  6
CONTINUOUS
 10
202.497149628
 20
198.655434783
 11
202.597149628
 21
198.555434783
  0
LINE
  8
5
 62
7
  6
CONTINUOUS
 10
122.997149628
 20
179.605434783
 11
202.497149628
 21
179.605434783
  0
LINE
  8
5
 62
7
  6
CONTINUOUS
 10
122.997149628
 20
198.655434783
 11
202.497149628
 21
198.655434783
  0
LINE
  8
1
 62
7
  6
CONTINUOUS
 10
116.197149628
 20
193.428762946
 11
116.197149628
 21
184.832106619
  0
ARC
  8
1
 62
7
  6
CONTINUOUS
 10
202.347149628
 20
180.430434783
 40
0.450000000
 50
303.748988588
 51
0.000000000
  0
LINE
  8
30
 62
7
  6
CONTINUOUS
 10
98.397149628
 20
198.655434783
 11
122.997149628
 21
198.655434783
  0
TEXT
  8
1
 62
4
  6
CONTINUOUS
 72
5
 10
244.547588016
 20
130.329840891
 40
3.200000000
  1
（排気）
 41
0.722783070
 11
255.058357246
 21
130.329840891
  0
TEXT
  8
1
 62
4
  6
CONTINUOUS
 72
5
 10
321.990578676
 20
130.329840891
 40
3.200000000
  1
（給気）
 41
0.722783070
 11
332.501347907
 21
130.329840891
  0
POINT
  8
1
 62
4
  6
CONTINUOUS
 10
202.797149628
 20
197.380434783
  0
DIMENSION
  8
1
 62
4
  6
CONTINUOUS
  2
*D46
 70
0
 10
307.063770745
 20
121.469729582
 11
312.194951934
 21
122.560395812
 14
304.690245618
 24
132.636287362
 13
291.177738487
 23
177.930644754
 50
191.999999995
  0
DIMENSION
  8
1
 62
4
  6
CONTINUOUS
  2
*D47
 70
0
 10
307.989774701
 20
145.971629561
 11
316.315964672
 21
147.741415872
 14
307.873664629
 24
146.517884500
 13
296.121125642
 23
144.092421146
 50
191.999999995
  0
LINE
  8
1
 62
7
  6
CONTINUOUS
 10
292.443428234
 20
160.192193517
 11
304.670273244
 21
162.791089652
  0
ARC
  8
1
 62
7
  6
CONTINUOUS
 10
305.092593866
 20
160.804227338
 40
2.031250000
 50
102.000000000
 51
161.489762594
  0
LINE
  8
1
 62
7
  6
CONTINUOUS
 10
292.805837181
 20
150.070158373
 11
295.007235900
 21
149.333244475
  0
LINE
  8
1
 62
7
  6
CONTINUOUS
 10
308.461148453
 20
153.373459103
 11
306.744928993
 21
151.828168161
  0
ARC
  8
1
 62
7
  6
CONTINUOUS
 10
294.340300262
 20
151.268112262
 40
2.031250000
 50
288.451825822
 51
341.489762594
  0
LINE
  8
1
 62
7
  6
CONTINUOUS
 10
309.935396150
 20
136.818200310
 11
298.197624941
 21
134.323260020
  0
LINE
  8
1
 62
7
  6
CONTINUOUS
 10
308.052351367
 20
138.462627975
 11
308.468174749
 21
136.506332773
  0
LINE
  8
1
 62
7
  6
CONTINUOUS
 10
298.405536632
 20
133.345112419
 11
310.143307841
 21
135.840052709
  0
LINE
  8
1
 62
7
  6
CONTINUOUS
 10
305.069795901
 20
152.494448225
 11
303.166426633
 21
161.449096592
  0
LINE
  8
1
 62
7
  6
CONTINUOUS
 10
298.197624941
 20
134.323260020
 11
298.405536632
 21
133.345112419
  0
LINE
  8
1
 62
7
  6
CONTINUOUS
 10
310.143307841
 20
135.840052709
 11
309.935396150
 21
136.818200310
  0
LINE
  8
1
 62
7
  6
CONTINUOUS
 10
271.021815448
 20
162.258927664
 11
269.155559891
 21
153.478885580
  0
LINE
  8
1
 62
7
  6
CONTINUOUS
 10
272.941485440
 20
162.873229806
 11
285.168330449
 21
160.274333671
  0
LINE
  8
5
 62
7
  6
CONTINUOUS
 10
202.597149628
 20
179.705434783
 11
202.497149628
 21
179.605434783
  0
LINE
  8
1
 62
7
  6
CONTINUOUS
 10
272.541962783
 20
152.576588379
 11
274.445332051
 21
161.531236746
  0
ARC
  8
1
 62
7
  6
CONTINUOUS
 10
271.111310260
 20
153.749981128
 40
1.850301917
 50
208.317900462
 51
320.642077288
  0
LINE
  8
1
 62
7
  6
CONTINUOUS
 10
284.800971843
 20
150.129012205
 11
283.582748501
 21
149.207456334
  0
LINE
  8
1
 62
7
  6
CONTINUOUS
 10
269.155559891
 20
153.478885580
 11
269.888760206
 21
152.118203402
  0
LINE
  8
1
 62
7
  6
CONTINUOUS
 10
279.102266094
 20
132.938178246
 11
267.364494886
 21
135.433118536
  0
LINE
  8
1
 62
7
  6
CONTINUOUS
 10
278.050868075
 20
135.206340984
 11
277.635044693
 21
133.250045783
  0
LINE
  8
1
 62
7
  6
CONTINUOUS
 10
286.672177060
 20
158.932340611
 11
284.800971843
 21
150.129012205
  0
LINE
  8
1
 62
7
  6
CONTINUOUS
 10
272.941485440
 20
162.873229806
 11
271.021815448
 21
162.258927664
  0
LINE
  8
1
 62
7
  6
CONTINUOUS
 10
267.156583195
 20
134.454970935
 11
278.894354404
 21
131.960030646
  0
LINE
  8
1
 62
7
  6
CONTINUOUS
 10
285.168330449
 20
160.274333671
 11
286.672177060
 21
158.932340611
  0
LINE
  8
1
 62
7
  6
CONTINUOUS
 10
267.364494886
 20
135.433118536
 11
267.156583195
 21
134.454970935
  0
LINE
  8
1
 62
7
  6
CONTINUOUS
 10
278.894354404
 20
131.960030646
 11
279.102266094
 21
132.938178246
  0
LINE
  8
1
 62
7
  6
CONTINUOUS
 10
281.345291190
 20
150.705383162
 11
283.248660457
 21
159.660031529
  0
ARC
  8
1
 62
7
  6
CONTINUOUS
 10
272.519164818
 20
160.886367492
 40
2.031250000
 50
18.510237406
 51
78.000000000
  0
LINE
  8
1
 62
7
  6
CONTINUOUS
 10
283.582748501
 20
149.207456334
 11
280.600192922
 21
135.175635557
  0
LINE
  8
1
 62
7
  6
CONTINUOUS
 10
280.007163276
 20
134.790517602
 11
267.291244467
 21
137.493369583
  0
LINE
  8
1
 62
7
  6
CONTINUOUS
 10
269.890399281
 20
152.126298753
 11
266.906126512
 21
138.086399229
  0
ARC
  8
1
 62
7
  6
CONTINUOUS
 10
278.944777010
 20
161.055656428
 40
10.625000000
 50
232.942384582
 51
283.057615418
  0
ARC
  8
1
 62
7
  6
CONTINUOUS
 10
284.746009827
 20
158.287471357
 40
2.031250000
 50
78.000000000
 51
137.489762594
  0
LINE
  8
1
 62
7
  6
CONTINUOUS
 10
283.582748501
 20
149.207456334
 11
269.888760206
 21
152.118203402
  0
ARC
  8
1
 62
7
  6
CONTINUOUS
 10
283.138063232
 20
151.204507945
 40
1.860955976
 50
195.557708232
 51
307.106605351
  0
LINE
  8
1
 62
7
  6
CONTINUOUS
 10
306.744928993
 20
151.828168161
 11
309.415616923
 21
139.263569311
  0
LINE
  8
1
 62
7
  6
CONTINUOUS
 10
309.030498968
 20
138.670539666
 11
298.270875360
 21
136.383511067
  0
LINE
  8
1
 62
7
  6
CONTINUOUS
 10
295.005440593
 20
149.341306618
 11
297.677845714
 21
136.768629022
  0
LINE
  8
1
 62
7
  6
CONTINUOUS
 10
306.744928993
 20
151.828168161
 11
295.007235900
 21
149.333244475
  0
ARC
  8
1
 62
7
  6
CONTINUOUS
 10
276.845846230
 20
151.180963481
 40
10.625000000
 50
52.942384582
 51
103.057615418
  0
LINE
  8
1
 62
7
  6
CONTINUOUS
 10
292.443428234
 20
160.192193517
 11
290.939581624
 21
158.850200457
  0
LINE
  8
1
 62
7
  6
CONTINUOUS
 10
268.831716287
 20
135.121251000
 11
269.247539668
 21
137.077546201
  0
LINE
  8
1
 62
7
  6
CONTINUOUS
 10
266.906126512
 20
138.086399229
 11
267.291244467
 21
137.493369583
  0
LINE
  8
1
 62
7
  6
CONTINUOUS
 10
280.007163276
 20
134.790517602
 11
280.600192922
 21
135.175635557
  0
LINE
  8
1
 62
7
  6
CONTINUOUS
 10
280.600192922
 20
135.175635557
 11
266.906126512
 21
138.086399229
  0
LINE
  8
1
 62
7
  6
CONTINUOUS
 10
304.670273244
 20
162.791089652
 11
306.589943236
 21
162.176787510
  0
LINE
  8
1
 62
7
  6
CONTINUOUS
 10
290.939581624
 20
158.850200457
 11
292.805837181
 21
150.070158373
  0
LINE
  8
1
 62
7
  6
CONTINUOUS
 10
299.664846342
 20
134.635127556
 11
299.249022961
 21
136.591422757
  0
LINE
  8
1
 62
7
  6
CONTINUOUS
 10
297.677845714
 20
136.768629022
 11
298.270875360
 21
136.383511067
  0
LINE
  8
1
 62
7
  6
CONTINUOUS
 10
309.030498968
 20
138.670539666
 11
309.415616923
 21
139.263569311
  0
LINE
  8
1
 62
7
  6
CONTINUOUS
 10
309.415616923
 20
139.263569311
 11
297.677845714
 21
136.768629022
  0
LINE
  8
1
 62
7
  6
CONTINUOUS
 10
296.266467494
 20
150.623243008
 11
294.363098227
 21
159.577891375
  0
LINE
  8
1
 62
7
  6
CONTINUOUS
 10
306.589943236
 20
162.176787510
 11
308.461148453
 21
153.373459103
  0
ARC
  8
1
 62
7
  6
CONTINUOUS
 10
292.865748856
 20
158.205331203
 40
2.031250000
 50
42.510237406
 51
102.000000000
  0
ARC
  8
1
 62
7
  6
CONTINUOUS
 10
298.666981674
 20
160.973516273
 40
10.625000000
 50
256.942384582
 51
307.057615418
  0
ARC
  8
1
 62
7
  6
CONTINUOUS
 10
306.567145271
 20
153.867008397
 40
2.031250000
 50
222.510237406
 51
275.560735571
  0
ARC
  8
1
 62
7
  6
CONTINUOUS
 10
300.765912454
 20
151.098823326
 40
10.625000000
 50
76.942384582
 51
127.057615418
  0
DIMENSION
  8
1
 62
4
  6
CONTINUOUS
  2
*D105
 70
0
 10
268.673221790
 20
146.399928882
 11
258.458936159
 21
148.571042315
 14
268.248647922
 24
144.402465878
 13
281.993844511
 23
141.732250784
 50
348.000000000
  0
ARC
  8
1
 62
7
  6
CONTINUOUS
 10
104.082933737
 20
189.130434783
 40
15.905999916
 50
344.321860013
 51
15.678139987
  0
ARC
  8
1
 62
7
  6
CONTINUOUS
 10
131.511365518
 20
189.130434783
 40
15.905999916
 50
164.321860013
 51
195.678139987
  0
LINE
  8
2
 62
1
  6
CONTINUOUS
 10
98.197149628
 20
196.030434783
 11
97.997149628
 21
196.030434783
  0
LINE
  8
2
 62
7
  6
CONTINUOUS
 10
98.197149628
 20
196.330434783
 11
97.997149628
 21
196.330434783
  0
LINE
  8
2
 62
7
  6
CONTINUOUS
 10
98.197149628
 20
181.930434783
 11
97.997149628
 21
181.930434783
  0
LINE
  8
2
 62
1
  6
CONTINUOUS
 10
98.197149628
 20
182.230434783
 11
97.997149628
 21
182.230434783
  0
LINE
  8
1
 62
7
  6
CONTINUOUS
 10
97.997149628
 20
198.505434783
 11
97.897149628
 21
198.605434783
  0
LINE
  8
1
 62
7
  6
CONTINUOUS
 10
204.997149628
 20
180.630434783
 11
204.997149628
 21
185.217021624
  0
LINE
  8
1
 62
7
  6
CONTINUOUS
 10
204.997149628
 20
180.630434783
 11
204.797149628
 21
180.630434783
  0
LINE
  8
1
 62
7
  6
CONTINUOUS
 10
212.597149628
 20
180.630434783
 11
212.597149628
 21
185.217021624
  0
LINE
  8
1
 62
7
  6
CONTINUOUS
 10
212.597149628
 20
185.217021624
 11
204.997149628
 21
185.217021624
  0
LINE
  8
1
 62
7
  6
CONTINUOUS
 10
95.797149628
 20
198.405434783
 11
95.997149628
 21
198.605434783
  0
LINE
  8
1
 62
7
  6
CONTINUOUS
 10
97.897149628
 20
198.605434783
 11
95.997149628
 21
198.605434783
  0
LINE
  8
1
 62
7
  6
CONTINUOUS
 10
284.667682350
 20
180.630434783
 11
292.926616906
 21
180.630434783
  0
LINE
  8
1
 62
7
  6
CONTINUOUS
 10
292.926616906
 20
197.630434783
 11
284.667682350
 21
197.630434783
  0
LINE
  8
1
 62
7
  6
CONTINUOUS
 10
204.797149628
 20
180.630434783
 11
204.797149628
 21
179.680434783
  0
LINE
  8
1
 62
7
  6
CONTINUOUS
 10
214.797149628
 20
180.630434783
 11
212.597149628
 21
180.630434783
  0
LINE
  8
1
 62
7
  6
CONTINUOUS
 10
204.797149628
 20
197.630434783
 11
204.797149628
 21
198.580434783
  0
LINE
  8
1
 62
7
  6
CONTINUOUS
 10
214.797149628
 20
180.630434783
 11
214.797149628
 21
197.630434783
  0
LINE
  8
1
 62
7
  6
CONTINUOUS
 10
204.797149628
 20
179.680434783
 11
202.797149628
 21
179.680434783
  0
LINE
  8
1
 62
7
  6
CONTINUOUS
 10
204.797149628
 20
198.580434783
 11
202.797149628
 21
198.580434783
  0
DIMENSION
  8
1
 62
4
  6
CONTINUOUS
  2
*D127
 70
0
 10
202.597149628
 20
214.655434783
 11
162.797149628
 21
214.655434783
 14
202.597149628
 24
198.555434783
 13
122.997149628
 23
198.655434783
 50
0.000000000
  0
LINE
  8
1
 62
7
  6
CONTINUOUS
 10
95.797149628
 20
179.855434783
 11
95.797149628
 21
198.405434783
  0
TEXT
  8
1
 62
3
  6
CONTINUOUS
 72
5
 10
128.161398320
 20
131.223500790
 40
4.000000000
  1
ＭＳＳ－１９０８ＲＡ
 41
0.834440244
 11
167.361398320
 21
131.223500790
  0
DIMENSION
  8
1
 62
4
  6
CONTINUOUS
  2
*D130
 70
1
 10
226.797149628
 20
179.680434783
 11
226.797149628
 21
189.130434783
 14
214.497149628
 24
179.680434783
 13
214.497149628
 23
198.580434783
 50
90.000000000
  0
DIMENSION
  8
1
 62
4
  6
CONTINUOUS
  2
*D131
 70
1
 10
142.997149628
 20
179.605434783
 11
142.997149628
 21
165.605434783
 14
142.997149628
 24
179.605434783
 13
142.997149628
 23
198.655434783
 50
90.000000000
  0
DIMENSION
  8
1
 62
4
  6
CONTINUOUS
  2
*D132
 70
1
 10
112.997149628
 20
179.605434783
 11
112.997149628
 21
165.605434783
 14
112.997149628
 24
179.605434783
 13
112.997149628
 23
198.655434783
 50
90.000000000
  0
LINE
  8
1
 62
7
  6
CONTINUOUS
 10
97.997149628
 20
198.505434783
 11
97.997149628
 21
179.755434783
  0
LINE
  8
1
 62
7
  6
CONTINUOUS
 10
97.897149628
 20
179.655434783
 11
95.997149628
 21
179.655434783
  0
DIMENSION
  8
1
 62
4
  6
CONTINUOUS
  2
*D135
 70
0
 10
202.597149628
 20
214.655434783
 11
207.922963953
 21
214.655434783
 14
202.597149628
 24
198.555434783
 13
214.797149628
 23
198.280434783
 50
0.000000000
  0
LINE
  8
1
 62
7
  6
CONTINUOUS
 10
95.797149628
 20
179.855434783
 11
95.997149628
 21
179.655434783
  0
DIMENSION
  8
1
 62
4
  6
CONTINUOUS
  2
*D137
 70
0
 10
214.797149628
 20
222.655434783
 11
147.961398320
 21
222.655434783
 14
214.797149628
 24
198.280434783
 13
81.125647012
 23
192.553084513
 50
0.000000000
  0
DIMENSION
  8
1
 62
4
  6
CONTINUOUS
  2
*D138
 70
0
 10
95.797149628
 20
214.655434783
 11
88.461398320
 21
214.655434783
 14
95.797149628
 24
198.405434783
 13
81.125647012
 23
192.553084513
 50
0.000000000
  0
DIMENSION
  8
1
 62
4
  6
CONTINUOUS
  2
*D139
 70
0
 10
122.997149628
 20
214.655434783
 11
109.397149628
 21
214.655434783
 14
122.997149628
 24
198.655434783
 13
95.797149628
 23
198.405434783
 50
0.000000000
  0
ARC
  8
1
 62
7
  6
CONTINUOUS
 10
145.682933737
 20
189.130434783
 40
15.905999916
 50
344.321860013
 51
15.678139987
  0
DIMENSION
  8
1
 62
4
  6
CONTINUOUS
  2
*D141
 70
1
 10
65.125647012
 20
183.230434783
 11
65.125647012
 21
189.130434783
 14
84.684492739
 24
183.230434783
 13
84.684492739
 23
195.030434783
 50
90.000000000
  0
ARC
  8
1
 62
7
  6
CONTINUOUS
 10
214.946971420
 20
152.913756766
 40
1.860955976
 50
207.557708232
 51
319.106605351
  0
LINE
  8
1
 62
7
  6
CONTINUOUS
 10
97.997149628
 20
179.755434783
 11
97.897149628
 21
179.655434783
  0
LINE
  8
1
 62
7
  6
CONTINUOUS
 10
215.797149626
 20
151.052800790
 11
201.797229487
 21
151.052800790
  0
ARC
  8
1
 62
7
  6
CONTINUOUS
 10
215.047149626
 20
160.176251329
 40
2.031250000
 50
90.000000000
 51
149.489762594
  0
LINE
  8
1
 62
4
  6
PHANTOM
 10
214.797149628
 20
197.630434783
 11
214.797149628
 21
198.280434783
  0
LINE
  8
1
 62
7
  6
CONTINUOUS
 10
213.586214907
 20
162.207501329
 11
213.677344940
 21
165.107306014
  0
LINE
  8
1
 62
7
  6
CONTINUOUS
 10
204.008084345
 20
162.207501329
 11
203.916954312
 21
165.107306014
  0
LINE
  8
2
 62
7
  6
CONTINUOUS
 10
204.547149626
 20
165.737501329
 11
213.047149626
 21
165.737501329
  0
ARC
  8
1
 62
7
  6
CONTINUOUS
 10
208.797149626
 20
161.677800790
 40
10.625000000
 50
244.942384582
 51
295.057615418
  0
LINE
  8
1
 62
7
  6
CONTINUOUS
 10
201.797149626
 20
151.061060021
 11
201.797149626
 21
136.707500790
  0
LINE
  8
1
 62
7
  6
CONTINUOUS
 10
95.697149628
 20
184.530434783
 11
95.697149628
 21
193.730434783
  0
LINE
  8
1
 62
7
  6
CONTINUOUS
 10
215.297149626
 20
136.207500790
 11
202.297149626
 21
136.207500790
  0
LINE
  8
1
 62
7
  6
CONTINUOUS
 10
215.797149626
 20
151.052800790
 11
215.797149626
 21
136.707500790
  0
LINE
  8
1
 62
7
  6
CONTINUOUS
 10
201.797149626
 20
136.707500790
 11
202.297149626
 21
136.207500790
  0
LINE
  8
1
 62
7
  6
CONTINUOUS
 10
215.297149626
 20
136.207500790
 11
215.797149626
 21
136.707500790
  0
LINE
  8
1
 62
7
  6
CONTINUOUS
 10
302.702281445
 20
165.421807984
 11
301.964587388
 21
165.900872106
  0
LINE
  8
1
 62
7
  6
CONTINUOUS
 10
293.650332782
 20
164.133622734
 11
293.164933720
 21
163.386173726
  0
LINE
  8
1
 62
7
  6
CONTINUOUS
 10
293.650332782
 20
164.133622734
 11
293.914372040
 21
164.189746011
  0
DIMENSION
  8
1
 62
4
  6
CONTINUOUS
  2
*D160
 70
5
 10
288.797149628
 20
119.150434245
 11
281.482247712
 21
119.533792010
 13
286.416560768
 23
177.930644754
 14
288.797149628
 24
177.680434783
 15
288.797149628
 25
189.130434783
  0
DIMENSION
  8
1
 62
4
  6
CONTINUOUS
  2
*D161
 70
0
 10
274.247489400
 20
120.679665156
 11
265.648117385
 21
122.507518103
 14
286.416560768
 24
177.930644754
 13
272.609645419
 23
131.251205589
 50
168.000000007
  0
LINE
  8
1
 62
7
  6
CONTINUOUS
 10
294.811606429
 20
169.492162042
 11
295.851164883
 21
164.601424038
  0
LINE
  8
1
 62
7
  6
CONTINUOUS
 10
292.610774328
 20
169.024360737
 11
300.925028934
 21
170.791610109
  0
LINE
  8
1
 62
7
  6
CONTINUOUS
 10
303.238977356
 20
162.486858319
 11
302.712036396
 21
165.415473044
  0
LINE
  8
1
 62
7
  6
CONTINUOUS
 10
293.874724122
 20
160.496424849
 11
293.164933720
 21
163.386173726
  0
LINE
  8
2
 62
7
  6
CONTINUOUS
 10
293.650332782
 20
164.133622734
 11
301.964587388
 21
165.900872106
  0
LINE
  8
1
 62
7
  6
CONTINUOUS
 10
293.164933720
 20
163.386173726
 11
302.712036396
 21
165.415473044
  0
LINE
  8
1
 62
1
  6
CONTINUOUS
 10
302.743246572
 20
162.381487488
 11
302.129249594
 21
165.793939219
  0
LINE
  8
1
 62
1
  6
CONTINUOUS
 10
294.370454907
 20
160.601795680
 11
293.543399895
 21
163.968960528
  0
LINE
  8
1
 62
7
  6
CONTINUOUS
 10
297.185313814
 20
184.778285706
 11
300.191418233
 21
170.635676341
  0
DIMENSION
  8
1
 62
4
  6
CONTINUOUS
  2
*D171
 70
5
 10
303.346809863
 20
120.679665157
 11
296.112051543
 21
119.533792010
 13
288.797149628
 23
177.680434783
 14
291.177738487
 24
177.930644754
 15
288.797149628
 25
189.130434783
  0
LINE
  8
1
 62
7
  6
CONTINUOUS
 10
93.097149628
 20
184.530434783
 11
93.097149628
 21
193.730434783
  0
LINE
  8
15
 62
7
  6
CONTINUOUS
 10
81.125647012
 20
187.630434783
 11
71.325647012
 21
187.630434783
  0
LINE
  8
1
 62
7
  6
CONTINUOUS
 10
300.925028934
 20
170.791610109
 11
301.964587388
 21
165.900872106
  0
LINE
  8
1
 62
7
  6
CONTINUOUS
 10
280.230508880
 20
185.141053088
 11
277.160341165
 21
170.697049613
  0
LINE
  8
1
 62
7
  6
CONTINUOUS
 10
284.985521971
 20
169.033756087
 11
276.671267364
 21
170.801005459
  0
LINE
  8
1
 62
7
  6
CONTINUOUS
 10
276.671267364
 20
170.801005459
 11
275.631708910
 21
165.910267455
  0
LINE
  8
1
 62
7
  6
CONTINUOUS
 10
284.985521971
 20
169.033756087
 11
283.945963516
 21
164.143018083
  0
LINE
  8
1
 62
7
  6
CONTINUOUS
 10
278.872099466
 20
170.333204154
 11
277.832541012
 21
165.442466151
  0
DIMENSION
  8
1
 62
4
  6
CONTINUOUS
  2
*D180
 70
0
 10
331.858184577
 20
140.455692245
 11
325.978028715
 21
168.119650565
 14
310.143307841
 24
135.840052709
 13
288.797149628
 23
189.130434783
 50
102.000000000
  0
LINE
  8
1
 62
7
  6
CONTINUOUS
 10
286.939301824
 20
180.630434783
 11
284.496448170
 21
169.137711932
  0
LINE
  8
1
 62
1
  6
CONTINUOUS
 10
274.866226015
 20
162.464113567
 11
275.467046704
 21
165.803334568
  0
DIMENSION
  8
1
 62
4
  6
CONTINUOUS
  2
*D183
 70
0
 10
245.441706465
 20
139.070610467
 11
251.469066434
 21
167.427109676
 14
267.156583195
 24
134.454970935
 13
288.797149628
 23
189.130434783
 50
78.000000007
  0
LINE
  8
1
 62
1
  6
CONTINUOUS
 10
283.243589875
 20
160.683449909
 11
284.052896403
 21
163.978355877
  0
LINE
  8
1
 62
7
  6
CONTINUOUS
 10
275.631708910
 20
165.910267455
 11
274.884259902
 21
165.424868394
  0
LINE
  8
1
 62
1
  6
CENTER
 10
304.690245618
 20
132.636287362
 11
293.846409209
 21
183.652526635
  0
LINE
  8
1
 62
7
  6
CONTINUOUS
 10
210.797149626
 20
170.737501329
 11
210.797149626
 21
165.737501329
  0
LINE
  8
2
 62
7
  6
CONTINUOUS
 10
203.916954312
 20
165.107306014
 11
213.677344940
 21
165.107306014
  0
ARC
  8
1
 62
7
  6
CONTINUOUS
 10
202.547149626
 20
160.176251329
 40
2.031250000
 50
30.510237406
 51
90.000000000
  0
LINE
  8
1
 62
7
  6
CONTINUOUS
 10
213.297149626
 20
152.052800790
 11
213.297149626
 21
161.207501329
  0
LINE
  8
1
 62
7
  6
CONTINUOUS
 10
214.797149626
 20
133.207500790
 11
214.797149626
 21
134.207500790
  0
LINE
  8
1
 62
7
  6
CONTINUOUS
 10
202.797149626
 20
134.207500790
 11
202.797149626
 21
133.207500790
  0
LINE
  8
1
 62
7
  6
CONTINUOUS
 10
215.047149626
 20
162.207501329
 11
216.797149626
 21
161.207501329
  0
LINE
  8
1
 62
7
  6
CONTINUOUS
 10
119.397149628
 20
193.428762946
 11
116.197149628
 21
193.428762946
  0
LINE
  8
1
 62
7
  6
CONTINUOUS
 10
95.597149628
 20
191.401998121
 11
95.597149628
 21
186.858871444
  0
ARC
  8
15
 62
7
  6
CONTINUOUS
 10
71.325647012
 20
190.430434783
 40
0.200000000
 50
90.000000000
 51
180.000000000
  0
LINE
  8
15
 62
7
  6
CONTINUOUS
 10
71.325647012
 20
190.630434783
 11
81.125647012
 21
190.630434783
  0
LINE
  8
1
 62
1
  6
CENTER
 10
286.416560768
 20
177.930644754
 11
288.797149628
 21
189.130434783
  0
LINE
  8
1
 62
7
  6
CONTINUOUS
 10
92.997149628
 20
193.830434783
 11
92.997149628
 21
184.430434783
  0
LINE
  8
15
 62
7
  6
CONTINUOUS
 10
71.125647012
 20
190.430434783
 11
71.125647012
 21
187.830434783
  0
LINE
  8
1
 62
7
  6
CONTINUOUS
 10
93.197149628
 20
191.401998121
 11
93.197149628
 21
186.858871444
  0
LINE
  8
1
 62
7
  6
CONTINUOUS
 10
202.797149626
 20
133.207500790
 11
214.797149626
 21
133.207500790
  0
ARC
  8
15
 62
7
  6
CONTINUOUS
 10
71.325647012
 20
187.830434783
 40
0.200000000
 50
180.000000000
 51
270.000000000
  0
LINE
  8
1
 62
7
  6
CONTINUOUS
 10
202.547149626
 20
162.207501329
 11
200.797149626
 21
161.207501329
  0
LINE
  8
1
 62
7
  6
CONTINUOUS
 10
84.975647012
 20
183.230434783
 11
84.975647012
 21
195.030434783
  0
LINE
  8
1
 62
7
  6
CONTINUOUS
 10
216.797149626
 20
161.207501329
 11
216.797149626
 21
152.207501329
  0
LINE
  8
1
 62
7
  6
CONTINUOUS
 10
213.297149626
 20
136.207500790
 11
213.297149626
 21
134.207500790
  0
LINE
  8
1
 62
7
  6
CONTINUOUS
 10
87.975647012
 20
186.995019132
 11
88.125647012
 21
187.145019132
  0
LINE
  8
1
 62
7
  6
CONTINUOUS
 10
88.125647012
 20
191.115850433
 11
87.975647012
 21
191.265850433
  0
LINE
  8
1
 62
7
  6
CONTINUOUS
 10
213.677344940
 20
165.107306014
 11
213.047149626
 21
165.737501329
  0
LINE
  8
1
 62
7
  6
CONTINUOUS
 10
85.275647012
 20
183.630434783
 11
85.275647012
 21
186.995019132
  0
LINE
  8
1
 62
7
  6
CONTINUOUS
 10
87.975647012
 20
183.630434783
 11
87.975647012
 21
186.995019132
  0
LINE
  8
1
 62
7
  6
CONTINUOUS
 10
204.547149626
 20
165.737501329
 11
203.916954312
 21
165.107306014
  0
LINE
  8
1
 62
1
  6
CONTINUOUS
 10
213.079409202
 20
162.207501329
 11
213.185980970
 21
165.598669984
  0
LINE
  8
1
 62
1
  6
CONTINUOUS
 10
204.514890050
 20
162.207501329
 11
204.408318281
 21
165.598669984
  0
LINE
  8
1
 62
7
  6
CONTINUOUS
 10
212.547149626
 20
185.217021624
 11
212.547149626
 21
170.737501329
  0
LINE
  8
1
 62
7
  6
CONTINUOUS
 10
85.275647012
 20
191.265850433
 11
87.975647012
 21
191.265850433
  0
LINE
  8
1
 62
7
  6
CONTINUOUS
 10
206.797149626
 20
170.737501329
 11
206.797149626
 21
165.737501329
  0
LINE
  8
1
 62
7
  6
CONTINUOUS
 10
85.275647012
 20
186.995019132
 11
87.975647012
 21
186.995019132
  0
LINE
  8
1
 62
7
  6
CONTINUOUS
 10
213.047149626
 20
170.737501329
 11
213.047149626
 21
165.737501329
  0
LINE
  8
1
 62
4
  6
CONTINUOUS
 10
85.125647012
 20
191.115850433
 11
88.125647012
 21
187.145019132
  0
LINE
  8
1
 62
7
  6
CONTINUOUS
 10
85.275647012
 20
191.265850433
 11
85.275647012
 21
194.630434783
  0
LINE
  8
1
 62
7
  6
CONTINUOUS
 10
204.547149626
 20
170.737501329
 11
204.547149626
 21
165.737501329
  0
LINE
  8
1
 62
7
  6
CONTINUOUS
 10
213.047149626
 20
170.737501329
 11
204.547149626
 21
170.737501329
  0
LINE
  8
1
 62
7
  6
CONTINUOUS
 10
87.975647012
 20
191.265850433
 11
87.975647012
 21
194.630434783
  0
LINE
  8
1
 62
7
  6
CONTINUOUS
 10
91.825647012
 20
195.030434783
 11
91.825647012
 21
183.230434783
  0
LINE
  8
1
 62
7
  6
CONTINUOUS
 10
81.125647012
 20
185.707785052
 11
81.125647012
 21
192.553084513
  0
LINE
  8
1
 62
7
  6
CONTINUOUS
 10
84.684492739
 20
195.030434783
 11
84.684492739
 21
183.230434783
  0
LINE
  8
1
 62
7
  6
CONTINUOUS
 10
88.125647012
 20
183.380434783
 11
88.275647012
 21
183.230434783
  0
LINE
  8
1
 62
7
  6
CONTINUOUS
 10
81.625647012
 20
192.919109917
 11
81.625647012
 21
185.341759648
  0
LINE
  8
1
 62
7
  6
CONTINUOUS
 10
205.047149626
 20
185.217021624
 11
205.047149626
 21
170.737501329
  0
LINE
  8
1
 62
7
  6
CONTINUOUS
 10
88.125647012
 20
194.880434783
 11
88.125647012
 21
183.380434783
  0
LINE
  8
1
 62
7
  6
CONTINUOUS
 10
214.797149626
 20
134.207500790
 11
202.797149626
 21
134.207500790
  0
LINE
  8
1
 62
7
  6
CONTINUOUS
 10
84.975647012
 20
183.230434783
 11
84.684492739
 21
183.230434783
  0
LINE
  8
1
 62
7
  6
CONTINUOUS
 10
200.797149626
 20
152.231307881
 11
201.797229487
 21
151.052800790
  0
ARC
  8
1
 62
7
  6
CONTINUOUS
 10
84.684492739
 20
184.230434783
 40
1.000000000
 50
240.000000000
 51
270.000000000
  0
LINE
  8
1
 62
7
  6
CONTINUOUS
 10
85.125647012
 20
183.380434783
 11
85.125647012
 21
194.880434783
  0
LINE
  8
1
 62
7
  6
CONTINUOUS
 10
216.797149626
 20
152.207501329
 11
215.797149626
 21
151.052800790
  0
LINE
  8
1
 62
7
  6
CONTINUOUS
 10
81.625647012
 20
184.841759648
 11
84.184492739
 21
183.364409379
  0
ARC
  8
1
 62
7
  6
CONTINUOUS
 10
202.653798223
 20
152.903102707
 40
1.850301917
 50
220.317900462
 51
332.642077288
  0
LINE
  8
1
 62
7
  6
CONTINUOUS
 10
204.297149626
 20
152.052800790
 11
204.297149626
 21
161.207501329
  0
LINE
  8
1
 62
7
  6
CONTINUOUS
 10
91.825647012
 20
195.030434783
 11
88.275647012
 21
195.030434783
  0
LINE
  8
1
 62
7
  6
CONTINUOUS
 10
215.797149626
 20
136.707500790
 11
201.797149626
 21
136.707500790
  0
LINE
  8
1
 62
7
  6
CONTINUOUS
 10
284.431362578
 20
163.395569075
 11
283.945963516
 21
164.143018083
  0
LINE
  8
2
 62
7
  6
CONTINUOUS
 10
274.884259902
 20
165.424868394
 11
284.431362578
 21
163.395569075
  0
LINE
  8
1
 62
7
  6
CONTINUOUS
 10
92.625647012
 20
194.230434783
 11
92.625647012
 21
184.030434783
  0
LINE
  8
1
 62
1
  6
CENTER
 10
300.247149628
 20
189.130434783
 11
277.347149628
 21
189.130434783
  0
LINE
  8
1
 62
7
  6
CONTINUOUS
 10
85.125647012
 20
194.630434783
 11
88.125647012
 21
194.630434783
  0
LINE
  8
1
 62
7
  6
CONTINUOUS
 10
84.975647012
 20
195.030434783
 11
85.125647012
 21
194.880434783
  0
ARC
  8
1
 62
7
  6
CONTINUOUS
 10
91.825647012
 20
184.030434783
 40
0.800000000
 50
270.000000000
 51
0.000000000
  0
ARC
  8
1
 62
7
  6
CONTINUOUS
 10
82.125647012
 20
185.707785052
 40
1.000000000
 50
180.000000000
 51
240.000000000
  0
ARC
  8
1
 62
7
  6
CONTINUOUS
 10
82.125647012
 20
192.553084513
 40
1.000000000
 50
120.000000000
 51
180.000000000
  0
LINE
  8
1
 62
7
  6
CONTINUOUS
 10
202.547149626
 20
162.207501329
 11
215.047149626
 21
162.207501329
  0
LINE
  8
1
 62
1
  6
CENTER
 10
288.797149628
 20
200.580434783
 11
288.797149628
 21
177.680434783
  0
ARC
  8
1
 62
7
  6
CONTINUOUS
 10
91.825647012
 20
194.230434783
 40
0.800000000
 50
0.000000000
 51
90.000000000
  0
LINE
  8
1
 62
7
  6
CONTINUOUS
 10
84.975647012
 20
183.230434783
 11
85.125647012
 21
183.380434783
  0
ARC
  8
1
 62
7
  6
CONTINUOUS
 10
288.797149628
 20
189.130434783
 40
9.450000000
 50
295.911393746
 51
244.088606254
  0
LINE
  8
1
 62
7
  6
CONTINUOUS
 10
200.797149626
 20
161.207501329
 11
200.797149626
 21
152.231307881
  0
LINE
  8
1
 62
4
  6
CONTINUOUS
 10
119.397149628
 20
193.428762946
 11
116.197149628
 21
184.832106619
  0
LINE
  8
1
 62
7
  6
CONTINUOUS
 10
282.784689869
 20
169.501557391
 11
281.745131415
 21
164.610819387
  0
LINE
  8
1
 62
7
  6
CONTINUOUS
 10
93.197149628
 20
186.858871444
 11
95.597149628
 21
186.858871444
  0
LINE
  8
2
 62
7
  6
CONTINUOUS
 10
275.631708910
 20
165.910267455
 11
283.945963516
 21
164.143018083
  0
LINE
  8
1
 62
1
  6
CENTER
 10
272.609645419
 20
131.251205589
 11
283.747890046
 21
183.652526635
  0
ARC
  8
1
 62
7
  6
CONTINUOUS
 10
288.797149628
 20
189.130434783
 40
9.450000000
 50
257.696846312
 51
283.819219294
  0
LINE
  8
1
 62
7
  6
CONTINUOUS
 10
85.275647012
 20
191.265850433
 11
85.125647012
 21
191.115850433
  0
LINE
  8
1
 62
1
  6
CENTER
 10
291.177738487
 20
177.930644754
 11
288.797149628
 21
189.130434783
  0
LINE
  8
1
 62
7
  6
CONTINUOUS
 10
81.625647012
 20
193.419109917
 11
84.184492739
 21
194.896460186
  0
LINE
  8
1
 62
7
  6
CONTINUOUS
 10
85.125647012
 20
183.630434783
 11
88.125647012
 21
183.630434783
  0
LINE
  8
1
 62
7
  6
CONTINUOUS
 10
93.197149628
 20
191.401998121
 11
95.597149628
 21
191.401998121
  0
LINE
  8
1
 62
7
  6
CONTINUOUS
 10
91.825647012
 20
183.230434783
 11
88.275647012
 21
183.230434783
  0
ARC
  8
1
 62
7
  6
CONTINUOUS
 10
84.684492739
 20
194.030434783
 40
1.000000000
 50
90.000000000
 51
120.000000000
  0
LINE
  8
1
 62
7
  6
CONTINUOUS
 10
204.297149626
 20
134.207500790
 11
204.297149626
 21
136.207500790
  0
LINE
  8
1
 62
7
  6
CONTINUOUS
 10
84.975647012
 20
195.030434783
 11
84.684492739
 21
195.030434783
  0
LINE
  8
1
 62
7
  6
CONTINUOUS
 10
85.125647012
 20
187.145019132
 11
85.275647012
 21
186.995019132
  0
LINE
  8
1
 62
7
  6
CONTINUOUS
 10
88.125647012
 20
194.880434783
 11
88.275647012
 21
195.030434783
  0
LINE
  8
1
 62
4
  6
CONTINUOUS
 10
88.125647012
 20
191.115850433
 11
85.125647012
 21
187.145019132
  0
ARC
  8
1
 62
7
  6
CONTINUOUS
 10
208.797149626
 20
151.582501329
 40
10.625000000
 50
64.942384582
 51
115.057615418
  0
LINE
  8
1
 62
7
  6
CONTINUOUS
 10
274.370495231
 20
162.569484398
 11
274.884259902
 21
165.424868394
  0
LINE
  8
1
 62
7
  6
CONTINUOUS
 10
292.610774328
 20
169.024360737
 11
293.650332782
 21
164.133622734
  0
LINE
  8
1
 62
1
  6
CENTER
 10
208.797149628
 20
187.217021624
 11
208.797149628
 21
131.207500790
  0
LINE
  8
1
 62
7
  6
CONTINUOUS
 10
283.739320659
 20
160.578079078
 11
284.431362578
 21
163.395569075
  0
LINE
  8
1
 62
7
  6
CONTINUOUS
 10
290.910582580
 20
180.630434783
 11
293.344385028
 21
169.180294505
  0
LINE
  8
1
 62
7
  6
CONTINUOUS
 10
84.184492739
 20
194.396460186
 11
84.184492739
 21
183.864409379
  0
LINE
  8
1
 62
7
  6
CONTINUOUS
 10
298.724196832
 20
170.323808805
 11
299.763755286
 21
165.433070801
  0
ARC
  8
1
 62
7
  6
CONTINUOUS
 10
173.111365518
 20
189.130434783
 40
15.905999916
 50
164.321860013
 51
195.678139987
  0
ENDSEC
  0
EOF
