  0
SECTION
  2
HEADER
  9
$ACADVER
  1
AC1009
  9
$INSBASE
 10
0.000000000
 20
0.000000000
  9
$EXTMIN
 10
-23.069714963
 20
-20.503643470
  9
$EXTMAX
 10
253.766864590
 20
225.540078169
  9
$LIMMIN
 10
-23.069714963
 20
-20.503643470
  9
$LIMMAX
 10
253.766864590
 20
225.540078169
  9
$SNAPBASE
 10
0.000000000
 20
0.000000000
  9
$SNAPANG
 50
0.000000000
  9
$SNAPSTYLE
 70
0
  9
$GRIDMODE
 70
0
  9
$GRIDUNIT
 10
0.000000000
 20
0.000000000
  9
$DIMEXO
 40
0.000000000
  9
$DIMDLI
 40
8.000000000
  9
$DIMDLE
 40
0.000000000
  9
$DIMEXE
 40
1.000000000
  9
$DIMTIH
 70
1
  9
$DIMTOH
 70
1
  9
$DIMTAD
 70
2
  9
$DIMZIN
 70
0
  9
$FILLETRAD
 40
1.000000000
  9
$CHAMFERA
 40
1.000000000
  9
$CHAMFERB
 40
1.000000000
  9
$TDCREATE
 40
2454152.720949074
  9
$TDUPDATE
 40
2454152.720949074
  9
$ANGBASE
 50
0.000000000
  9
$ANGDIR
 70
0
  0
ENDSEC
  0
SECTION
  2
TABLES
  0
TABLE
  2
LTYPE
 70
3
  0
LTYPE
  2
CENTER
 70
64
  3
___ _ ___ _ __
 72
65
 73
4
 40
13.000000000
 49
8.500000000
 49
-1.500000000
 49
1.500000000
 49
-1.500000000
  0
LTYPE
  2
CONTINUOUS
 70
64
  3
______________
 72
65
 73
0
 40
0.000000000
  0
LTYPE
  2
DIVIDE
 70
64
  3
___ . . ___ . 
 72
65
 73
6
 40
12.999999523
 49
5.199999809
 49
-2.599999905
 49
0.000000000
 49
-2.599999905
 49
0.000000000
 49
-2.599999905
  0
ENDTAB
  0
TABLE
  2
LAYER
 70
7
  0
LAYER
  2
1
 70
0
 62
7
  6
CONTINUOUS
  0
LAYER
  2
2
 70
0
 62
7
  6
CONTINUOUS
  0
LAYER
  2
5
 70
0
 62
7
  6
CONTINUOUS
999
Comment
  0
LAYER
  2
15
 70
0
 62
5
  6
CONTINUOUS
999
ﾁｬｯｸ
  0
LAYER
  2
17
 70
0
 62
3
  6
CONTINUOUS
999
226
  0
LAYER
  2
30
 70
0
 62
7
  6
CONTINUOUS
999
111
  0
LAYER
  2
31
 70
0
 62
7
  6
CONTINUOUS
999
m006
  0
LAYER
  2
_CONSTR
 70
0
 62
5
  6
CONTINUOUS
  0
ENDTAB
  0
TABLE
  2
STYLE
 70
1
  0
STYLE
  2
STANDARD
 70
64
 40
0.000000000
 41
1.000000000
 50
0.000000000
 71
0
 42
3.200000000
  3
TXT
  4
EXTFONT
  0
ENDTAB
  0
TABLE
  2
VIEW
 70
0
  0
ENDTAB
  0
ENDSEC
  0
SECTION
  2
BLOCKS
  0
BLOCK
  8
0
  2
*D42
 70
65
 10
0.000000000
 20
0.000000000
  3
*D
  0
TEXT
  8
1
 62
4
  6
CONTINUOUS
 72
5
 10
62.920647012
 20
181.998834783
 40
2.800000000
  1
φ
 41
1.270648030
 50
90.000000000
 11
62.920647012
 21
185.358834783
  0
TEXT
  8
1
 62
4
  6
CONTINUOUS
 72
5
 10
62.920647012
 20
187.038834783
 40
2.800000000
  1
11.8
 41
1.414284098
 50
90.000000000
 11
62.920647012
 21
196.278834783
  0
LINE
  8
1
 62
4
  6
CONTINUOUS
 10
84.684492739
 20
195.030434783
 11
63.125647012
 21
195.030434783
  0
POLYLINE
  8
1
 62
4
  6
CONTINUOUS
 66
1
  0
VERTEX
  8
1
 10
65.425647012
 20
193.030434783
  0
VERTEX
  8
1
 10
65.125647012
 20
195.030434783
  0
VERTEX
  8
1
 10
64.825647012
 20
193.030434783
  0
SEQEND
  8
1
  0
LINE
  8
1
 62
4
  6
CONTINUOUS
 10
65.125647012
 20
195.030434783
 11
65.125647012
 21
183.230434783
  0
POLYLINE
  8
1
 62
4
  6
CONTINUOUS
 66
1
  0
VERTEX
  8
1
 10
64.825647012
 20
185.230434783
  0
VERTEX
  8
1
 10
65.125647012
 20
183.230434783
  0
VERTEX
  8
1
 10
65.425647012
 20
185.230434783
  0
SEQEND
  8
1
  0
LINE
  8
1
 62
4
  6
CONTINUOUS
 10
84.684492739
 20
183.230434783
 11
63.125647012
 21
183.230434783
  0
ENDBLK
  8
0
  0
BLOCK
  8
0
  2
*D43
 70
65
 10
0.000000000
 20
0.000000000
  3
*D
  0
TEXT
  8
1
 62
4
  6
CONTINUOUS
 72
5
 10
228.492149628
 20
181.998834783
 40
2.800000000
  1
φ
 41
1.270648030
 50
90.000000000
 11
228.492149628
 21
185.358834783
  0
TEXT
  8
1
 62
4
  6
CONTINUOUS
 72
5
 10
228.492149628
 20
187.038834783
 40
2.800000000
  1
18.8
 41
1.237498917
 50
90.000000000
 11
228.492149628
 21
196.278834783
  0
LINE
  8
1
 62
4
  6
CONTINUOUS
 10
206.197149628
 20
198.530434783
 11
232.697149628
 21
198.530434783
  0
POLYLINE
  8
1
 62
4
  6
CONTINUOUS
 66
1
  0
VERTEX
  8
1
 10
230.997149628
 20
196.530434783
  0
VERTEX
  8
1
 10
230.697149628
 20
198.530434783
  0
VERTEX
  8
1
 10
230.397149628
 20
196.530434783
  0
SEQEND
  8
1
  0
LINE
  8
1
 62
4
  6
CONTINUOUS
 10
230.697149628
 20
198.530434783
 11
230.697149628
 21
179.730434783
  0
POLYLINE
  8
1
 62
4
  6
CONTINUOUS
 66
1
  0
VERTEX
  8
1
 10
230.397149628
 20
181.730434783
  0
VERTEX
  8
1
 10
230.697149628
 20
179.730434783
  0
VERTEX
  8
1
 10
230.997149628
 20
181.730434783
  0
SEQEND
  8
1
  0
LINE
  8
1
 62
4
  6
CONTINUOUS
 10
206.197149628
 20
179.730434783
 11
232.697149628
 21
179.730434783
  0
ENDBLK
  8
0
  0
BLOCK
  8
0
  2
*D44
 70
65
 10
0.000000000
 20
0.000000000
  3
*D
  0
TEXT
  8
1
 62
4
  6
CONTINUOUS
 72
5
 10
102.265549628
 20
161.810434783
 40
2.800000000
  1
(
 41
1.800001800
 11
103.945549628
 21
161.810434783
  0
TEXT
  8
1
 62
4
  6
CONTINUOUS
 72
5
 10
104.785549628
 20
161.810434783
 40
2.800000000
  1
27.2
 41
1.099999267
 11
114.025549628
 21
161.810434783
  0
TEXT
  8
1
 62
4
  6
CONTINUOUS
 72
5
 10
114.865549628
 20
161.810434783
 40
2.800000000
  1
)
 41
1.800001800
 11
116.545549628
 21
161.810434783
  0
LINE
  8
1
 62
4
  6
CONTINUOUS
 10
95.797149628
 20
179.855434783
 11
95.797149628
 21
157.605434783
  0
POLYLINE
  8
1
 62
4
  6
CONTINUOUS
 66
1
  0
VERTEX
  8
1
 10
97.797149628
 20
159.905434783
  0
VERTEX
  8
1
 10
95.797149628
 20
159.605434783
  0
VERTEX
  8
1
 10
97.797149628
 20
159.305434783
  0
SEQEND
  8
1
  0
LINE
  8
1
 62
4
  6
CONTINUOUS
 10
95.797149628
 20
159.605434783
 11
122.997149628
 21
159.605434783
  0
POLYLINE
  8
1
 62
4
  6
CONTINUOUS
 66
1
  0
VERTEX
  8
1
 10
120.997149628
 20
159.305434783
  0
VERTEX
  8
1
 10
122.997149628
 20
159.605434783
  0
VERTEX
  8
1
 10
120.997149628
 20
159.905434783
  0
SEQEND
  8
1
  0
LINE
  8
1
 62
4
  6
CONTINUOUS
 10
122.997149628
 20
179.605434783
 11
122.997149628
 21
157.605434783
  0
ENDBLK
  8
0
  0
BLOCK
  8
0
  2
*D45
 70
65
 10
0.000000000
 20
0.000000000
  3
*D
  0
TEXT
  8
1
 62
4
  6
CONTINUOUS
 72
5
 10
135.519798320
 20
153.810434783
 40
2.800000000
  1
(
 41
1.800001800
 11
137.199798320
 21
153.810434783
  0
TEXT
  8
1
 62
4
  6
CONTINUOUS
 72
5
 10
138.039798320
 20
153.810434783
 40
2.800000000
  1
125.6
 41
1.145453817
 11
149.799798320
 21
153.810434783
  0
TEXT
  8
1
 62
4
  6
CONTINUOUS
 72
5
 10
150.639798320
 20
153.810434783
 40
2.800000000
  1
)
 41
1.800001800
 11
152.319798320
 21
153.810434783
  0
LINE
  8
1
 62
4
  6
CONTINUOUS
 10
206.697149628
 20
180.155434783
 11
206.697149628
 21
149.605434783
  0
POLYLINE
  8
1
 62
4
  6
CONTINUOUS
 66
1
  0
VERTEX
  8
1
 10
204.697149628
 20
151.305434783
  0
VERTEX
  8
1
 10
206.697149628
 20
151.605434783
  0
VERTEX
  8
1
 10
204.697149628
 20
151.905434783
  0
SEQEND
  8
1
  0
LINE
  8
1
 62
4
  6
CONTINUOUS
 10
206.697149628
 20
151.605434783
 11
81.125647012
 21
151.605434783
  0
POLYLINE
  8
1
 62
4
  6
CONTINUOUS
 66
1
  0
VERTEX
  8
1
 10
83.125647012
 20
151.905434783
  0
VERTEX
  8
1
 10
81.125647012
 20
151.605434783
  0
VERTEX
  8
1
 10
83.125647012
 20
151.305434783
  0
SEQEND
  8
1
  0
LINE
  8
1
 62
4
  6
CONTINUOUS
 10
81.125647012
 20
185.707785052
 11
81.125647012
 21
149.605434783
  0
ENDBLK
  8
0
  0
BLOCK
  8
0
  2
*D46
 70
65
 10
0.000000000
 20
0.000000000
  3
*D
  0
TEXT
  8
1
 62
4
  6
CONTINUOUS
 72
5
 10
150.235549628
 20
161.810434783
 40
2.800000000
  1
63.7
 41
1.099999267
 11
159.475549628
 21
161.810434783
  0
POLYLINE
  8
1
 62
4
  6
CONTINUOUS
 66
1
  0
VERTEX
  8
1
 10
124.997149628
 20
159.905434783
  0
VERTEX
  8
1
 10
122.997149628
 20
159.605434783
  0
VERTEX
  8
1
 10
124.997149628
 20
159.305434783
  0
SEQEND
  8
1
  0
LINE
  8
1
 62
4
  6
CONTINUOUS
 10
122.997149628
 20
159.605434783
 11
186.697149628
 21
159.605434783
  0
POLYLINE
  8
1
 62
4
  6
CONTINUOUS
 66
1
  0
VERTEX
  8
1
 10
184.697149628
 20
159.305434783
  0
VERTEX
  8
1
 10
186.697149628
 20
159.605434783
  0
VERTEX
  8
1
 10
184.697149628
 20
159.905434783
  0
SEQEND
  8
1
  0
LINE
  8
1
 62
4
  6
CONTINUOUS
 10
186.697149628
 20
179.705434783
 11
186.697149628
 21
157.605434783
  0
ENDBLK
  8
0
  0
BLOCK
  8
0
  2
*D47
 70
65
 10
0.000000000
 20
0.000000000
  3
*D
  0
TEXT
  8
1
 62
4
  6
CONTINUOUS
 72
5
 10
81.329798320
 20
161.810434783
 40
2.800000000
  1
(
 41
1.800001800
 11
83.009798320
 21
161.810434783
  0
TEXT
  8
1
 62
4
  6
CONTINUOUS
 72
5
 10
83.849798320
 20
161.810434783
 40
2.800000000
  1
14.7
 41
1.237498917
 11
93.089798320
 21
161.810434783
  0
TEXT
  8
1
 62
4
  6
CONTINUOUS
 72
5
 10
93.929798320
 20
161.810434783
 40
2.800000000
  1
)
 41
1.800001800
 11
95.609798320
 21
161.810434783
  0
LINE
  8
1
 62
4
  6
CONTINUOUS
 10
81.125647012
 20
185.707785052
 11
81.125647012
 21
157.605434783
  0
POLYLINE
  8
1
 62
4
  6
CONTINUOUS
 66
1
  0
VERTEX
  8
1
 10
83.125647012
 20
159.905434783
  0
VERTEX
  8
1
 10
81.125647012
 20
159.605434783
  0
VERTEX
  8
1
 10
83.125647012
 20
159.305434783
  0
SEQEND
  8
1
  0
LINE
  8
1
 62
4
  6
CONTINUOUS
 10
81.125647012
 20
159.605434783
 11
95.797149628
 21
159.605434783
  0
POLYLINE
  8
1
 62
4
  6
CONTINUOUS
 66
1
  0
VERTEX
  8
1
 10
93.797149628
 20
159.305434783
  0
VERTEX
  8
1
 10
95.797149628
 20
159.605434783
  0
VERTEX
  8
1
 10
93.797149628
 20
159.905434783
  0
SEQEND
  8
1
  0
LINE
  8
1
 62
4
  6
CONTINUOUS
 10
95.797149628
 20
179.855434783
 11
95.797149628
 21
157.605434783
  0
ENDBLK
  8
0
  0
BLOCK
  8
0
  2
*D116
 70
65
 10
0.000000000
 20
0.000000000
  3
*D
  0
TEXT
  8
1
 62
4
  6
CONTINUOUS
 72
5
 10
192.085549628
 20
161.810434783
 40
2.800000000
  1
(
 41
1.800001800
 11
193.765549628
 21
161.810434783
  0
TEXT
  8
1
 62
4
  6
CONTINUOUS
 72
5
 10
194.605549628
 20
161.810434783
 40
2.800000000
  1
20
 41
1.000000667
 11
198.805549628
 21
161.810434783
  0
TEXT
  8
1
 62
4
  6
CONTINUOUS
 72
5
 10
199.645549628
 20
161.810434783
 40
2.800000000
  1
)
 41
1.800001800
 11
201.325549628
 21
161.810434783
  0
POLYLINE
  8
1
 62
4
  6
CONTINUOUS
 66
1
  0
VERTEX
  8
1
 10
188.697149628
 20
159.905434783
  0
VERTEX
  8
1
 10
186.697149628
 20
159.605434783
  0
VERTEX
  8
1
 10
188.697149628
 20
159.305434783
  0
SEQEND
  8
1
  0
LINE
  8
1
 62
4
  6
CONTINUOUS
 10
186.697149628
 20
159.605434783
 11
206.697149628
 21
159.605434783
  0
POLYLINE
  8
1
 62
4
  6
CONTINUOUS
 66
1
  0
VERTEX
  8
1
 10
204.697149628
 20
159.305434783
  0
VERTEX
  8
1
 10
206.697149628
 20
159.605434783
  0
VERTEX
  8
1
 10
204.697149628
 20
159.905434783
  0
SEQEND
  8
1
  0
LINE
  8
1
 62
4
  6
CONTINUOUS
 10
206.697149628
 20
180.155434783
 11
206.697149628
 21
157.605434783
  0
ENDBLK
  8
0
  0
BLOCK
  8
0
  2
*D125
 70
65
 10
0.000000000
 20
0.000000000
  3
*D
  0
TEXT
  8
1
 62
4
  6
CONTINUOUS
 72
5
 10
110.792149628
 20
201.015895813
 40
2.800000000
  1
φ
 41
1.270648030
 50
90.000000000
 11
110.792149628
 21
204.375895813
  0
TEXT
  8
1
 62
4
  6
CONTINUOUS
 72
5
 10
110.792149628
 20
206.055895813
 40
2.800000000
  1
19.05
 41
1.199999314
 50
90.000000000
 11
110.792149628
 21
217.815895813
  0
TEXT
  8
1
 62
4
  6
CONTINUOUS
 72
5
 10
109.028149628
 20
218.655895813
 40
1.400000000
  1
 0
 41
2.333335926
 50
90.000000000
 11
109.028149628
 21
221.595895813
  0
TEXT
  8
1
 62
4
  6
CONTINUOUS
 72
5
 10
111.170149628
 20
218.655895813
 40
1.400000000
  1
-0.01
 41
1.710000684
 50
90.000000000
 11
111.170149628
 21
226.635895813
  0
POLYLINE
  8
1
 62
4
  6
CONTINUOUS
 66
1
  0
VERTEX
  8
1
 10
113.297149628
 20
196.655434783
  0
VERTEX
  8
1
 10
112.997149628
 20
198.655434783
  0
VERTEX
  8
1
 10
112.697149628
 20
196.655434783
  0
SEQEND
  8
1
  0
LINE
  8
1
 62
4
  6
CONTINUOUS
 10
112.997149628
 20
198.655434783
 11
112.997149628
 21
179.605434783
  0
POLYLINE
  8
1
 62
4
  6
CONTINUOUS
 66
1
  0
VERTEX
  8
1
 10
112.697149628
 20
181.605434783
  0
VERTEX
  8
1
 10
112.997149628
 20
179.605434783
  0
VERTEX
  8
1
 10
113.297149628
 20
181.605434783
  0
SEQEND
  8
1
  0
POLYLINE
  8
1
 62
4
  6
CONTINUOUS
 66
1
  0
VERTEX
  8
1
 10
112.997149628
 20
179.605434783
  0
VERTEX
  8
1
 10
112.997149628
 20
226.514895813
  0
SEQEND
  8
1
  0
ENDBLK
  8
0
  0
BLOCK
  8
0
  2
*D126
 70
65
 10
0.000000000
 20
0.000000000
  3
*D
  0
TEXT
  8
1
 62
4
  6
CONTINUOUS
 72
5
 10
130.242149628
 20
201.015895813
 40
2.800000000
  1
φ
 41
1.270648030
 50
90.000000000
 11
130.242149628
 21
204.375895813
  0
TEXT
  8
1
 62
4
  6
CONTINUOUS
 72
5
 10
130.242149628
 20
206.055895813
 40
2.800000000
  1
19.05
 41
1.199999314
 50
90.000000000
 11
130.242149628
 21
217.815895813
  0
TEXT
  8
1
 62
4
  6
CONTINUOUS
 72
5
 10
128.478149628
 20
218.655895813
 40
1.400000000
  1
-0.01
 41
1.710000684
 50
90.000000000
 11
128.478149628
 21
226.635895813
  0
TEXT
  8
1
 62
4
  6
CONTINUOUS
 72
5
 10
130.620149628
 20
218.655895813
 40
1.400000000
  1
-0.02
 41
1.554544889
 50
90.000000000
 11
130.620149628
 21
226.635895813
  0
POLYLINE
  8
1
 62
4
  6
CONTINUOUS
 66
1
  0
VERTEX
  8
1
 10
132.747149628
 20
196.655434783
  0
VERTEX
  8
1
 10
132.447149628
 20
198.655434783
  0
VERTEX
  8
1
 10
132.147149628
 20
196.655434783
  0
SEQEND
  8
1
  0
LINE
  8
1
 62
4
  6
CONTINUOUS
 10
132.447149628
 20
198.655434783
 11
132.447149628
 21
179.605434783
  0
POLYLINE
  8
1
 62
4
  6
CONTINUOUS
 66
1
  0
VERTEX
  8
1
 10
132.147149628
 20
181.605434783
  0
VERTEX
  8
1
 10
132.447149628
 20
179.605434783
  0
VERTEX
  8
1
 10
132.747149628
 20
181.605434783
  0
SEQEND
  8
1
  0
POLYLINE
  8
1
 62
4
  6
CONTINUOUS
 66
1
  0
VERTEX
  8
1
 10
132.447149628
 20
179.605434783
  0
VERTEX
  8
1
 10
132.447149628
 20
226.514895813
  0
SEQEND
  8
1
  0
ENDBLK
  8
0
  0
ENDSEC
  0
SECTION
  2
ENTITIES
  0
LINE
  8
1
 62
7
  6
CONTINUOUS
 10
95.697149628
 20
184.530434783
 11
95.797149628
 21
184.430434783
  0
LINE
  8
1
 62
7
  6
CONTINUOUS
 10
186.697149628
 20
179.730434783
 11
206.197149628
 21
179.730434783
  0
LINE
  8
1
 62
7
  6
CONTINUOUS
 10
218.697149628
 20
190.130434783
 11
206.697149628
 21
190.130434783
  0
LINE
  8
1
 62
7
  6
CONTINUOUS
 10
119.397149628
 20
184.832106619
 11
119.397149628
 21
193.428762946
  0
LINE
  8
1
 62
7
  6
CONTINUOUS
 10
93.097149628
 20
193.730434783
 11
95.697149628
 21
193.730434783
  0
LINE
  8
1
 62
7
  6
CONTINUOUS
 10
206.697149628
 20
195.830434783
 11
218.697149628
 21
195.830434783
  0
LINE
  8
1
 62
7
  6
CONTINUOUS
 10
206.197149628
 20
179.730434783
 11
206.697149628
 21
180.155434783
  0
LINE
  8
1
 62
7
  6
CONTINUOUS
 10
92.997149628
 20
193.830434783
 11
93.097149628
 21
193.730434783
  0
LINE
  8
1
 62
4
  6
CONTINUOUS
 10
88.125647012
 20
191.115850433
 11
85.125647012
 21
187.145019132
  0
LINE
  8
1
 62
7
  6
CONTINUOUS
 10
92.625647012
 20
193.830434783
 11
92.997149628
 21
193.830434783
  0
LINE
  8
17
 62
1
  6
CENTER
 10
69.125647012
 20
189.130434783
 11
208.697149628
 21
189.130434783
  0
LINE
  8
1
 62
4
  6
CONTINUOUS
 10
93.197149628
 20
191.401998121
 11
95.597149628
 21
186.858871444
  0
LINE
  8
1
 62
7
  6
CONTINUOUS
 10
92.997149628
 20
184.430434783
 11
93.097149628
 21
184.530434783
  0
LINE
  8
1
 62
7
  6
CONTINUOUS
 10
93.097149628
 20
184.530434783
 11
95.697149628
 21
184.530434783
  0
LINE
  8
1
 62
7
  6
CONTINUOUS
 10
116.197149628
 20
184.832106619
 11
119.397149628
 21
184.832106619
  0
LINE
  8
31
 62
7
  6
CONTINUOUS
 10
206.697149628
 20
180.155434783
 11
206.697149628
 21
198.030434783
  0
LINE
  8
1
 62
1
  6
CENTER
 10
220.697149628
 20
185.280434783
 11
204.697149628
 21
185.280434783
  0
LINE
  8
1
 62
7
  6
CONTINUOUS
 10
218.697149628
 20
188.530434783
 11
206.697149628
 21
188.530434783
  0
LINE
  8
1
 62
4
  6
CONTINUOUS
 10
95.597149628
 20
191.401998121
 11
93.197149628
 21
186.858871444
  0
LINE
  8
1
 62
4
  6
CONTINUOUS
 10
116.197149628
 20
193.428762946
 11
119.397149628
 21
184.832106619
  0
LINE
  8
1
 62
7
  6
CONTINUOUS
 10
95.697149628
 20
193.730434783
 11
95.797149628
 21
193.830434783
  0
LINE
  8
1
 62
7
  6
CONTINUOUS
 10
186.697149628
 20
198.530434783
 11
206.197149628
 21
198.530434783
  0
LINE
  8
1
 62
1
  6
CENTER
 10
220.697149628
 20
192.980434783
 11
204.697149628
 21
192.980434783
  0
LINE
  8
1
 62
7
  6
CONTINUOUS
 10
92.625647012
 20
184.430434783
 11
92.997149628
 21
184.430434783
  0
LINE
  8
5
 62
7
  6
CONTINUOUS
 10
122.997149628
 20
198.655434783
 11
122.997149628
 21
179.605434783
  0
LINE
  8
1
 62
7
  6
CONTINUOUS
 10
218.697149628
 20
182.030434783
 11
206.697149628
 21
182.030434783
  0
LINE
  8
5
 62
7
  6
CONTINUOUS
 10
186.597149628
 20
198.655434783
 11
186.697149628
 21
198.555434783
  0
LINE
  8
5
 62
7
  6
CONTINUOUS
 10
122.997149628
 20
179.605434783
 11
186.597149628
 21
179.605434783
  0
LINE
  8
30
 62
7
  6
CONTINUOUS
 10
98.197149628
 20
179.805434783
 11
98.397149628
 21
179.605434783
  0
LINE
  8
5
 62
7
  6
CONTINUOUS
 10
186.697149628
 20
179.705434783
 11
186.697149628
 21
198.555434783
  0
LINE
  8
30
 62
7
  6
CONTINUOUS
 10
98.397149628
 20
179.605434783
 11
122.997149628
 21
179.605434783
  0
LINE
  8
30
 62
7
  6
CONTINUOUS
 10
122.997149628
 20
179.605434783
 11
122.997149628
 21
198.655434783
  0
LINE
  8
5
 62
7
  6
CONTINUOUS
 10
122.997149628
 20
198.655434783
 11
186.597149628
 21
198.655434783
  0
LINE
  8
1
 62
7
  6
CONTINUOUS
 10
206.197149628
 20
198.530434783
 11
206.697149628
 21
198.030434783
  0
LINE
  8
30
 62
7
  6
CONTINUOUS
 10
98.197149628
 20
179.805434783
 11
98.197149628
 21
198.455434783
  0
LINE
  8
30
 62
7
  6
CONTINUOUS
 10
98.197149628
 20
198.455434783
 11
98.397149628
 21
198.655434783
  0
LINE
  8
1
 62
7
  6
CONTINUOUS
 10
116.197149628
 20
193.428762946
 11
116.197149628
 21
184.832106619
  0
LINE
  8
5
 62
7
  6
CONTINUOUS
 10
186.697149628
 20
179.705434783
 11
186.597149628
 21
179.605434783
  0
LINE
  8
30
 62
7
  6
CONTINUOUS
 10
98.397149628
 20
198.655434783
 11
122.997149628
 21
198.655434783
  0
ARC
  8
1
 62
7
  6
CONTINUOUS
 10
104.082933737
 20
189.130434783
 40
15.905999916
 50
344.321860013
 51
15.678139987
  0
ARC
  8
1
 62
7
  6
CONTINUOUS
 10
131.511365518
 20
189.130434783
 40
15.905999916
 50
164.321860013
 51
195.678139987
  0
DIMENSION
  8
1
 62
4
  6
CONTINUOUS
  2
*D42
 70
1
 10
65.125647012
 20
183.230434783
 11
65.125647012
 21
189.130434783
 14
84.684492739
 24
183.230434783
 13
84.684492739
 23
195.030434783
 50
90.000000000
  0
DIMENSION
  8
1
 62
4
  6
CONTINUOUS
  2
*D43
 70
1
 10
230.697149628
 20
179.730434783
 11
230.697149628
 21
189.130434783
 14
206.197149628
 24
179.730434783
 13
206.197149628
 23
198.530434783
 50
90.000000000
  0
DIMENSION
  8
1
 62
4
  6
CONTINUOUS
  2
*D44
 70
0
 10
122.997149628
 20
159.605434783
 11
109.397149628
 21
159.605434783
 14
122.997149628
 24
179.605434783
 13
95.797149628
 23
179.855434783
 50
0.000000000
  0
DIMENSION
  8
1
 62
4
  6
CONTINUOUS
  2
*D45
 70
0
 10
81.125647012
 20
151.605434783
 11
143.911398320
 21
151.605434783
 14
81.125647012
 24
185.707785052
 13
206.697149628
 23
180.155434783
 50
0.000000000
  0
DIMENSION
  8
1
 62
4
  6
CONTINUOUS
  2
*D46
 70
0
 10
186.697149628
 20
159.605434783
 11
154.847149628
 21
159.605434783
 14
186.697149628
 24
179.705434783
 13
122.997149628
 23
179.605434783
 50
0.000000000
  0
DIMENSION
  8
1
 62
4
  6
CONTINUOUS
  2
*D47
 70
0
 10
95.797149628
 20
159.605434783
 11
88.461398320
 21
159.605434783
 14
95.797149628
 24
179.855434783
 13
81.125647012
 23
185.707785052
 50
0.000000000
  0
LINE
  8
2
 62
1
  6
CONTINUOUS
 10
98.197149628
 20
196.030434783
 11
97.997149628
 21
196.030434783
  0
LINE
  8
2
 62
7
  6
CONTINUOUS
 10
98.197149628
 20
196.330434783
 11
97.997149628
 21
196.330434783
  0
LINE
  8
2
 62
7
  6
CONTINUOUS
 10
98.197149628
 20
181.930434783
 11
97.997149628
 21
181.930434783
  0
LINE
  8
2
 62
1
  6
CONTINUOUS
 10
98.197149628
 20
182.230434783
 11
97.997149628
 21
182.230434783
  0
LINE
  8
1
 62
7
  6
CONTINUOUS
 10
97.997149628
 20
198.505434783
 11
97.897149628
 21
198.605434783
  0
LINE
  8
1
 62
7
  6
CONTINUOUS
 10
95.797149628
 20
198.405434783
 11
95.997149628
 21
198.605434783
  0
LINE
  8
1
 62
7
  6
CONTINUOUS
 10
97.897149628
 20
198.605434783
 11
95.997149628
 21
198.605434783
  0
LINE
  8
1
 62
7
  6
CONTINUOUS
 10
95.797149628
 20
179.855434783
 11
95.797149628
 21
198.405434783
  0
LINE
  8
1
 62
7
  6
CONTINUOUS
 10
97.997149628
 20
198.505434783
 11
97.997149628
 21
179.755434783
  0
LINE
  8
1
 62
7
  6
CONTINUOUS
 10
97.897149628
 20
179.655434783
 11
95.997149628
 21
179.655434783
  0
LINE
  8
1
 62
7
  6
CONTINUOUS
 10
95.797149628
 20
179.855434783
 11
95.997149628
 21
179.655434783
  0
LINE
  8
1
 62
7
  6
CONTINUOUS
 10
97.997149628
 20
179.755434783
 11
97.897149628
 21
179.655434783
  0
LINE
  8
1
 62
7
  6
CONTINUOUS
 10
95.697149628
 20
184.530434783
 11
95.697149628
 21
193.730434783
  0
LINE
  8
1
 62
7
  6
CONTINUOUS
 10
93.097149628
 20
184.530434783
 11
93.097149628
 21
193.730434783
  0
LINE
  8
15
 62
7
  6
CONTINUOUS
 10
81.125647012
 20
187.630434783
 11
71.325647012
 21
187.630434783
  0
LINE
  8
1
 62
7
  6
CONTINUOUS
 10
119.397149628
 20
193.428762946
 11
116.197149628
 21
193.428762946
  0
LINE
  8
1
 62
7
  6
CONTINUOUS
 10
95.597149628
 20
191.401998121
 11
95.597149628
 21
186.858871444
  0
ARC
  8
15
 62
7
  6
CONTINUOUS
 10
71.325647012
 20
190.430434783
 40
0.200000000
 50
90.000000000
 51
180.000000000
  0
LINE
  8
15
 62
7
  6
CONTINUOUS
 10
71.325647012
 20
190.630434783
 11
81.125647012
 21
190.630434783
  0
LINE
  8
1
 62
7
  6
CONTINUOUS
 10
92.997149628
 20
193.830434783
 11
92.997149628
 21
184.430434783
  0
LINE
  8
15
 62
7
  6
CONTINUOUS
 10
71.125647012
 20
190.430434783
 11
71.125647012
 21
187.830434783
  0
LINE
  8
1
 62
7
  6
CONTINUOUS
 10
93.197149628
 20
191.401998121
 11
93.197149628
 21
186.858871444
  0
ARC
  8
15
 62
7
  6
CONTINUOUS
 10
71.325647012
 20
187.830434783
 40
0.200000000
 50
180.000000000
 51
270.000000000
  0
LINE
  8
1
 62
7
  6
CONTINUOUS
 10
88.125647012
 20
194.880434783
 11
88.275647012
 21
195.030434783
  0
LINE
  8
1
 62
7
  6
CONTINUOUS
 10
85.125647012
 20
187.145019132
 11
85.275647012
 21
186.995019132
  0
LINE
  8
1
 62
7
  6
CONTINUOUS
 10
84.975647012
 20
195.030434783
 11
84.684492739
 21
195.030434783
  0
ARC
  8
1
 62
7
  6
CONTINUOUS
 10
84.684492739
 20
194.030434783
 40
1.000000000
 50
90.000000000
 51
120.000000000
  0
LINE
  8
1
 62
7
  6
CONTINUOUS
 10
91.825647012
 20
183.230434783
 11
88.275647012
 21
183.230434783
  0
LINE
  8
1
 62
7
  6
CONTINUOUS
 10
85.125647012
 20
183.630434783
 11
88.125647012
 21
183.630434783
  0
LINE
  8
1
 62
7
  6
CONTINUOUS
 10
81.625647012
 20
193.419109917
 11
84.184492739
 21
194.896460186
  0
LINE
  8
1
 62
7
  6
CONTINUOUS
 10
85.275647012
 20
191.265850433
 11
85.125647012
 21
191.115850433
  0
LINE
  8
1
 62
7
  6
CONTINUOUS
 10
84.975647012
 20
183.230434783
 11
85.125647012
 21
183.380434783
  0
ARC
  8
1
 62
4
  6
CONTINUOUS
 10
217.478399628
 20
186.905434783
 40
2.031250000
 50
306.869897646
 51
53.130102354
  0
ARC
  8
1
 62
7
  6
CONTINUOUS
 10
91.825647012
 20
194.230434783
 40
0.800000000
 50
0.000000000
 51
90.000000000
  0
ARC
  8
1
 62
7
  6
CONTINUOUS
 10
82.125647012
 20
192.553084513
 40
1.000000000
 50
120.000000000
 51
180.000000000
  0
ARC
  8
1
 62
7
  6
CONTINUOUS
 10
82.125647012
 20
185.707785052
 40
1.000000000
 50
180.000000000
 51
240.000000000
  0
ARC
  8
1
 62
7
  6
CONTINUOUS
 10
91.825647012
 20
184.030434783
 40
0.800000000
 50
270.000000000
 51
0.000000000
  0
LINE
  8
1
 62
7
  6
CONTINUOUS
 10
84.975647012
 20
195.030434783
 11
85.125647012
 21
194.880434783
  0
LINE
  8
1
 62
7
  6
CONTINUOUS
 10
85.125647012
 20
194.630434783
 11
88.125647012
 21
194.630434783
  0
LINE
  8
1
 62
7
  6
CONTINUOUS
 10
92.625647012
 20
194.230434783
 11
92.625647012
 21
184.030434783
  0
LINE
  8
1
 62
7
  6
CONTINUOUS
 10
91.825647012
 20
195.030434783
 11
88.275647012
 21
195.030434783
  0
LINE
  8
1
 62
7
  6
CONTINUOUS
 10
81.625647012
 20
184.841759648
 11
84.184492739
 21
183.364409379
  0
LINE
  8
1
 62
7
  6
CONTINUOUS
 10
85.125647012
 20
183.380434783
 11
85.125647012
 21
194.880434783
  0
ARC
  8
1
 62
7
  6
CONTINUOUS
 10
84.684492739
 20
184.230434783
 40
1.000000000
 50
240.000000000
 51
270.000000000
  0
ARC
  8
1
 62
4
  6
CONTINUOUS
 10
217.478399628
 20
183.655434783
 40
2.031250000
 50
306.869897646
 51
53.130102354
  0
ARC
  8
1
 62
4
  6
CONTINUOUS
 10
219.915899628
 20
186.905434783
 40
2.031250000
 50
126.869897646
 51
233.130102354
  0
LINE
  8
1
 62
7
  6
CONTINUOUS
 10
84.975647012
 20
183.230434783
 11
84.684492739
 21
183.230434783
  0
LINE
  8
1
 62
7
  6
CONTINUOUS
 10
88.125647012
 20
194.880434783
 11
88.125647012
 21
183.380434783
  0
LINE
  8
1
 62
7
  6
CONTINUOUS
 10
81.625647012
 20
192.919109917
 11
81.625647012
 21
185.341759648
  0
LINE
  8
1
 62
7
  6
CONTINUOUS
 10
88.125647012
 20
183.380434783
 11
88.275647012
 21
183.230434783
  0
LINE
  8
1
 62
7
  6
CONTINUOUS
 10
84.684492739
 20
195.030434783
 11
84.684492739
 21
183.230434783
  0
LINE
  8
1
 62
7
  6
CONTINUOUS
 10
81.125647012
 20
185.707785052
 11
81.125647012
 21
192.553084513
  0
LINE
  8
1
 62
7
  6
CONTINUOUS
 10
91.825647012
 20
195.030434783
 11
91.825647012
 21
183.230434783
  0
LINE
  8
1
 62
7
  6
CONTINUOUS
 10
87.975647012
 20
191.265850433
 11
87.975647012
 21
194.630434783
  0
LINE
  8
1
 62
7
  6
CONTINUOUS
 10
85.275647012
 20
191.265850433
 11
85.275647012
 21
194.630434783
  0
LINE
  8
1
 62
4
  6
CONTINUOUS
 10
119.397149628
 20
193.428762946
 11
116.197149628
 21
184.832106619
  0
LINE
  8
1
 62
4
  6
CONTINUOUS
 10
145.097149628
 20
193.428762946
 11
141.897149628
 21
184.832106619
  0
LINE
  8
1
 62
7
  6
CONTINUOUS
 10
93.197149628
 20
186.858871444
 11
95.597149628
 21
186.858871444
  0
ARC
  8
1
 62
7
  6
CONTINUOUS
 10
129.782933737
 20
189.130434783
 40
15.905999916
 50
344.321860013
 51
15.678139987
  0
ARC
  8
1
 62
7
  6
CONTINUOUS
 10
157.211365518
 20
189.130434783
 40
15.905999916
 50
164.321860013
 51
195.678139987
  0
LINE
  8
1
 62
4
  6
CONTINUOUS
 10
141.897149628
 20
193.428762946
 11
145.097149628
 21
184.832106619
  0
LINE
  8
1
 62
4
  6
CONTINUOUS
 10
85.125647012
 20
191.115850433
 11
88.125647012
 21
187.145019132
  0
ARC
  8
1
 62
4
  6
CONTINUOUS
 10
217.628399628
 20
191.555434783
 40
1.781250000
 50
306.869897646
 51
53.130102354
  0
LINE
  8
1
 62
7
  6
CONTINUOUS
 10
85.275647012
 20
186.995019132
 11
87.975647012
 21
186.995019132
  0
LINE
  8
1
 62
7
  6
CONTINUOUS
 10
85.275647012
 20
191.265850433
 11
87.975647012
 21
191.265850433
  0
LINE
  8
1
 62
7
  6
CONTINUOUS
 10
93.197149628
 20
191.401998121
 11
95.597149628
 21
191.401998121
  0
LINE
  8
1
 62
7
  6
CONTINUOUS
 10
87.975647012
 20
183.630434783
 11
87.975647012
 21
186.995019132
  0
LINE
  8
1
 62
7
  6
CONTINUOUS
 10
85.275647012
 20
183.630434783
 11
85.275647012
 21
186.995019132
  0
DIMENSION
  8
1
 62
4
  6
CONTINUOUS
  2
*D116
 70
0
 10
206.697149628
 20
159.605434783
 11
196.697149628
 21
159.605434783
 14
206.697149628
 24
180.155434783
 13
186.697149628
 23
179.705434783
 50
0.000000000
  0
LINE
  8
1
 62
7
  6
CONTINUOUS
 10
88.125647012
 20
191.115850433
 11
87.975647012
 21
191.265850433
  0
LINE
  8
1
 62
7
  6
CONTINUOUS
 10
87.975647012
 20
186.995019132
 11
88.125647012
 21
187.145019132
  0
LINE
  8
1
 62
7
  6
CONTINUOUS
 10
84.975647012
 20
183.230434783
 11
84.975647012
 21
195.030434783
  0
LINE
  8
1
 62
7
  6
CONTINUOUS
 10
88.275647012
 20
183.230434783
 11
88.275647012
 21
195.030434783
  0
LINE
  8
1
 62
7
  6
CONTINUOUS
 10
145.097149628
 20
193.428762946
 11
145.097149628
 21
184.832106619
  0
LINE
  8
1
 62
7
  6
CONTINUOUS
 10
141.897149628
 20
193.428762946
 11
141.897149628
 21
184.832106619
  0
LINE
  8
1
 62
7
  6
CONTINUOUS
 10
141.897149628
 20
184.832106619
 11
145.097149628
 21
184.832106619
  0
LINE
  8
1
 62
7
  6
CONTINUOUS
 10
141.897149628
 20
193.428762946
 11
145.097149628
 21
193.428762946
  0
DIMENSION
  8
1
 62
4
  6
CONTINUOUS
  2
*D125
 70
1
 10
112.997149628
 20
179.605434783
 11
112.997149628
 21
212.759095813
 14
112.997149628
 24
179.605434783
 13
112.997149628
 23
198.655434783
 50
90.000000000
  0
DIMENSION
  8
1
 62
4
  6
CONTINUOUS
  2
*D126
 70
1
 10
132.447149628
 20
179.605434783
 11
132.447149628
 21
212.759095813
 14
132.447149628
 24
179.605434783
 13
132.447149628
 23
198.655434783
 50
90.000000000
  0
LINE
  8
1
 62
7
  6
CONTINUOUS
 10
84.184492739
 20
194.396460186
 11
84.184492739
 21
183.864409379
  0
TEXT
  8
1
 62
3
  6
CONTINUOUS
 72
5
 10
126.111398320
 20
137.621434783
 40
4.000000000
  1
ＭＳＳ－１９３０Ｒ
 41
0.834566215
 11
161.311398320
 21
137.621434783
  0
ARC
  8
1
 62
4
  6
CONTINUOUS
 10
219.765899628
 20
194.405434783
 40
1.781250000
 50
126.869897646
 51
233.130102354
  0
ARC
  8
1
 62
4
  6
CONTINUOUS
 10
217.628399628
 20
194.405434783
 40
1.781250000
 50
306.869897646
 51
53.130102354
  0
ENDSEC
  0
EOF
