  0
SECTION
  2
HEADER
  9
$ACADVER
  1
AC1009
  9
$INSBASE
 10
0.000000000
 20
0.000000000
  9
$EXTMIN
 10
-31.595818458
 20
-22.265543478
  9
$EXTMAX
 10
347.554003035
 20
244.920978261
  9
$LIMMIN
 10
-31.595818458
 20
-22.265543478
  9
$LIMMAX
 10
347.554003035
 20
244.920978261
  9
$SNAPBASE
 10
0.000000000
 20
0.000000000
  9
$SNAPANG
 50
0.000000000
  9
$SNAPSTYLE
 70
0
  9
$GRIDMODE
 70
0
  9
$GRIDUNIT
 10
0.000000000
 20
0.000000000
  9
$DIMEXO
 40
0.000000000
  9
$DIMDLI
 40
8.000000000
  9
$DIMDLE
 40
0.000000000
  9
$DIMEXE
 40
1.000000000
  9
$DIMTIH
 70
1
  9
$DIMTOH
 70
1
  9
$DIMTAD
 70
2
  9
$DIMZIN
 70
0
  9
$FILLETRAD
 40
1.000000000
  9
$CHAMFERA
 40
1.000000000
  9
$CHAMFERB
 40
1.000000000
  9
$TDCREATE
 40
2454152.720937500
  9
$TDUPDATE
 40
2454152.720937500
  9
$ANGBASE
 50
0.000000000
  9
$ANGDIR
 70
0
  0
ENDSEC
  0
SECTION
  2
TABLES
  0
TABLE
  2
LTYPE
 70
4
  0
LTYPE
  2
CENTER
 70
64
  3
___ _ ___ _ __
 72
65
 73
4
 40
13.000000000
 49
8.500000000
 49
-1.500000000
 49
1.500000000
 49
-1.500000000
  0
LTYPE
  2
CONTINUOUS
 70
64
  3
______________
 72
65
 73
0
 40
0.000000000
  0
LTYPE
  2
DIVIDE
 70
64
  3
___ . . ___ . 
 72
65
 73
6
 40
12.999999523
 49
5.199999809
 49
-2.599999905
 49
0.000000000
 49
-2.599999905
 49
0.000000000
 49
-2.599999905
  0
LTYPE
  2
PHANTOM
 70
64
  3
___ _ _ ___ _ 
 72
65
 73
6
 40
12.999999762
 49
4.000000000
 49
-1.799999952
 49
1.799999952
 49
-1.799999952
 49
1.799999952
 49
-1.799999952
  0
ENDTAB
  0
TABLE
  2
LAYER
 70
6
  0
LAYER
  2
1
 70
0
 62
7
  6
CONTINUOUS
  0
LAYER
  2
2
 70
0
 62
7
  6
CONTINUOUS
  0
LAYER
  2
5
 70
0
 62
7
  6
CONTINUOUS
999
Comment
  0
LAYER
  2
15
 70
0
 62
5
  6
CONTINUOUS
999
ﾁｬｯｸ
  0
LAYER
  2
17
 70
0
 62
3
  6
CONTINUOUS
999
226
  0
LAYER
  2
30
 70
0
 62
7
  6
CONTINUOUS
999
111
  0
LAYER
  2
_CONSTR
 70
0
 62
5
  6
CONTINUOUS
  0
ENDTAB
  0
TABLE
  2
STYLE
 70
1
  0
STYLE
  2
STANDARD
 70
64
 40
0.000000000
 41
1.000000000
 50
0.000000000
 71
0
 42
3.200000000
  3
TXT
  4
EXTFONT
  0
ENDTAB
  0
TABLE
  2
VIEW
 70
0
  0
ENDTAB
  0
ENDSEC
  0
SECTION
  2
BLOCKS
  0
BLOCK
  8
0
  2
*D46
 70
65
 10
0.000000000
 20
0.000000000
  3
*D
  0
TEXT
  8
1
 62
4
  6
CONTINUOUS
 72
5
 10
292.558147157
 20
124.020374449
 40
2.800000000
  1
3.8
 41
1.199998800
 50
11.999999995
 11
299.131299034
 21
125.417541011
  0
LINE
  8
1
 62
4
  6
CONTINUOUS
 10
275.277738487
 20
177.930644754
 11
287.862633239
 21
118.723369955
  0
POLYLINE
  8
1
 62
4
  6
CONTINUOUS
 66
1
  0
VERTEX
  8
1
 10
285.428141149
 20
120.557286055
  0
VERTEX
  8
1
 10
287.446809858
 20
120.679665156
  0
SEQEND
  8
1
  0
POLYLINE
  8
1
 62
4
  6
CONTINUOUS
 66
1
  0
VERTEX
  8
1
 10
284.512367056
 20
120.055930084
  0
VERTEX
  8
1
 10
287.446809858
 20
120.679665156
  0
VERTEX
  8
1
 10
285.552888164
 20
119.970397494
  0
SEQEND
  8
1
  0
LINE
  8
1
 62
4
  6
CONTINUOUS
 10
287.446809858
 20
120.679665156
 11
291.163770745
 21
121.469729582
  0
POLYLINE
  8
1
 62
4
  6
CONTINUOUS
 66
1
  0
VERTEX
  8
1
 10
293.182439454
 20
121.592108683
  0
VERTEX
  8
1
 10
291.163770745
 20
121.469729582
  0
SEQEND
  8
1
  0
POLYLINE
  8
1
 62
4
  6
CONTINUOUS
 66
1
  0
VERTEX
  8
1
 10
294.098213547
 20
122.093464654
  0
VERTEX
  8
1
 10
291.163770745
 20
121.469729582
  0
VERTEX
  8
1
 10
293.057692439
 20
122.178997243
  0
SEQEND
  8
1
  0
LINE
  8
1
 62
4
  6
CONTINUOUS
 10
288.790245618
 20
132.636287362
 11
291.579594126
 21
119.513434380
  0
POLYLINE
  8
1
 62
4
  6
CONTINUOUS
 66
1
  0
VERTEX
  8
1
 10
291.163770745
 20
121.469729582
  0
VERTEX
  8
1
 10
301.529606634
 20
123.673056016
  0
SEQEND
  8
1
  0
ENDBLK
  8
0
  0
BLOCK
  8
0
  2
*D47
 70
65
 10
0.000000000
 20
0.000000000
  3
*D
  0
TEXT
  8
1
 62
4
  6
CONTINUOUS
 72
5
 10
293.563075084
 20
148.539050236
 40
2.800000000
  1
(
 41
1.650001650
 50
11.999999995
 11
295.069422389
 21
148.859234239
  0
TEXT
  8
1
 62
4
  6
CONTINUOUS
 72
5
 10
295.822596041
 20
149.019326241
 40
2.800000000
  1
φ
 41
1.164760695
 50
11.999999995
 11
298.835290652
 21
149.659694249
  0
TEXT
  8
1
 62
4
  6
CONTINUOUS
 72
5
 10
300.341637957
 20
149.979878253
 40
2.800000000
  1
12
 41
1.031247938
 50
11.999999995
 11
304.107506220
 21
150.780338262
  0
TEXT
  8
1
 62
4
  6
CONTINUOUS
 72
5
 10
304.860679872
 20
150.940430264
 40
2.800000000
  1
)
 41
1.650001650
 50
11.999999995
 11
306.367027178
 21
151.260614267
  0
LINE
  8
1
 62
4
  6
CONTINUOUS
 10
280.221125642
 20
144.092421146
 11
280.767826873
 21
141.520394070
  0
POLYLINE
  8
1
 62
4
  6
CONTINUOUS
 66
1
  0
VERTEX
  8
1
 10
282.245925186
 20
144.185956934
  0
VERTEX
  8
1
 10
280.352003492
 20
143.476689272
  0
VERTEX
  8
1
 10
282.370672201
 20
143.599068373
  0
SEQEND
  8
1
  0
LINE
  8
1
 62
4
  6
CONTINUOUS
 10
280.352003492
 20
143.476689272
 11
292.089774701
 21
145.971629561
  0
POLYLINE
  8
1
 62
4
  6
CONTINUOUS
 66
1
  0
VERTEX
  8
1
 10
290.195853007
 20
145.262361899
  0
VERTEX
  8
1
 10
292.089774701
 20
145.971629561
  0
VERTEX
  8
1
 10
290.071105992
 20
145.849250459
  0
SEQEND
  8
1
  0
LINE
  8
1
 62
4
  6
CONTINUOUS
 10
291.973664629
 20
146.517884500
 11
292.505598082
 21
144.015334359
  0
POLYLINE
  8
1
 62
4
  6
CONTINUOUS
 66
1
  0
VERTEX
  8
1
 10
292.089774701
 20
145.971629561
  0
VERTEX
  8
1
 10
308.766704184
 20
149.516420349
  0
SEQEND
  8
1
  0
ENDBLK
  8
0
  0
BLOCK
  8
0
  2
*D105
 70
65
 10
0.000000000
 20
0.000000000
  3
*D
  0
TEXT
  8
1
 62
4
  6
CONTINUOUS
 72
5
 10
236.622937127
 20
152.087038871
 40
2.800000000
  1
(
 41
1.650001650
 50
348.000000000
 11
238.129284432
 21
151.766854868
  0
TEXT
  8
1
 62
4
  6
CONTINUOUS
 72
5
 10
238.882458084
 20
151.606762866
 40
2.800000000
  1
φ
 41
1.164760695
 50
348.000000000
 11
241.895152694
 21
150.966394858
  0
TEXT
  8
1
 62
4
  6
CONTINUOUS
 72
5
 10
243.401500000
 20
150.646210854
 40
2.800000000
  1
14
 41
1.031247938
 50
348.000000000
 11
247.167368262
 21
149.845750844
  0
TEXT
  8
1
 62
4
  6
CONTINUOUS
 72
5
 10
247.920541915
 20
149.685658843
 40
2.800000000
  1
)
 41
1.650001650
 50
348.000000000
 11
249.426889220
 21
149.365474839
  0
LINE
  8
1
 62
4
  6
CONTINUOUS
 10
266.093844511
 20
141.732250784
 11
266.883111582
 21
145.445460412
  0
POLYLINE
  8
1
 62
4
  6
CONTINUOUS
 66
1
  0
VERTEX
  8
1
 10
264.448619492
 20
143.611544312
  0
VERTEX
  8
1
 10
266.467288201
 20
143.489165210
  0
VERTEX
  8
1
 10
264.573366506
 20
144.198432872
  0
SEQEND
  8
1
  0
LINE
  8
1
 62
4
  6
CONTINUOUS
 10
266.467288201
 20
143.489165210
 11
252.773221790
 21
146.399928882
  0
POLYLINE
  8
1
 62
4
  6
CONTINUOUS
 66
1
  0
VERTEX
  8
1
 10
254.791890499
 20
146.277549780
  0
VERTEX
  8
1
 10
252.773221790
 20
146.399928882
  0
VERTEX
  8
1
 10
254.667143485
 20
145.690661220
  0
SEQEND
  8
1
  0
LINE
  8
1
 62
4
  6
CONTINUOUS
 10
252.348647922
 20
144.402465878
 11
253.189045172
 21
148.356224083
  0
POLYLINE
  8
1
 62
4
  6
CONTINUOUS
 66
1
  0
VERTEX
  8
1
 10
266.467288201
 20
143.489165210
  0
VERTEX
  8
1
 10
234.208196647
 20
150.346046793
  0
SEQEND
  8
1
  0
ENDBLK
  8
0
  0
BLOCK
  8
0
  2
*D127
 70
65
 10
0.000000000
 20
0.000000000
  3
*D
  0
TEXT
  8
1
 62
4
  6
CONTINUOUS
 72
5
 10
150.235549628
 20
216.860434783
 40
2.800000000
  1
63.7
 41
1.099999267
 11
159.475549628
 21
216.860434783
  0
POLYLINE
  8
1
 62
4
  6
CONTINUOUS
 66
1
  0
VERTEX
  8
1
 10
124.997149628
 20
214.955434783
  0
VERTEX
  8
1
 10
122.997149628
 20
214.655434783
  0
VERTEX
  8
1
 10
124.997149628
 20
214.355434783
  0
SEQEND
  8
1
  0
LINE
  8
1
 62
4
  6
CONTINUOUS
 10
122.997149628
 20
214.655434783
 11
186.697149628
 21
214.655434783
  0
POLYLINE
  8
1
 62
4
  6
CONTINUOUS
 66
1
  0
VERTEX
  8
1
 10
184.697149628
 20
214.355434783
  0
VERTEX
  8
1
 10
186.697149628
 20
214.655434783
  0
VERTEX
  8
1
 10
184.697149628
 20
214.955434783
  0
SEQEND
  8
1
  0
LINE
  8
1
 62
4
  6
CONTINUOUS
 10
186.697149628
 20
198.555434783
 11
186.697149628
 21
216.655434783
  0
ENDBLK
  8
0
  0
BLOCK
  8
0
  2
*D130
 70
65
 10
0.000000000
 20
0.000000000
  3
*D
  0
TEXT
  8
1
 62
4
  6
CONTINUOUS
 72
5
 10
208.692149628
 20
181.998834783
 40
2.800000000
  1
φ
 41
1.270648030
 50
90.000000000
 11
208.692149628
 21
185.358834783
  0
TEXT
  8
1
 62
4
  6
CONTINUOUS
 72
5
 10
208.692149628
 20
187.038834783
 40
2.800000000
  1
18.9
 41
1.237498917
 50
90.000000000
 11
208.692149628
 21
196.278834783
  0
LINE
  8
1
 62
4
  6
CONTINUOUS
 10
198.597149628
 20
198.580434783
 11
212.897149628
 21
198.580434783
  0
POLYLINE
  8
1
 62
4
  6
CONTINUOUS
 66
1
  0
VERTEX
  8
1
 10
211.197149628
 20
196.580434783
  0
VERTEX
  8
1
 10
210.897149628
 20
198.580434783
  0
VERTEX
  8
1
 10
210.597149628
 20
196.580434783
  0
SEQEND
  8
1
  0
LINE
  8
1
 62
4
  6
CONTINUOUS
 10
210.897149628
 20
198.580434783
 11
210.897149628
 21
179.680434783
  0
POLYLINE
  8
1
 62
4
  6
CONTINUOUS
 66
1
  0
VERTEX
  8
1
 10
210.597149628
 20
181.680434783
  0
VERTEX
  8
1
 10
210.897149628
 20
179.680434783
  0
VERTEX
  8
1
 10
211.197149628
 20
181.680434783
  0
SEQEND
  8
1
  0
LINE
  8
1
 62
4
  6
CONTINUOUS
 10
198.597149628
 20
179.680434783
 11
212.897149628
 21
179.680434783
  0
ENDBLK
  8
0
  0
BLOCK
  8
0
  2
*D131
 70
65
 10
0.000000000
 20
0.000000000
  3
*D
  0
TEXT
  8
1
 62
4
  6
CONTINUOUS
 72
5
 10
130.242149628
 20
153.862234783
 40
2.800000000
  1
φ
 41
1.270648030
 50
90.000000000
 11
130.242149628
 21
157.222234783
  0
TEXT
  8
1
 62
4
  6
CONTINUOUS
 72
5
 10
130.242149628
 20
158.902234783
 40
2.800000000
  1
19.05
 41
1.199999314
 50
90.000000000
 11
130.242149628
 21
170.662234783
  0
TEXT
  8
1
 62
4
  6
CONTINUOUS
 72
5
 10
128.478149628
 20
171.502234783
 40
1.400000000
  1
-0.01
 41
1.710000684
 50
90.000000000
 11
128.478149628
 21
179.482234783
  0
TEXT
  8
1
 62
4
  6
CONTINUOUS
 72
5
 10
130.620149628
 20
171.502234783
 40
1.400000000
  1
-0.02
 41
1.554544889
 50
90.000000000
 11
130.620149628
 21
179.482234783
  0
POLYLINE
  8
1
 62
4
  6
CONTINUOUS
 66
1
  0
VERTEX
  8
1
 10
132.747149628
 20
196.655434783
  0
VERTEX
  8
1
 10
132.447149628
 20
198.655434783
  0
VERTEX
  8
1
 10
132.147149628
 20
196.655434783
  0
SEQEND
  8
1
  0
LINE
  8
1
 62
4
  6
CONTINUOUS
 10
132.447149628
 20
198.655434783
 11
132.447149628
 21
179.605434783
  0
POLYLINE
  8
1
 62
4
  6
CONTINUOUS
 66
1
  0
VERTEX
  8
1
 10
132.147149628
 20
181.605434783
  0
VERTEX
  8
1
 10
132.447149628
 20
179.605434783
  0
VERTEX
  8
1
 10
132.747149628
 20
181.605434783
  0
SEQEND
  8
1
  0
POLYLINE
  8
1
 62
4
  6
CONTINUOUS
 66
1
  0
VERTEX
  8
1
 10
132.447149628
 20
198.655434783
  0
VERTEX
  8
1
 10
132.447149628
 20
151.849634783
  0
SEQEND
  8
1
  0
ENDBLK
  8
0
  0
BLOCK
  8
0
  2
*D132
 70
65
 10
0.000000000
 20
0.000000000
  3
*D
  0
TEXT
  8
1
 62
4
  6
CONTINUOUS
 72
5
 10
110.792149628
 20
153.862234783
 40
2.800000000
  1
φ
 41
1.270648030
 50
90.000000000
 11
110.792149628
 21
157.222234783
  0
TEXT
  8
1
 62
4
  6
CONTINUOUS
 72
5
 10
110.792149628
 20
158.902234783
 40
2.800000000
  1
19.05
 41
1.199999314
 50
90.000000000
 11
110.792149628
 21
170.662234783
  0
TEXT
  8
1
 62
4
  6
CONTINUOUS
 72
5
 10
109.028149628
 20
171.502234783
 40
1.400000000
  1
 0
 41
2.333335926
 50
90.000000000
 11
109.028149628
 21
174.442234783
  0
TEXT
  8
1
 62
4
  6
CONTINUOUS
 72
5
 10
111.170149628
 20
171.502234783
 40
1.400000000
  1
-0.01
 41
1.710000684
 50
90.000000000
 11
111.170149628
 21
179.482234783
  0
POLYLINE
  8
1
 62
4
  6
CONTINUOUS
 66
1
  0
VERTEX
  8
1
 10
113.297149628
 20
196.655434783
  0
VERTEX
  8
1
 10
112.997149628
 20
198.655434783
  0
VERTEX
  8
1
 10
112.697149628
 20
196.655434783
  0
SEQEND
  8
1
  0
LINE
  8
1
 62
4
  6
CONTINUOUS
 10
112.997149628
 20
198.655434783
 11
112.997149628
 21
179.605434783
  0
POLYLINE
  8
1
 62
4
  6
CONTINUOUS
 66
1
  0
VERTEX
  8
1
 10
112.697149628
 20
181.605434783
  0
VERTEX
  8
1
 10
112.997149628
 20
179.605434783
  0
VERTEX
  8
1
 10
113.297149628
 20
181.605434783
  0
SEQEND
  8
1
  0
POLYLINE
  8
1
 62
4
  6
CONTINUOUS
 66
1
  0
VERTEX
  8
1
 10
112.997149628
 20
198.655434783
  0
VERTEX
  8
1
 10
112.997149628
 20
151.849634783
  0
SEQEND
  8
1
  0
ENDBLK
  8
0
  0
BLOCK
  8
0
  2
*D135
 70
65
 10
0.000000000
 20
0.000000000
  3
*D
  0
TEXT
  8
1
 62
4
  6
CONTINUOUS
 72
5
 10
185.485663954
 20
216.860434783
 40
2.800000000
  1
(
 41
1.650001650
 11
187.025663954
 21
216.860434783
  0
TEXT
  8
1
 62
4
  6
CONTINUOUS
 72
5
 10
187.795663954
 20
216.860434783
 40
2.800000000
  1
12.2
 41
1.134374007
 11
196.265663954
 21
216.860434783
  0
TEXT
  8
1
 62
4
  6
CONTINUOUS
 72
5
 10
197.035663954
 20
216.860434783
 40
2.800000000
  1
)
 41
1.650001650
 11
198.575663954
 21
216.860434783
  0
LINE
  8
1
 62
4
  6
CONTINUOUS
 10
198.897149628
 20
198.280434783
 11
198.897149628
 21
216.655434783
  0
POLYLINE
  8
1
 62
4
  6
CONTINUOUS
 66
1
  0
VERTEX
  8
1
 10
196.897149628
 20
214.355434783
  0
VERTEX
  8
1
 10
198.897149628
 20
214.655434783
  0
VERTEX
  8
1
 10
196.897149628
 20
214.955434783
  0
SEQEND
  8
1
  0
LINE
  8
1
 62
4
  6
CONTINUOUS
 10
198.897149628
 20
214.655434783
 11
186.697149628
 21
214.655434783
  0
POLYLINE
  8
1
 62
4
  6
CONTINUOUS
 66
1
  0
VERTEX
  8
1
 10
188.697149628
 20
214.955434783
  0
VERTEX
  8
1
 10
186.697149628
 20
214.655434783
  0
VERTEX
  8
1
 10
188.697149628
 20
214.355434783
  0
SEQEND
  8
1
  0
LINE
  8
1
 62
4
  6
CONTINUOUS
 10
186.697149628
 20
198.555434783
 11
186.697149628
 21
216.655434783
  0
ENDBLK
  8
0
  0
BLOCK
  8
0
  2
*D137
 70
65
 10
0.000000000
 20
0.000000000
  3
*D
  0
TEXT
  8
1
 62
4
  6
CONTINUOUS
 72
5
 10
131.619798320
 20
224.860434783
 40
2.800000000
  1
(
 41
1.800001800
 11
133.299798320
 21
224.860434783
  0
TEXT
  8
1
 62
4
  6
CONTINUOUS
 72
5
 10
134.139798320
 20
224.860434783
 40
2.800000000
  1
117.8
 41
1.259998992
 11
145.899798320
 21
224.860434783
  0
TEXT
  8
1
 62
4
  6
CONTINUOUS
 72
5
 10
146.739798320
 20
224.860434783
 40
2.800000000
  1
)
 41
1.800001800
 11
148.419798320
 21
224.860434783
  0
LINE
  8
1
 62
4
  6
CONTINUOUS
 10
81.125647012
 20
192.553084513
 11
81.125647012
 21
224.655434783
  0
POLYLINE
  8
1
 62
4
  6
CONTINUOUS
 66
1
  0
VERTEX
  8
1
 10
83.125647012
 20
222.955434783
  0
VERTEX
  8
1
 10
81.125647012
 20
222.655434783
  0
VERTEX
  8
1
 10
83.125647012
 20
222.355434783
  0
SEQEND
  8
1
  0
LINE
  8
1
 62
4
  6
CONTINUOUS
 10
81.125647012
 20
222.655434783
 11
198.897149628
 21
222.655434783
  0
POLYLINE
  8
1
 62
4
  6
CONTINUOUS
 66
1
  0
VERTEX
  8
1
 10
196.897149628
 20
222.355434783
  0
VERTEX
  8
1
 10
198.897149628
 20
222.655434783
  0
VERTEX
  8
1
 10
196.897149628
 20
222.955434783
  0
SEQEND
  8
1
  0
LINE
  8
1
 62
4
  6
CONTINUOUS
 10
198.897149628
 20
198.280434783
 11
198.897149628
 21
224.655434783
  0
ENDBLK
  8
0
  0
BLOCK
  8
0
  2
*D138
 70
65
 10
0.000000000
 20
0.000000000
  3
*D
  0
TEXT
  8
1
 62
4
  6
CONTINUOUS
 72
5
 10
81.924098320
 20
216.860434783
 40
2.800000000
  1
(
 41
1.650001650
 11
83.464098320
 21
216.860434783
  0
TEXT
  8
1
 62
4
  6
CONTINUOUS
 72
5
 10
84.234098320
 20
216.860434783
 40
2.800000000
  1
14.7
 41
1.134374007
 11
92.704098320
 21
216.860434783
  0
TEXT
  8
1
 62
4
  6
CONTINUOUS
 72
5
 10
93.474098320
 20
216.860434783
 40
2.800000000
  1
)
 41
1.650001650
 11
95.014098320
 21
216.860434783
  0
LINE
  8
1
 62
4
  6
CONTINUOUS
 10
81.125647012
 20
192.553084513
 11
81.125647012
 21
216.655434783
  0
POLYLINE
  8
1
 62
4
  6
CONTINUOUS
 66
1
  0
VERTEX
  8
1
 10
83.125647012
 20
214.955434783
  0
VERTEX
  8
1
 10
81.125647012
 20
214.655434783
  0
VERTEX
  8
1
 10
83.125647012
 20
214.355434783
  0
SEQEND
  8
1
  0
LINE
  8
1
 62
4
  6
CONTINUOUS
 10
81.125647012
 20
214.655434783
 11
95.797149628
 21
214.655434783
  0
POLYLINE
  8
1
 62
4
  6
CONTINUOUS
 66
1
  0
VERTEX
  8
1
 10
93.797149628
 20
214.355434783
  0
VERTEX
  8
1
 10
95.797149628
 20
214.655434783
  0
VERTEX
  8
1
 10
93.797149628
 20
214.955434783
  0
SEQEND
  8
1
  0
LINE
  8
1
 62
4
  6
CONTINUOUS
 10
95.797149628
 20
198.405434783
 11
95.797149628
 21
216.655434783
  0
ENDBLK
  8
0
  0
BLOCK
  8
0
  2
*D139
 70
65
 10
0.000000000
 20
0.000000000
  3
*D
  0
TEXT
  8
1
 62
4
  6
CONTINUOUS
 72
5
 10
102.265549628
 20
216.860434783
 40
2.800000000
  1
(
 41
1.800001800
 11
103.945549628
 21
216.860434783
  0
TEXT
  8
1
 62
4
  6
CONTINUOUS
 72
5
 10
104.785549628
 20
216.860434783
 40
2.800000000
  1
27.2
 41
1.099999267
 11
114.025549628
 21
216.860434783
  0
TEXT
  8
1
 62
4
  6
CONTINUOUS
 72
5
 10
114.865549628
 20
216.860434783
 40
2.800000000
  1
)
 41
1.800001800
 11
116.545549628
 21
216.860434783
  0
LINE
  8
1
 62
4
  6
CONTINUOUS
 10
95.797149628
 20
198.405434783
 11
95.797149628
 21
216.655434783
  0
POLYLINE
  8
1
 62
4
  6
CONTINUOUS
 66
1
  0
VERTEX
  8
1
 10
97.797149628
 20
214.955434783
  0
VERTEX
  8
1
 10
95.797149628
 20
214.655434783
  0
VERTEX
  8
1
 10
97.797149628
 20
214.355434783
  0
SEQEND
  8
1
  0
LINE
  8
1
 62
4
  6
CONTINUOUS
 10
95.797149628
 20
214.655434783
 11
122.997149628
 21
214.655434783
  0
POLYLINE
  8
1
 62
4
  6
CONTINUOUS
 66
1
  0
VERTEX
  8
1
 10
120.997149628
 20
214.355434783
  0
VERTEX
  8
1
 10
122.997149628
 20
214.655434783
  0
VERTEX
  8
1
 10
120.997149628
 20
214.955434783
  0
SEQEND
  8
1
  0
LINE
  8
1
 62
4
  6
CONTINUOUS
 10
122.997149628
 20
198.655434783
 11
122.997149628
 21
216.655434783
  0
ENDBLK
  8
0
  0
BLOCK
  8
0
  2
*D141
 70
65
 10
0.000000000
 20
0.000000000
  3
*D
  0
TEXT
  8
1
 62
4
  6
CONTINUOUS
 72
5
 10
62.920647012
 20
181.998834783
 40
2.800000000
  1
φ
 41
1.270648030
 50
90.000000000
 11
62.920647012
 21
185.358834783
  0
TEXT
  8
1
 62
4
  6
CONTINUOUS
 72
5
 10
62.920647012
 20
187.038834783
 40
2.800000000
  1
11.8
 41
1.414284098
 50
90.000000000
 11
62.920647012
 21
196.278834783
  0
LINE
  8
1
 62
4
  6
CONTINUOUS
 10
84.684492739
 20
195.030434783
 11
63.125647012
 21
195.030434783
  0
POLYLINE
  8
1
 62
4
  6
CONTINUOUS
 66
1
  0
VERTEX
  8
1
 10
65.425647012
 20
193.030434783
  0
VERTEX
  8
1
 10
65.125647012
 20
195.030434783
  0
VERTEX
  8
1
 10
64.825647012
 20
193.030434783
  0
SEQEND
  8
1
  0
LINE
  8
1
 62
4
  6
CONTINUOUS
 10
65.125647012
 20
195.030434783
 11
65.125647012
 21
183.230434783
  0
POLYLINE
  8
1
 62
4
  6
CONTINUOUS
 66
1
  0
VERTEX
  8
1
 10
64.825647012
 20
185.230434783
  0
VERTEX
  8
1
 10
65.125647012
 20
183.230434783
  0
VERTEX
  8
1
 10
65.425647012
 20
185.230434783
  0
SEQEND
  8
1
  0
LINE
  8
1
 62
4
  6
CONTINUOUS
 10
84.684492739
 20
183.230434783
 11
63.125647012
 21
183.230434783
  0
ENDBLK
  8
0
  0
BLOCK
  8
0
  2
*D160
 70
65
 10
0.000000000
 20
0.000000000
  3
*D
  0
TEXT
  8
1
 62
4
  6
CONTINUOUS
 72
5
 10
262.479493389
 20
122.077050387
 40
2.800000000
  1
12
 41
1.124997750
 50
354.000000000
 11
266.656485349
 21
121.638030841
  0
TEXT
  8
1
 62
4
  6
CONTINUOUS
 72
5
 10
267.491883742
 20
121.550226932
 40
2.800000000
  1
°
 41
1.270648030
 50
354.000000000
 11
270.833477310
 21
121.199011295
  0
LINE
  8
1
 62
4
  6
CONTINUOUS
 10
270.516560768
 20
177.930644754
 11
257.931666010
 21
118.723369956
  0
POLYLINE
  8
1
 62
4
  6
CONTINUOUS
 66
1
  0
VERTEX
  8
1
 10
260.366158101
 20
120.557286056
  0
VERTEX
  8
1
 10
258.347489392
 20
120.679665157
  0
VERTEX
  8
1
 10
260.241411086
 20
119.970397495
  0
SEQEND
  8
1
  0
ARC
  8
1
 62
4
  6
CONTINUOUS
 10
272.897149628
 20
189.130434783
 40
69.980000538
 50
258.000000000
 51
270.000000000
  0
POLYLINE
  8
1
 62
4
  6
CONTINUOUS
 66
1
  0
VERTEX
  8
1
 10
270.897149628
 20
118.850434245
  0
VERTEX
  8
1
 10
272.897149628
 20
119.150434245
  0
VERTEX
  8
1
 10
270.897149628
 20
119.450434245
  0
SEQEND
  8
1
  0
LINE
  8
1
 62
4
  6
CONTINUOUS
 10
272.897149628
 20
177.680434783
 11
272.897149628
 21
117.150434245
  0
ENDBLK
  8
0
  0
BLOCK
  8
0
  2
*D161
 70
65
 10
0.000000000
 20
0.000000000
  3
*D
  0
TEXT
  8
1
 62
4
  6
CONTINUOUS
 72
5
 10
246.928203165
 20
125.361170386
 40
2.800000000
  1
3.8
 41
1.199998800
 50
348.000000007
 11
253.501355042
 21
123.964003823
  0
LINE
  8
1
 62
4
  6
CONTINUOUS
 10
256.709645419
 20
131.251205589
 11
254.214705129
 21
119.513434380
  0
POLYLINE
  8
1
 62
4
  6
CONTINUOUS
 66
1
  0
VERTEX
  8
1
 10
252.736606817
 20
122.178997243
  0
VERTEX
  8
1
 10
254.630528511
 20
121.469729581
  0
SEQEND
  8
1
  0
POLYLINE
  8
1
 62
4
  6
CONTINUOUS
 66
1
  0
VERTEX
  8
1
 10
251.696085709
 20
122.093464653
  0
VERTEX
  8
1
 10
254.630528511
 20
121.469729581
  0
VERTEX
  8
1
 10
252.611859802
 20
121.592108683
  0
SEQEND
  8
1
  0
LINE
  8
1
 62
4
  6
CONTINUOUS
 10
254.630528511
 20
121.469729581
 11
258.347489392
 21
120.679665157
  0
POLYLINE
  8
1
 62
4
  6
CONTINUOUS
 66
1
  0
VERTEX
  8
1
 10
260.241411087
 20
119.970397496
  0
VERTEX
  8
1
 10
258.347489392
 20
120.679665157
  0
SEQEND
  8
1
  0
POLYLINE
  8
1
 62
4
  6
CONTINUOUS
 66
1
  0
VERTEX
  8
1
 10
261.281932195
 20
120.055930085
  0
VERTEX
  8
1
 10
258.347489392
 20
120.679665157
  0
VERTEX
  8
1
 10
260.366158101
 20
120.557286056
  0
SEQEND
  8
1
  0
LINE
  8
1
 62
4
  6
CONTINUOUS
 10
270.516560768
 20
177.930644754
 11
257.931666011
 21
118.723369956
  0
POLYLINE
  8
1
 62
4
  6
CONTINUOUS
 66
1
  0
VERTEX
  8
1
 10
254.630528511
 20
121.469729581
  0
VERTEX
  8
1
 10
244.513462685
 20
123.620178308
  0
SEQEND
  8
1
  0
ENDBLK
  8
0
  0
BLOCK
  8
0
  2
*D171
 70
65
 10
0.000000000
 20
0.000000000
  3
*D
  0
TEXT
  8
1
 62
4
  6
CONTINUOUS
 72
5
 10
276.648326697
 20
121.376375192
 40
2.800000000
  1
12
 41
1.124997750
 50
6.000000000
 11
280.825318658
 21
121.815394737
  0
TEXT
  8
1
 62
4
  6
CONTINUOUS
 72
5
 10
281.660717050
 20
121.903198646
 40
2.800000000
  1
°
 41
1.270648030
 50
6.000000000
 11
285.002310618
 21
122.254414283
  0
POLYLINE
  8
1
 62
4
  6
CONTINUOUS
 66
1
  0
VERTEX
  8
1
 10
274.897149628
 20
119.450434245
  0
VERTEX
  8
1
 10
272.897149628
 20
119.150434245
  0
VERTEX
  8
1
 10
274.897149628
 20
118.850434245
  0
SEQEND
  8
1
  0
ARC
  8
1
 62
4
  6
CONTINUOUS
 10
272.897149628
 20
189.130434783
 40
69.980000538
 50
270.000000000
 51
282.000000000
  0
POLYLINE
  8
1
 62
4
  6
CONTINUOUS
 66
1
  0
VERTEX
  8
1
 10
285.552888169
 20
119.970397495
  0
VERTEX
  8
1
 10
287.446809863
 20
120.679665157
  0
VERTEX
  8
1
 10
285.428141154
 20
120.557286056
  0
SEQEND
  8
1
  0
LINE
  8
1
 62
4
  6
CONTINUOUS
 10
275.277738487
 20
177.930644754
 11
287.862633244
 21
118.723369956
  0
ENDBLK
  8
0
  0
BLOCK
  8
0
  2
*D180
 70
65
 10
0.000000000
 20
0.000000000
  3
*D
  0
TEXT
  8
1
 62
4
  6
CONTINUOUS
 72
5
 10
311.276038621
 20
173.088921319
 40
2.800000000
  1
(
 41
1.800001800
 50
282.000000005
 11
311.625330262
 21
171.445633349
  0
TEXT
  8
1
 62
4
  6
CONTINUOUS
 72
5
 10
311.799976082
 20
170.623989365
 40
2.800000000
  1
57
 41
0.899998740
 50
282.000000005
 11
312.673205183
 21
166.515769442
  0
TEXT
  8
1
 62
4
  6
CONTINUOUS
 72
5
 10
312.847851003
 20
165.694125457
 40
2.800000000
  1
)
 41
1.800001800
 50
282.000000005
 11
313.197142644
 21
164.050837488
  0
LINE
  8
1
 62
4
  6
CONTINUOUS
 10
272.897149628
 20
189.130434783
 11
306.154168053
 21
196.199432268
  0
POLYLINE
  8
1
 62
4
  6
CONTINUOUS
 66
1
  0
VERTEX
  8
1
 10
304.907140514
 20
193.889687192
  0
VERTEX
  8
1
 10
304.197872852
 20
195.783608886
  0
VERTEX
  8
1
 10
304.320251953
 20
193.764940177
  0
SEQEND
  8
1
  0
LINE
  8
1
 62
4
  6
CONTINUOUS
 10
304.197872852
 20
195.783608886
 11
315.958184578
 21
140.455692243
  0
POLYLINE
  8
1
 62
4
  6
CONTINUOUS
 66
1
  0
VERTEX
  8
1
 10
315.248916916
 20
142.349613937
  0
VERTEX
  8
1
 10
315.958184578
 20
140.455692243
  0
VERTEX
  8
1
 10
315.835805476
 20
142.474360952
  0
SEQEND
  8
1
  0
LINE
  8
1
 62
4
  6
CONTINUOUS
 10
294.243307841
 20
135.840052709
 11
317.914479779
 21
140.871515625
  0
ENDBLK
  8
0
  0
BLOCK
  8
0
  2
*D183
 70
65
 10
0.000000000
 20
0.000000000
  3
*D
  0
TEXT
  8
1
 62
4
  6
CONTINUOUS
 72
5
 10
232.453445422
 20
163.374729478
 40
2.800000000
  1
(
 41
1.800001800
 50
78.000000015
 11
232.802737062
 21
165.018017447
  0
TEXT
  8
1
 62
4
  6
CONTINUOUS
 72
5
 10
232.977382882
 20
165.839661432
 40
2.800000000
  1
58
 41
0.899998740
 50
78.000000015
 11
233.850611983
 21
169.947881355
  0
TEXT
  8
1
 62
4
  6
CONTINUOUS
 72
5
 10
234.025257803
 20
170.769525340
 40
2.800000000
  1
)
 41
1.800001800
 50
78.000000015
 11
234.374549444
 21
172.412813309
  0
LINE
  8
1
 62
4
  6
CONTINUOUS
 10
272.897149628
 20
189.130434783
 11
239.640131202
 21
196.199432266
  0
POLYLINE
  8
1
 62
4
  6
CONTINUOUS
 66
1
  0
VERTEX
  8
1
 10
241.474047302
 20
193.764940176
  0
VERTEX
  8
1
 10
241.596426403
 20
195.783608885
  0
VERTEX
  8
1
 10
240.887158742
 20
193.889687190
  0
SEQEND
  8
1
  0
LINE
  8
1
 62
4
  6
CONTINUOUS
 10
241.596426403
 20
195.783608885
 11
229.541706465
 21
139.070610467
  0
POLYLINE
  8
1
 62
4
  6
CONTINUOUS
 66
1
  0
VERTEX
  8
1
 10
229.664085566
 20
141.089279176
  0
VERTEX
  8
1
 10
229.541706465
 20
139.070610467
  0
VERTEX
  8
1
 10
230.250974127
 20
140.964532162
  0
SEQEND
  8
1
  0
LINE
  8
1
 62
4
  6
CONTINUOUS
 10
251.256583195
 20
134.454970935
 11
227.585411264
 21
139.486433849
  0
ENDBLK
  8
0
  0
ENDSEC
  0
SECTION
  2
ENTITIES
  0
LINE
  8
1
 62
7
  6
CONTINUOUS
 10
95.697149628
 20
184.530434783
 11
95.797149628
 21
184.430434783
  0
LINE
  8
1
 62
7
  6
CONTINUOUS
 10
119.397149628
 20
184.832106619
 11
119.397149628
 21
193.428762946
  0
LINE
  8
1
 62
7
  6
CONTINUOUS
 10
93.097149628
 20
193.730434783
 11
95.697149628
 21
193.730434783
  0
LINE
  8
1
 62
7
  6
CONTINUOUS
 10
92.997149628
 20
193.830434783
 11
93.097149628
 21
193.730434783
  0
LINE
  8
1
 62
7
  6
CONTINUOUS
 10
88.275647012
 20
183.230434783
 11
88.275647012
 21
195.030434783
  0
LINE
  8
1
 62
7
  6
CONTINUOUS
 10
92.625647012
 20
193.830434783
 11
92.997149628
 21
193.830434783
  0
LINE
  8
17
 62
1
  6
CENTER
 10
69.125647012
 20
189.130434783
 11
200.897149628
 21
189.130434783
  0
LINE
  8
1
 62
4
  6
CONTINUOUS
 10
93.197149628
 20
191.401998121
 11
95.597149628
 21
186.858871444
  0
LINE
  8
1
 62
7
  6
CONTINUOUS
 10
92.997149628
 20
184.430434783
 11
93.097149628
 21
184.530434783
  0
LINE
  8
1
 62
7
  6
CONTINUOUS
 10
93.097149628
 20
184.530434783
 11
95.697149628
 21
184.530434783
  0
LINE
  8
1
 62
7
  6
CONTINUOUS
 10
116.197149628
 20
184.832106619
 11
119.397149628
 21
184.832106619
  0
LINE
  8
1
 62
4
  6
CONTINUOUS
 10
95.597149628
 20
191.401998121
 11
93.197149628
 21
186.858871444
  0
LINE
  8
1
 62
4
  6
CONTINUOUS
 10
116.197149628
 20
193.428762946
 11
119.397149628
 21
184.832106619
  0
LINE
  8
1
 62
7
  6
CONTINUOUS
 10
95.697149628
 20
193.730434783
 11
95.797149628
 21
193.830434783
  0
LINE
  8
1
 62
7
  6
CONTINUOUS
 10
198.897149628
 20
197.630434783
 11
188.897149628
 21
197.630434783
  0
LINE
  8
1
 62
7
  6
CONTINUOUS
 10
92.625647012
 20
184.430434783
 11
92.997149628
 21
184.430434783
  0
ARC
  8
1
 62
7
  6
CONTINUOUS
 10
186.447149628
 20
197.830434783
 40
0.450000000
 50
0.000000000
 51
56.251011412
  0
LINE
  8
1
 62
7
  6
CONTINUOUS
 10
141.897149628
 20
193.428762946
 11
141.897149628
 21
184.832106619
  0
LINE
  8
1
 62
7
  6
CONTINUOUS
 10
145.097149628
 20
193.428762946
 11
145.097149628
 21
184.832106619
  0
LINE
  8
1
 62
7
  6
CONTINUOUS
 10
141.897149628
 20
184.832106619
 11
145.097149628
 21
184.832106619
  0
LINE
  8
1
 62
7
  6
CONTINUOUS
 10
141.897149628
 20
193.428762946
 11
145.097149628
 21
193.428762946
  0
LINE
  8
1
 62
7
  6
CONTINUOUS
 10
186.897149628
 20
198.580434783
 11
186.897149628
 21
179.680434783
  0
LINE
  8
1
 62
4
  6
PHANTOM
 10
198.897149628
 20
179.980434783
 11
198.897149628
 21
180.630434783
  0
LINE
  8
1
 62
4
  6
PHANTOM
 10
198.597149628
 20
179.680434783
 11
188.897149628
 21
179.680434783
  0
LINE
  8
1
 62
4
  6
PHANTOM
 10
198.597149628
 20
198.580434783
 11
198.897149628
 21
198.280434783
  0
LINE
  8
1
 62
4
  6
PHANTOM
 10
198.597149628
 20
198.580434783
 11
188.897149628
 21
198.580434783
  0
LINE
  8
1
 62
4
  6
PHANTOM
 10
198.897149628
 20
179.980434783
 11
198.597149628
 21
179.680434783
  0
LINE
  8
5
 62
7
  6
CONTINUOUS
 10
122.997149628
 20
198.655434783
 11
122.997149628
 21
179.605434783
  0
LINE
  8
30
 62
7
  6
CONTINUOUS
 10
98.197149628
 20
179.805434783
 11
98.397149628
 21
179.605434783
  0
LINE
  8
30
 62
7
  6
CONTINUOUS
 10
98.397149628
 20
179.605434783
 11
122.997149628
 21
179.605434783
  0
LINE
  8
30
 62
7
  6
CONTINUOUS
 10
122.997149628
 20
179.605434783
 11
122.997149628
 21
198.655434783
  0
LINE
  8
1
 62
4
  6
CONTINUOUS
 10
141.897149628
 20
193.428762946
 11
145.097149628
 21
184.832106619
  0
LINE
  8
1
 62
4
  6
CONTINUOUS
 10
145.097149628
 20
193.428762946
 11
141.897149628
 21
184.832106619
  0
LINE
  8
30
 62
7
  6
CONTINUOUS
 10
98.197149628
 20
179.805434783
 11
98.197149628
 21
198.455434783
  0
LINE
  8
5
 62
7
  6
CONTINUOUS
 10
186.697149628
 20
198.555434783
 11
186.697149628
 21
179.705434783
  0
LINE
  8
30
 62
7
  6
CONTINUOUS
 10
98.197149628
 20
198.455434783
 11
98.397149628
 21
198.655434783
  0
LINE
  8
5
 62
7
  6
CONTINUOUS
 10
186.597149628
 20
198.655434783
 11
186.697149628
 21
198.555434783
  0
LINE
  8
5
 62
7
  6
CONTINUOUS
 10
122.997149628
 20
179.605434783
 11
186.597149628
 21
179.605434783
  0
LINE
  8
5
 62
7
  6
CONTINUOUS
 10
122.997149628
 20
198.655434783
 11
186.597149628
 21
198.655434783
  0
LINE
  8
1
 62
7
  6
CONTINUOUS
 10
116.197149628
 20
193.428762946
 11
116.197149628
 21
184.832106619
  0
ARC
  8
1
 62
7
  6
CONTINUOUS
 10
186.447149628
 20
180.430434783
 40
0.450000000
 50
303.748988588
 51
0.000000000
  0
LINE
  8
30
 62
7
  6
CONTINUOUS
 10
98.397149628
 20
198.655434783
 11
122.997149628
 21
198.655434783
  0
TEXT
  8
1
 62
4
  6
CONTINUOUS
 72
5
 10
228.647588016
 20
130.329840891
 40
3.200000000
  1
（排気）
 41
0.722783070
 11
239.158357246
 21
130.329840891
  0
TEXT
  8
1
 62
4
  6
CONTINUOUS
 72
5
 10
306.090578676
 20
130.329840891
 40
3.200000000
  1
（給気）
 41
0.722783070
 11
316.601347907
 21
130.329840891
  0
POINT
  8
1
 62
4
  6
CONTINUOUS
 10
186.897149628
 20
197.380434783
  0
DIMENSION
  8
1
 62
4
  6
CONTINUOUS
  2
*D46
 70
0
 10
291.163770745
 20
121.469729582
 11
296.294951934
 21
122.560395812
 14
288.790245618
 24
132.636287362
 13
275.277738487
 23
177.930644754
 50
191.999999995
  0
DIMENSION
  8
1
 62
4
  6
CONTINUOUS
  2
*D47
 70
0
 10
292.089774701
 20
145.971629561
 11
300.415964672
 21
147.741415872
 14
291.973664629
 24
146.517884500
 13
280.221125642
 23
144.092421146
 50
191.999999995
  0
LINE
  8
1
 62
7
  6
CONTINUOUS
 10
276.543428235
 20
160.192193517
 11
288.770273244
 21
162.791089652
  0
ARC
  8
1
 62
7
  6
CONTINUOUS
 10
289.192593866
 20
160.804227338
 40
2.031250000
 50
102.000000000
 51
161.489762594
  0
LINE
  8
1
 62
7
  6
CONTINUOUS
 10
276.905837181
 20
150.070158373
 11
279.107235900
 21
149.333244475
  0
LINE
  8
1
 62
7
  6
CONTINUOUS
 10
292.561148453
 20
153.373459103
 11
290.844928993
 21
151.828168161
  0
ARC
  8
1
 62
7
  6
CONTINUOUS
 10
278.440300262
 20
151.268112262
 40
2.031250000
 50
288.451825822
 51
341.489762594
  0
LINE
  8
1
 62
7
  6
CONTINUOUS
 10
294.035396150
 20
136.818200310
 11
282.297624941
 21
134.323260020
  0
LINE
  8
1
 62
7
  6
CONTINUOUS
 10
292.152351367
 20
138.462627975
 11
292.568174749
 21
136.506332773
  0
LINE
  8
1
 62
7
  6
CONTINUOUS
 10
282.505536632
 20
133.345112419
 11
294.243307841
 21
135.840052709
  0
LINE
  8
1
 62
7
  6
CONTINUOUS
 10
289.169795901
 20
152.494448225
 11
287.266426633
 21
161.449096592
  0
LINE
  8
1
 62
7
  6
CONTINUOUS
 10
282.297624941
 20
134.323260020
 11
282.505536632
 21
133.345112419
  0
LINE
  8
1
 62
7
  6
CONTINUOUS
 10
294.243307841
 20
135.840052709
 11
294.035396150
 21
136.818200310
  0
LINE
  8
1
 62
7
  6
CONTINUOUS
 10
255.121815448
 20
162.258927664
 11
253.255559892
 21
153.478885580
  0
LINE
  8
1
 62
7
  6
CONTINUOUS
 10
257.041485440
 20
162.873229806
 11
269.268330450
 21
160.274333671
  0
LINE
  8
5
 62
7
  6
CONTINUOUS
 10
186.697149628
 20
179.705434783
 11
186.597149628
 21
179.605434783
  0
LINE
  8
1
 62
7
  6
CONTINUOUS
 10
256.641962783
 20
152.576588379
 11
258.545332051
 21
161.531236746
  0
ARC
  8
1
 62
7
  6
CONTINUOUS
 10
255.211310260
 20
153.749981128
 40
1.850301917
 50
208.317900462
 51
320.642077288
  0
LINE
  8
1
 62
7
  6
CONTINUOUS
 10
268.900971843
 20
150.129012205
 11
267.682748501
 21
149.207456334
  0
LINE
  8
1
 62
7
  6
CONTINUOUS
 10
253.255559892
 20
153.478885580
 11
253.988760206
 21
152.118203402
  0
LINE
  8
1
 62
7
  6
CONTINUOUS
 10
263.202266095
 20
132.938178246
 11
251.464494886
 21
135.433118536
  0
LINE
  8
1
 62
7
  6
CONTINUOUS
 10
262.150868075
 20
135.206340984
 11
261.735044693
 21
133.250045783
  0
LINE
  8
1
 62
7
  6
CONTINUOUS
 10
270.772177060
 20
158.932340611
 11
268.900971843
 21
150.129012205
  0
LINE
  8
1
 62
7
  6
CONTINUOUS
 10
257.041485440
 20
162.873229806
 11
255.121815448
 21
162.258927664
  0
LINE
  8
1
 62
7
  6
CONTINUOUS
 10
251.256583195
 20
134.454970935
 11
262.994354404
 21
131.960030646
  0
LINE
  8
1
 62
7
  6
CONTINUOUS
 10
269.268330450
 20
160.274333671
 11
270.772177060
 21
158.932340611
  0
LINE
  8
1
 62
7
  6
CONTINUOUS
 10
251.464494886
 20
135.433118536
 11
251.256583195
 21
134.454970935
  0
LINE
  8
1
 62
7
  6
CONTINUOUS
 10
262.994354404
 20
131.960030646
 11
263.202266095
 21
132.938178246
  0
LINE
  8
1
 62
7
  6
CONTINUOUS
 10
265.445291190
 20
150.705383162
 11
267.348660457
 21
159.660031529
  0
ARC
  8
1
 62
7
  6
CONTINUOUS
 10
256.619164818
 20
160.886367492
 40
2.031250000
 50
18.510237406
 51
78.000000000
  0
LINE
  8
1
 62
7
  6
CONTINUOUS
 10
267.682748501
 20
149.207456334
 11
264.700192922
 21
135.175635557
  0
LINE
  8
1
 62
7
  6
CONTINUOUS
 10
264.107163277
 20
134.790517602
 11
251.391244467
 21
137.493369583
  0
LINE
  8
1
 62
7
  6
CONTINUOUS
 10
253.990399281
 20
152.126298753
 11
251.006126512
 21
138.086399229
  0
ARC
  8
1
 62
7
  6
CONTINUOUS
 10
263.044777010
 20
161.055656428
 40
10.625000000
 50
232.942384582
 51
283.057615418
  0
ARC
  8
1
 62
7
  6
CONTINUOUS
 10
268.846009827
 20
158.287471357
 40
2.031250000
 50
78.000000000
 51
137.489762594
  0
LINE
  8
1
 62
7
  6
CONTINUOUS
 10
267.682748501
 20
149.207456334
 11
253.988760206
 21
152.118203402
  0
ARC
  8
1
 62
7
  6
CONTINUOUS
 10
267.238063232
 20
151.204507945
 40
1.860955976
 50
195.557708232
 51
307.106605351
  0
LINE
  8
1
 62
7
  6
CONTINUOUS
 10
290.844928993
 20
151.828168161
 11
293.515616923
 21
139.263569311
  0
LINE
  8
1
 62
7
  6
CONTINUOUS
 10
293.130498968
 20
138.670539666
 11
282.370875360
 21
136.383511067
  0
LINE
  8
1
 62
7
  6
CONTINUOUS
 10
279.105440594
 20
149.341306618
 11
281.777845714
 21
136.768629022
  0
LINE
  8
1
 62
7
  6
CONTINUOUS
 10
290.844928993
 20
151.828168161
 11
279.107235900
 21
149.333244475
  0
ARC
  8
1
 62
7
  6
CONTINUOUS
 10
260.945846230
 20
151.180963481
 40
10.625000000
 50
52.942384582
 51
103.057615418
  0
LINE
  8
1
 62
7
  6
CONTINUOUS
 10
276.543428235
 20
160.192193517
 11
275.039581624
 21
158.850200457
  0
LINE
  8
1
 62
7
  6
CONTINUOUS
 10
252.931716287
 20
135.121251000
 11
253.347539668
 21
137.077546201
  0
LINE
  8
1
 62
7
  6
CONTINUOUS
 10
251.006126512
 20
138.086399229
 11
251.391244467
 21
137.493369583
  0
LINE
  8
1
 62
7
  6
CONTINUOUS
 10
264.107163277
 20
134.790517602
 11
264.700192922
 21
135.175635557
  0
LINE
  8
1
 62
7
  6
CONTINUOUS
 10
264.700192922
 20
135.175635557
 11
251.006126512
 21
138.086399229
  0
LINE
  8
1
 62
7
  6
CONTINUOUS
 10
288.770273244
 20
162.791089652
 11
290.689943236
 21
162.176787510
  0
LINE
  8
1
 62
7
  6
CONTINUOUS
 10
275.039581624
 20
158.850200457
 11
276.905837181
 21
150.070158373
  0
LINE
  8
1
 62
7
  6
CONTINUOUS
 10
283.764846342
 20
134.635127556
 11
283.349022961
 21
136.591422757
  0
LINE
  8
1
 62
7
  6
CONTINUOUS
 10
281.777845714
 20
136.768629022
 11
282.370875360
 21
136.383511067
  0
LINE
  8
1
 62
7
  6
CONTINUOUS
 10
293.130498968
 20
138.670539666
 11
293.515616923
 21
139.263569311
  0
LINE
  8
1
 62
7
  6
CONTINUOUS
 10
293.515616923
 20
139.263569311
 11
281.777845714
 21
136.768629022
  0
LINE
  8
1
 62
7
  6
CONTINUOUS
 10
280.366467494
 20
150.623243008
 11
278.463098227
 21
159.577891375
  0
LINE
  8
1
 62
7
  6
CONTINUOUS
 10
290.689943236
 20
162.176787510
 11
292.561148453
 21
153.373459103
  0
ARC
  8
1
 62
7
  6
CONTINUOUS
 10
276.965748856
 20
158.205331203
 40
2.031250000
 50
42.510237406
 51
102.000000000
  0
ARC
  8
1
 62
7
  6
CONTINUOUS
 10
282.766981674
 20
160.973516273
 40
10.625000000
 50
256.942384582
 51
307.057615418
  0
ARC
  8
1
 62
7
  6
CONTINUOUS
 10
290.667145271
 20
153.867008397
 40
2.031250000
 50
222.510237406
 51
275.560735571
  0
ARC
  8
1
 62
7
  6
CONTINUOUS
 10
284.865912454
 20
151.098823326
 40
10.625000000
 50
76.942384582
 51
127.057615418
  0
DIMENSION
  8
1
 62
4
  6
CONTINUOUS
  2
*D105
 70
0
 10
252.773221790
 20
146.399928882
 11
242.558936159
 21
148.571042315
 14
252.348647922
 24
144.402465878
 13
266.093844511
 23
141.732250784
 50
348.000000000
  0
ARC
  8
1
 62
7
  6
CONTINUOUS
 10
104.082933737
 20
189.130434783
 40
15.905999916
 50
344.321860013
 51
15.678139987
  0
ARC
  8
1
 62
7
  6
CONTINUOUS
 10
131.511365518
 20
189.130434783
 40
15.905999916
 50
164.321860013
 51
195.678139987
  0
LINE
  8
2
 62
1
  6
CONTINUOUS
 10
98.197149628
 20
196.030434783
 11
97.997149628
 21
196.030434783
  0
LINE
  8
2
 62
7
  6
CONTINUOUS
 10
98.197149628
 20
196.330434783
 11
97.997149628
 21
196.330434783
  0
LINE
  8
2
 62
7
  6
CONTINUOUS
 10
98.197149628
 20
181.930434783
 11
97.997149628
 21
181.930434783
  0
LINE
  8
2
 62
1
  6
CONTINUOUS
 10
98.197149628
 20
182.230434783
 11
97.997149628
 21
182.230434783
  0
LINE
  8
1
 62
7
  6
CONTINUOUS
 10
97.997149628
 20
198.505434783
 11
97.897149628
 21
198.605434783
  0
LINE
  8
1
 62
7
  6
CONTINUOUS
 10
189.097149628
 20
180.630434783
 11
189.097149628
 21
185.217021624
  0
LINE
  8
1
 62
7
  6
CONTINUOUS
 10
189.097149628
 20
180.630434783
 11
188.897149628
 21
180.630434783
  0
LINE
  8
1
 62
7
  6
CONTINUOUS
 10
196.697149628
 20
180.630434783
 11
196.697149628
 21
185.217021624
  0
LINE
  8
1
 62
7
  6
CONTINUOUS
 10
196.697149628
 20
185.217021624
 11
189.097149628
 21
185.217021624
  0
LINE
  8
1
 62
7
  6
CONTINUOUS
 10
95.797149628
 20
198.405434783
 11
95.997149628
 21
198.605434783
  0
LINE
  8
1
 62
7
  6
CONTINUOUS
 10
97.897149628
 20
198.605434783
 11
95.997149628
 21
198.605434783
  0
LINE
  8
1
 62
7
  6
CONTINUOUS
 10
268.767682350
 20
180.630434783
 11
277.026616906
 21
180.630434783
  0
LINE
  8
1
 62
7
  6
CONTINUOUS
 10
277.026616906
 20
197.630434783
 11
268.767682350
 21
197.630434783
  0
LINE
  8
1
 62
7
  6
CONTINUOUS
 10
188.897149628
 20
180.630434783
 11
188.897149628
 21
179.680434783
  0
LINE
  8
1
 62
7
  6
CONTINUOUS
 10
198.897149628
 20
180.630434783
 11
196.697149628
 21
180.630434783
  0
LINE
  8
1
 62
7
  6
CONTINUOUS
 10
188.897149628
 20
197.630434783
 11
188.897149628
 21
198.580434783
  0
LINE
  8
1
 62
7
  6
CONTINUOUS
 10
198.897149628
 20
180.630434783
 11
198.897149628
 21
197.630434783
  0
LINE
  8
1
 62
7
  6
CONTINUOUS
 10
188.897149628
 20
179.680434783
 11
186.897149628
 21
179.680434783
  0
LINE
  8
1
 62
7
  6
CONTINUOUS
 10
188.897149628
 20
198.580434783
 11
186.897149628
 21
198.580434783
  0
DIMENSION
  8
1
 62
4
  6
CONTINUOUS
  2
*D127
 70
0
 10
186.697149628
 20
214.655434783
 11
154.847149628
 21
214.655434783
 14
186.697149628
 24
198.555434783
 13
122.997149628
 23
198.655434783
 50
0.000000000
  0
LINE
  8
1
 62
7
  6
CONTINUOUS
 10
95.797149628
 20
179.855434783
 11
95.797149628
 21
198.405434783
  0
TEXT
  8
1
 62
3
  6
CONTINUOUS
 72
5
 10
120.211398320
 20
131.223500790
 40
4.000000000
  1
ＭＳＳ－１９３０ＲＡ
 41
0.834440244
 11
159.411398320
 21
131.223500790
  0
DIMENSION
  8
1
 62
4
  6
CONTINUOUS
  2
*D130
 70
1
 10
210.897149628
 20
179.680434783
 11
210.897149628
 21
189.130434783
 14
198.597149628
 24
179.680434783
 13
198.597149628
 23
198.580434783
 50
90.000000000
  0
DIMENSION
  8
1
 62
4
  6
CONTINUOUS
  2
*D131
 70
1
 10
132.447149628
 20
179.605434783
 11
132.447149628
 21
165.605434783
 14
132.447149628
 24
179.605434783
 13
132.447149628
 23
198.655434783
 50
90.000000000
  0
DIMENSION
  8
1
 62
4
  6
CONTINUOUS
  2
*D132
 70
1
 10
112.997149628
 20
179.605434783
 11
112.997149628
 21
165.605434783
 14
112.997149628
 24
179.605434783
 13
112.997149628
 23
198.655434783
 50
90.000000000
  0
LINE
  8
1
 62
7
  6
CONTINUOUS
 10
97.997149628
 20
198.505434783
 11
97.997149628
 21
179.755434783
  0
LINE
  8
1
 62
7
  6
CONTINUOUS
 10
97.897149628
 20
179.655434783
 11
95.997149628
 21
179.655434783
  0
DIMENSION
  8
1
 62
4
  6
CONTINUOUS
  2
*D135
 70
0
 10
186.697149628
 20
214.655434783
 11
192.022963954
 21
214.655434783
 14
186.697149628
 24
198.555434783
 13
198.897149628
 23
198.280434783
 50
0.000000000
  0
LINE
  8
1
 62
7
  6
CONTINUOUS
 10
95.797149628
 20
179.855434783
 11
95.997149628
 21
179.655434783
  0
DIMENSION
  8
1
 62
4
  6
CONTINUOUS
  2
*D137
 70
0
 10
198.897149628
 20
222.655434783
 11
140.011398320
 21
222.655434783
 14
198.897149628
 24
198.280434783
 13
81.125647012
 23
192.553084513
 50
0.000000000
  0
DIMENSION
  8
1
 62
4
  6
CONTINUOUS
  2
*D138
 70
0
 10
95.797149628
 20
214.655434783
 11
88.461398320
 21
214.655434783
 14
95.797149628
 24
198.405434783
 13
81.125647012
 23
192.553084513
 50
0.000000000
  0
DIMENSION
  8
1
 62
4
  6
CONTINUOUS
  2
*D139
 70
0
 10
122.997149628
 20
214.655434783
 11
109.397149628
 21
214.655434783
 14
122.997149628
 24
198.655434783
 13
95.797149628
 23
198.405434783
 50
0.000000000
  0
ARC
  8
1
 62
7
  6
CONTINUOUS
 10
129.782933737
 20
189.130434783
 40
15.905999916
 50
344.321860013
 51
15.678139987
  0
DIMENSION
  8
1
 62
4
  6
CONTINUOUS
  2
*D141
 70
1
 10
65.125647012
 20
183.230434783
 11
65.125647012
 21
189.130434783
 14
84.684492739
 24
183.230434783
 13
84.684492739
 23
195.030434783
 50
90.000000000
  0
ARC
  8
1
 62
7
  6
CONTINUOUS
 10
199.046971420
 20
152.913756766
 40
1.860955976
 50
207.557708232
 51
319.106605351
  0
LINE
  8
1
 62
7
  6
CONTINUOUS
 10
97.997149628
 20
179.755434783
 11
97.897149628
 21
179.655434783
  0
LINE
  8
1
 62
7
  6
CONTINUOUS
 10
199.897149626
 20
151.052800790
 11
185.897229487
 21
151.052800790
  0
ARC
  8
1
 62
7
  6
CONTINUOUS
 10
199.147149626
 20
160.176251329
 40
2.031250000
 50
90.000000000
 51
149.489762594
  0
LINE
  8
1
 62
4
  6
PHANTOM
 10
198.897149628
 20
197.630434783
 11
198.897149628
 21
198.280434783
  0
LINE
  8
1
 62
7
  6
CONTINUOUS
 10
197.686214907
 20
162.207501329
 11
197.777344940
 21
165.107306014
  0
LINE
  8
1
 62
7
  6
CONTINUOUS
 10
188.108084345
 20
162.207501329
 11
188.016954312
 21
165.107306014
  0
LINE
  8
2
 62
7
  6
CONTINUOUS
 10
188.647149626
 20
165.737501329
 11
197.147149626
 21
165.737501329
  0
ARC
  8
1
 62
7
  6
CONTINUOUS
 10
192.897149626
 20
161.677800790
 40
10.625000000
 50
244.942384582
 51
295.057615418
  0
LINE
  8
1
 62
7
  6
CONTINUOUS
 10
185.897149626
 20
151.061060021
 11
185.897149626
 21
136.707500790
  0
LINE
  8
1
 62
7
  6
CONTINUOUS
 10
95.697149628
 20
184.530434783
 11
95.697149628
 21
193.730434783
  0
LINE
  8
1
 62
7
  6
CONTINUOUS
 10
199.397149626
 20
136.207500790
 11
186.397149626
 21
136.207500790
  0
LINE
  8
1
 62
7
  6
CONTINUOUS
 10
199.897149626
 20
151.052800790
 11
199.897149626
 21
136.707500790
  0
LINE
  8
1
 62
7
  6
CONTINUOUS
 10
185.897149626
 20
136.707500790
 11
186.397149626
 21
136.207500790
  0
LINE
  8
1
 62
7
  6
CONTINUOUS
 10
199.397149626
 20
136.207500790
 11
199.897149626
 21
136.707500790
  0
LINE
  8
1
 62
7
  6
CONTINUOUS
 10
286.802281445
 20
165.421807984
 11
286.064587388
 21
165.900872106
  0
LINE
  8
1
 62
7
  6
CONTINUOUS
 10
277.750332782
 20
164.133622734
 11
277.264933720
 21
163.386173726
  0
LINE
  8
1
 62
7
  6
CONTINUOUS
 10
277.750332782
 20
164.133622734
 11
278.014372040
 21
164.189746011
  0
DIMENSION
  8
1
 62
4
  6
CONTINUOUS
  2
*D160
 70
5
 10
272.897149628
 20
119.150434245
 11
265.582247712
 21
119.533792010
 13
270.516560768
 23
177.930644754
 14
272.897149628
 24
177.680434783
 15
272.897149628
 25
189.130434783
  0
DIMENSION
  8
1
 62
4
  6
CONTINUOUS
  2
*D161
 70
0
 10
258.347489400
 20
120.679665156
 11
249.748117385
 21
122.507518103
 14
270.516560768
 24
177.930644754
 13
256.709645419
 23
131.251205589
 50
168.000000007
  0
LINE
  8
1
 62
7
  6
CONTINUOUS
 10
278.911606429
 20
169.492162042
 11
279.951164883
 21
164.601424038
  0
LINE
  8
1
 62
7
  6
CONTINUOUS
 10
276.710774328
 20
169.024360737
 11
285.025028934
 21
170.791610109
  0
LINE
  8
1
 62
7
  6
CONTINUOUS
 10
287.338977356
 20
162.486858319
 11
286.812036396
 21
165.415473044
  0
LINE
  8
1
 62
7
  6
CONTINUOUS
 10
277.974724122
 20
160.496424849
 11
277.264933720
 21
163.386173726
  0
LINE
  8
2
 62
7
  6
CONTINUOUS
 10
277.750332782
 20
164.133622734
 11
286.064587388
 21
165.900872106
  0
LINE
  8
1
 62
7
  6
CONTINUOUS
 10
277.264933720
 20
163.386173726
 11
286.812036396
 21
165.415473044
  0
LINE
  8
1
 62
1
  6
CONTINUOUS
 10
286.843246572
 20
162.381487488
 11
286.229249594
 21
165.793939219
  0
LINE
  8
1
 62
1
  6
CONTINUOUS
 10
278.470454907
 20
160.601795680
 11
277.643399895
 21
163.968960528
  0
LINE
  8
1
 62
7
  6
CONTINUOUS
 10
281.285313814
 20
184.778285706
 11
284.291418233
 21
170.635676341
  0
DIMENSION
  8
1
 62
4
  6
CONTINUOUS
  2
*D171
 70
5
 10
287.446809863
 20
120.679665157
 11
280.212051543
 21
119.533792010
 13
272.897149628
 23
177.680434783
 14
275.277738487
 24
177.930644754
 15
272.897149628
 25
189.130434783
  0
LINE
  8
1
 62
7
  6
CONTINUOUS
 10
93.097149628
 20
184.530434783
 11
93.097149628
 21
193.730434783
  0
LINE
  8
15
 62
7
  6
CONTINUOUS
 10
81.125647012
 20
187.630434783
 11
71.325647012
 21
187.630434783
  0
LINE
  8
1
 62
7
  6
CONTINUOUS
 10
285.025028934
 20
170.791610109
 11
286.064587388
 21
165.900872106
  0
LINE
  8
1
 62
7
  6
CONTINUOUS
 10
264.330508880
 20
185.141053088
 11
261.260341165
 21
170.697049613
  0
LINE
  8
1
 62
7
  6
CONTINUOUS
 10
269.085521971
 20
169.033756087
 11
260.771267364
 21
170.801005459
  0
LINE
  8
1
 62
7
  6
CONTINUOUS
 10
260.771267364
 20
170.801005459
 11
259.731708910
 21
165.910267455
  0
LINE
  8
1
 62
7
  6
CONTINUOUS
 10
269.085521971
 20
169.033756087
 11
268.045963517
 21
164.143018083
  0
LINE
  8
1
 62
7
  6
CONTINUOUS
 10
262.972099466
 20
170.333204154
 11
261.932541012
 21
165.442466151
  0
DIMENSION
  8
1
 62
4
  6
CONTINUOUS
  2
*D180
 70
0
 10
315.958184577
 20
140.455692245
 11
310.078028715
 21
168.119650565
 14
294.243307841
 24
135.840052709
 13
272.897149628
 23
189.130434783
 50
102.000000000
  0
LINE
  8
1
 62
7
  6
CONTINUOUS
 10
271.039301824
 20
180.630434783
 11
268.596448170
 21
169.137711932
  0
LINE
  8
1
 62
1
  6
CONTINUOUS
 10
258.966226015
 20
162.464113567
 11
259.567046704
 21
165.803334568
  0
DIMENSION
  8
1
 62
4
  6
CONTINUOUS
  2
*D183
 70
0
 10
229.541706465
 20
139.070610467
 11
235.569066434
 21
167.427109676
 14
251.256583195
 24
134.454970935
 13
272.897149628
 23
189.130434783
 50
78.000000007
  0
LINE
  8
1
 62
1
  6
CONTINUOUS
 10
267.343589875
 20
160.683449909
 11
268.152896403
 21
163.978355877
  0
LINE
  8
1
 62
7
  6
CONTINUOUS
 10
259.731708910
 20
165.910267455
 11
258.984259902
 21
165.424868394
  0
LINE
  8
1
 62
1
  6
CENTER
 10
288.790245618
 20
132.636287362
 11
277.946409209
 21
183.652526635
  0
LINE
  8
1
 62
7
  6
CONTINUOUS
 10
194.897149626
 20
170.737501329
 11
194.897149626
 21
165.737501329
  0
LINE
  8
2
 62
7
  6
CONTINUOUS
 10
188.016954312
 20
165.107306014
 11
197.777344940
 21
165.107306014
  0
ARC
  8
1
 62
7
  6
CONTINUOUS
 10
186.647149626
 20
160.176251329
 40
2.031250000
 50
30.510237406
 51
90.000000000
  0
LINE
  8
1
 62
7
  6
CONTINUOUS
 10
197.397149626
 20
152.052800790
 11
197.397149626
 21
161.207501329
  0
LINE
  8
1
 62
7
  6
CONTINUOUS
 10
198.897149626
 20
133.207500790
 11
198.897149626
 21
134.207500790
  0
LINE
  8
1
 62
7
  6
CONTINUOUS
 10
186.897149626
 20
134.207500790
 11
186.897149626
 21
133.207500790
  0
LINE
  8
1
 62
7
  6
CONTINUOUS
 10
199.147149626
 20
162.207501329
 11
200.897149626
 21
161.207501329
  0
LINE
  8
1
 62
7
  6
CONTINUOUS
 10
119.397149628
 20
193.428762946
 11
116.197149628
 21
193.428762946
  0
LINE
  8
1
 62
7
  6
CONTINUOUS
 10
95.597149628
 20
191.401998121
 11
95.597149628
 21
186.858871444
  0
ARC
  8
15
 62
7
  6
CONTINUOUS
 10
71.325647012
 20
190.430434783
 40
0.200000000
 50
90.000000000
 51
180.000000000
  0
LINE
  8
15
 62
7
  6
CONTINUOUS
 10
71.325647012
 20
190.630434783
 11
81.125647012
 21
190.630434783
  0
LINE
  8
1
 62
1
  6
CENTER
 10
270.516560768
 20
177.930644754
 11
272.897149628
 21
189.130434783
  0
LINE
  8
1
 62
7
  6
CONTINUOUS
 10
92.997149628
 20
193.830434783
 11
92.997149628
 21
184.430434783
  0
LINE
  8
15
 62
7
  6
CONTINUOUS
 10
71.125647012
 20
190.430434783
 11
71.125647012
 21
187.830434783
  0
LINE
  8
1
 62
7
  6
CONTINUOUS
 10
93.197149628
 20
191.401998121
 11
93.197149628
 21
186.858871444
  0
LINE
  8
1
 62
7
  6
CONTINUOUS
 10
186.897149626
 20
133.207500790
 11
198.897149626
 21
133.207500790
  0
ARC
  8
15
 62
7
  6
CONTINUOUS
 10
71.325647012
 20
187.830434783
 40
0.200000000
 50
180.000000000
 51
270.000000000
  0
LINE
  8
1
 62
7
  6
CONTINUOUS
 10
186.647149626
 20
162.207501329
 11
184.897149626
 21
161.207501329
  0
LINE
  8
1
 62
7
  6
CONTINUOUS
 10
84.975647012
 20
183.230434783
 11
84.975647012
 21
195.030434783
  0
LINE
  8
1
 62
7
  6
CONTINUOUS
 10
200.897149626
 20
161.207501329
 11
200.897149626
 21
152.207501329
  0
LINE
  8
1
 62
7
  6
CONTINUOUS
 10
197.397149626
 20
136.207500790
 11
197.397149626
 21
134.207500790
  0
LINE
  8
1
 62
7
  6
CONTINUOUS
 10
87.975647012
 20
186.995019132
 11
88.125647012
 21
187.145019132
  0
LINE
  8
1
 62
7
  6
CONTINUOUS
 10
88.125647012
 20
191.115850433
 11
87.975647012
 21
191.265850433
  0
LINE
  8
1
 62
7
  6
CONTINUOUS
 10
197.777344940
 20
165.107306014
 11
197.147149626
 21
165.737501329
  0
LINE
  8
1
 62
7
  6
CONTINUOUS
 10
85.275647012
 20
183.630434783
 11
85.275647012
 21
186.995019132
  0
LINE
  8
1
 62
7
  6
CONTINUOUS
 10
87.975647012
 20
183.630434783
 11
87.975647012
 21
186.995019132
  0
LINE
  8
1
 62
7
  6
CONTINUOUS
 10
188.647149626
 20
165.737501329
 11
188.016954312
 21
165.107306014
  0
LINE
  8
1
 62
1
  6
CONTINUOUS
 10
197.179409202
 20
162.207501329
 11
197.285980970
 21
165.598669984
  0
LINE
  8
1
 62
1
  6
CONTINUOUS
 10
188.614890050
 20
162.207501329
 11
188.508318281
 21
165.598669984
  0
LINE
  8
1
 62
7
  6
CONTINUOUS
 10
196.647149626
 20
185.217021624
 11
196.647149626
 21
170.737501329
  0
LINE
  8
1
 62
7
  6
CONTINUOUS
 10
85.275647012
 20
191.265850433
 11
87.975647012
 21
191.265850433
  0
LINE
  8
1
 62
7
  6
CONTINUOUS
 10
190.897149626
 20
170.737501329
 11
190.897149626
 21
165.737501329
  0
LINE
  8
1
 62
7
  6
CONTINUOUS
 10
85.275647012
 20
186.995019132
 11
87.975647012
 21
186.995019132
  0
LINE
  8
1
 62
7
  6
CONTINUOUS
 10
197.147149626
 20
170.737501329
 11
197.147149626
 21
165.737501329
  0
LINE
  8
1
 62
4
  6
CONTINUOUS
 10
85.125647012
 20
191.115850433
 11
88.125647012
 21
187.145019132
  0
LINE
  8
1
 62
7
  6
CONTINUOUS
 10
85.275647012
 20
191.265850433
 11
85.275647012
 21
194.630434783
  0
LINE
  8
1
 62
7
  6
CONTINUOUS
 10
188.647149626
 20
170.737501329
 11
188.647149626
 21
165.737501329
  0
LINE
  8
1
 62
7
  6
CONTINUOUS
 10
197.147149626
 20
170.737501329
 11
188.647149626
 21
170.737501329
  0
LINE
  8
1
 62
7
  6
CONTINUOUS
 10
87.975647012
 20
191.265850433
 11
87.975647012
 21
194.630434783
  0
LINE
  8
1
 62
7
  6
CONTINUOUS
 10
91.825647012
 20
195.030434783
 11
91.825647012
 21
183.230434783
  0
LINE
  8
1
 62
7
  6
CONTINUOUS
 10
81.125647012
 20
185.707785052
 11
81.125647012
 21
192.553084513
  0
LINE
  8
1
 62
7
  6
CONTINUOUS
 10
84.684492739
 20
195.030434783
 11
84.684492739
 21
183.230434783
  0
LINE
  8
1
 62
7
  6
CONTINUOUS
 10
88.125647012
 20
183.380434783
 11
88.275647012
 21
183.230434783
  0
LINE
  8
1
 62
7
  6
CONTINUOUS
 10
81.625647012
 20
192.919109917
 11
81.625647012
 21
185.341759648
  0
LINE
  8
1
 62
7
  6
CONTINUOUS
 10
189.147149626
 20
185.217021624
 11
189.147149626
 21
170.737501329
  0
LINE
  8
1
 62
7
  6
CONTINUOUS
 10
88.125647012
 20
194.880434783
 11
88.125647012
 21
183.380434783
  0
LINE
  8
1
 62
7
  6
CONTINUOUS
 10
198.897149626
 20
134.207500790
 11
186.897149626
 21
134.207500790
  0
LINE
  8
1
 62
7
  6
CONTINUOUS
 10
84.975647012
 20
183.230434783
 11
84.684492739
 21
183.230434783
  0
LINE
  8
1
 62
7
  6
CONTINUOUS
 10
184.897149626
 20
152.231307881
 11
185.897229487
 21
151.052800790
  0
ARC
  8
1
 62
7
  6
CONTINUOUS
 10
84.684492739
 20
184.230434783
 40
1.000000000
 50
240.000000000
 51
270.000000000
  0
LINE
  8
1
 62
7
  6
CONTINUOUS
 10
85.125647012
 20
183.380434783
 11
85.125647012
 21
194.880434783
  0
LINE
  8
1
 62
7
  6
CONTINUOUS
 10
200.897149626
 20
152.207501329
 11
199.897149626
 21
151.052800790
  0
LINE
  8
1
 62
7
  6
CONTINUOUS
 10
81.625647012
 20
184.841759648
 11
84.184492739
 21
183.364409379
  0
ARC
  8
1
 62
7
  6
CONTINUOUS
 10
186.753798223
 20
152.903102707
 40
1.850301917
 50
220.317900462
 51
332.642077288
  0
LINE
  8
1
 62
7
  6
CONTINUOUS
 10
188.397149626
 20
152.052800790
 11
188.397149626
 21
161.207501329
  0
LINE
  8
1
 62
7
  6
CONTINUOUS
 10
91.825647012
 20
195.030434783
 11
88.275647012
 21
195.030434783
  0
LINE
  8
1
 62
7
  6
CONTINUOUS
 10
199.897149626
 20
136.707500790
 11
185.897149626
 21
136.707500790
  0
LINE
  8
1
 62
7
  6
CONTINUOUS
 10
268.531362578
 20
163.395569075
 11
268.045963517
 21
164.143018083
  0
LINE
  8
2
 62
7
  6
CONTINUOUS
 10
258.984259902
 20
165.424868394
 11
268.531362578
 21
163.395569075
  0
LINE
  8
1
 62
7
  6
CONTINUOUS
 10
92.625647012
 20
194.230434783
 11
92.625647012
 21
184.030434783
  0
LINE
  8
1
 62
1
  6
CENTER
 10
284.347149628
 20
189.130434783
 11
261.447149628
 21
189.130434783
  0
LINE
  8
1
 62
7
  6
CONTINUOUS
 10
85.125647012
 20
194.630434783
 11
88.125647012
 21
194.630434783
  0
LINE
  8
1
 62
7
  6
CONTINUOUS
 10
84.975647012
 20
195.030434783
 11
85.125647012
 21
194.880434783
  0
ARC
  8
1
 62
7
  6
CONTINUOUS
 10
91.825647012
 20
184.030434783
 40
0.800000000
 50
270.000000000
 51
0.000000000
  0
ARC
  8
1
 62
7
  6
CONTINUOUS
 10
82.125647012
 20
185.707785052
 40
1.000000000
 50
180.000000000
 51
240.000000000
  0
ARC
  8
1
 62
7
  6
CONTINUOUS
 10
82.125647012
 20
192.553084513
 40
1.000000000
 50
120.000000000
 51
180.000000000
  0
LINE
  8
1
 62
7
  6
CONTINUOUS
 10
186.647149626
 20
162.207501329
 11
199.147149626
 21
162.207501329
  0
LINE
  8
1
 62
1
  6
CENTER
 10
272.897149628
 20
200.580434783
 11
272.897149628
 21
177.680434783
  0
ARC
  8
1
 62
7
  6
CONTINUOUS
 10
91.825647012
 20
194.230434783
 40
0.800000000
 50
0.000000000
 51
90.000000000
  0
LINE
  8
1
 62
7
  6
CONTINUOUS
 10
84.975647012
 20
183.230434783
 11
85.125647012
 21
183.380434783
  0
ARC
  8
1
 62
7
  6
CONTINUOUS
 10
272.897149628
 20
189.130434783
 40
9.450000000
 50
295.911393746
 51
244.088606254
  0
LINE
  8
1
 62
7
  6
CONTINUOUS
 10
184.897149626
 20
161.207501329
 11
184.897149626
 21
152.231307881
  0
LINE
  8
1
 62
4
  6
CONTINUOUS
 10
119.397149628
 20
193.428762946
 11
116.197149628
 21
184.832106619
  0
LINE
  8
1
 62
7
  6
CONTINUOUS
 10
266.884689869
 20
169.501557391
 11
265.845131415
 21
164.610819387
  0
LINE
  8
1
 62
7
  6
CONTINUOUS
 10
93.197149628
 20
186.858871444
 11
95.597149628
 21
186.858871444
  0
LINE
  8
2
 62
7
  6
CONTINUOUS
 10
259.731708910
 20
165.910267455
 11
268.045963517
 21
164.143018083
  0
LINE
  8
1
 62
1
  6
CENTER
 10
256.709645419
 20
131.251205589
 11
267.847890046
 21
183.652526635
  0
ARC
  8
1
 62
7
  6
CONTINUOUS
 10
272.897149628
 20
189.130434783
 40
9.450000000
 50
257.696846312
 51
283.819219294
  0
LINE
  8
1
 62
7
  6
CONTINUOUS
 10
85.275647012
 20
191.265850433
 11
85.125647012
 21
191.115850433
  0
LINE
  8
1
 62
1
  6
CENTER
 10
275.277738487
 20
177.930644754
 11
272.897149628
 21
189.130434783
  0
LINE
  8
1
 62
7
  6
CONTINUOUS
 10
81.625647012
 20
193.419109917
 11
84.184492739
 21
194.896460186
  0
LINE
  8
1
 62
7
  6
CONTINUOUS
 10
85.125647012
 20
183.630434783
 11
88.125647012
 21
183.630434783
  0
LINE
  8
1
 62
7
  6
CONTINUOUS
 10
93.197149628
 20
191.401998121
 11
95.597149628
 21
191.401998121
  0
LINE
  8
1
 62
7
  6
CONTINUOUS
 10
91.825647012
 20
183.230434783
 11
88.275647012
 21
183.230434783
  0
ARC
  8
1
 62
7
  6
CONTINUOUS
 10
84.684492739
 20
194.030434783
 40
1.000000000
 50
90.000000000
 51
120.000000000
  0
LINE
  8
1
 62
7
  6
CONTINUOUS
 10
188.397149626
 20
134.207500790
 11
188.397149626
 21
136.207500790
  0
LINE
  8
1
 62
7
  6
CONTINUOUS
 10
84.975647012
 20
195.030434783
 11
84.684492739
 21
195.030434783
  0
LINE
  8
1
 62
7
  6
CONTINUOUS
 10
85.125647012
 20
187.145019132
 11
85.275647012
 21
186.995019132
  0
LINE
  8
1
 62
7
  6
CONTINUOUS
 10
88.125647012
 20
194.880434783
 11
88.275647012
 21
195.030434783
  0
LINE
  8
1
 62
4
  6
CONTINUOUS
 10
88.125647012
 20
191.115850433
 11
85.125647012
 21
187.145019132
  0
ARC
  8
1
 62
7
  6
CONTINUOUS
 10
192.897149626
 20
151.582501329
 40
10.625000000
 50
64.942384582
 51
115.057615418
  0
LINE
  8
1
 62
7
  6
CONTINUOUS
 10
258.470495231
 20
162.569484398
 11
258.984259902
 21
165.424868394
  0
LINE
  8
1
 62
7
  6
CONTINUOUS
 10
276.710774328
 20
169.024360737
 11
277.750332782
 21
164.133622734
  0
LINE
  8
1
 62
1
  6
CENTER
 10
192.897149628
 20
187.217021624
 11
192.897149628
 21
131.207500790
  0
LINE
  8
1
 62
7
  6
CONTINUOUS
 10
267.839320659
 20
160.578079078
 11
268.531362578
 21
163.395569075
  0
LINE
  8
1
 62
7
  6
CONTINUOUS
 10
275.010582580
 20
180.630434783
 11
277.444385028
 21
169.180294505
  0
LINE
  8
1
 62
7
  6
CONTINUOUS
 10
84.184492739
 20
194.396460186
 11
84.184492739
 21
183.864409379
  0
LINE
  8
1
 62
7
  6
CONTINUOUS
 10
282.824196832
 20
170.323808805
 11
283.863755286
 21
165.433070801
  0
ARC
  8
1
 62
7
  6
CONTINUOUS
 10
157.211365518
 20
189.130434783
 40
15.905999916
 50
164.321860013
 51
195.678139987
  0
ENDSEC
  0
EOF
