  0
SECTION
  2
HEADER
  9
$ACADVER
  1
AC1009
  9
$INSBASE
 10
0.000000000
 20
0.000000000
  9
$EXTMIN
 10
-29.399728550
 20
-19.681562157
  9
$EXTMAX
 10
323.397014047
 20
216.497183732
  9
$LIMMIN
 10
-29.399728550
 20
-19.681562157
  9
$LIMMAX
 10
323.397014047
 20
216.497183732
  9
$SNAPBASE
 10
0.000000000
 20
0.000000000
  9
$SNAPANG
 50
0.000000000
  9
$SNAPSTYLE
 70
0
  9
$GRIDMODE
 70
0
  9
$GRIDUNIT
 10
0.000000000
 20
0.000000000
  9
$DIMEXO
 40
0.000000000
  9
$DIMDLI
 40
8.000000000
  9
$DIMDLE
 40
0.000000000
  9
$DIMEXE
 40
1.000000000
  9
$DIMTIH
 70
1
  9
$DIMTOH
 70
1
  9
$DIMTAD
 70
2
  9
$DIMZIN
 70
0
  9
$FILLETRAD
 40
1.000000000
  9
$CHAMFERA
 40
1.000000000
  9
$CHAMFERB
 40
1.000000000
  9
$TDCREATE
 40
2454152.721076389
  9
$TDUPDATE
 40
2454152.721076389
  9
$ANGBASE
 50
0.000000000
  9
$ANGDIR
 70
0
  0
ENDSEC
  0
SECTION
  2
TABLES
  0
TABLE
  2
LTYPE
 70
3
  0
LTYPE
  2
CENTER
 70
64
  3
___ _ ___ _ __
 72
65
 73
4
 40
13.000000000
 49
8.500000000
 49
-1.500000000
 49
1.500000000
 49
-1.500000000
  0
LTYPE
  2
CONTINUOUS
 70
64
  3
______________
 72
65
 73
0
 40
0.000000000
  0
LTYPE
  2
DIVIDE
 70
64
  3
___ . . ___ . 
 72
65
 73
6
 40
12.999999523
 49
5.199999809
 49
-2.599999905
 49
0.000000000
 49
-2.599999905
 49
0.000000000
 49
-2.599999905
  0
ENDTAB
  0
TABLE
  2
LAYER
 70
7
  0
LAYER
  2
1
 70
0
 62
7
  6
CONTINUOUS
  0
LAYER
  2
2
 70
0
 62
7
  6
CONTINUOUS
  0
LAYER
  2
5
 70
0
 62
7
  6
CONTINUOUS
999
Comment
  0
LAYER
  2
15
 70
0
 62
5
  6
CONTINUOUS
999
ﾁｬｯｸ
  0
LAYER
  2
17
 70
0
 62
3
  6
CONTINUOUS
999
226
  0
LAYER
  2
30
 70
0
 62
7
  6
CONTINUOUS
999
111
  0
LAYER
  2
31
 70
0
 62
7
  6
CONTINUOUS
999
m006
  0
LAYER
  2
_CONSTR
 70
0
 62
5
  6
CONTINUOUS
  0
ENDTAB
  0
TABLE
  2
STYLE
 70
1
  0
STYLE
  2
STANDARD
 70
64
 40
0.000000000
 41
1.000000000
 50
0.000000000
 71
0
 42
3.200000000
  3
TXT
  4
EXTFONT
  0
ENDTAB
  0
TABLE
  2
VIEW
 70
0
  0
ENDTAB
  0
ENDSEC
  0
SECTION
  2
BLOCKS
  0
BLOCK
  8
0
  2
*D78
 70
65
 10
0.000000000
 20
0.000000000
  3
*D
  0
TEXT
  8
1
 62
4
  6
CONTINUOUS
 72
5
 10
110.320782882
 20
172.940863768
 40
2.800000000
  1
φ
 41
1.270648030
 50
90.000000000
 11
110.320782882
 21
176.300863768
  0
TEXT
  8
1
 62
4
  6
CONTINUOUS
 72
5
 10
110.320782882
 20
177.980863768
 40
2.800000000
  1
11.8
 41
1.414284098
 50
90.000000000
 11
110.320782882
 21
187.220863768
  0
LINE
  8
1
 62
4
  6
CONTINUOUS
 10
132.084628609
 20
185.972463768
 11
110.525782882
 21
185.972463768
  0
POLYLINE
  8
1
 62
4
  6
CONTINUOUS
 66
1
  0
VERTEX
  8
1
 10
112.825782882
 20
183.972463768
  0
VERTEX
  8
1
 10
112.525782882
 20
185.972463768
  0
VERTEX
  8
1
 10
112.225782882
 20
183.972463768
  0
SEQEND
  8
1
  0
LINE
  8
1
 62
4
  6
CONTINUOUS
 10
112.525782882
 20
185.972463768
 11
112.525782882
 21
174.172463768
  0
POLYLINE
  8
1
 62
4
  6
CONTINUOUS
 66
1
  0
VERTEX
  8
1
 10
112.225782882
 20
176.172463768
  0
VERTEX
  8
1
 10
112.525782882
 20
174.172463768
  0
VERTEX
  8
1
 10
112.825782882
 20
176.172463768
  0
SEQEND
  8
1
  0
LINE
  8
1
 62
4
  6
CONTINUOUS
 10
132.084628609
 20
174.172463768
 11
110.525782882
 21
174.172463768
  0
ENDBLK
  8
0
  0
BLOCK
  8
0
  2
*D122
 70
65
 10
0.000000000
 20
0.000000000
  3
*D
  0
TEXT
  8
1
 62
4
  6
CONTINUOUS
 72
5
 10
158.192285497
 20
172.109263768
 40
2.800000000
  1
φ
 41
1.270648030
 50
90.000000000
 11
158.192285497
 21
175.469263768
  0
TEXT
  8
1
 62
4
  6
CONTINUOUS
 72
5
 10
158.192285497
 20
177.149263768
 40
2.800000000
  1
20
 41
1.000000667
 50
90.000000000
 11
158.192285497
 21
181.349263768
  0
TEXT
  8
1
 62
4
  6
CONTINUOUS
 72
5
 10
156.428285497
 20
182.189263768
 40
1.400000000
  1
 0
 41
2.333335926
 50
90.000000000
 11
156.428285497
 21
185.129263768
  0
TEXT
  8
1
 62
4
  6
CONTINUOUS
 72
5
 10
158.570285497
 20
182.189263768
 40
1.400000000
  1
-0.01
 41
1.710000684
 50
90.000000000
 11
158.570285497
 21
190.169263768
  0
POLYLINE
  8
1
 62
4
  6
CONTINUOUS
 66
1
  0
VERTEX
  8
1
 10
160.697285497
 20
188.072463768
  0
VERTEX
  8
1
 10
160.397285497
 20
190.072463768
  0
VERTEX
  8
1
 10
160.097285497
 20
188.072463768
  0
SEQEND
  8
1
  0
LINE
  8
1
 62
4
  6
CONTINUOUS
 10
160.397285497
 20
190.072463768
 11
160.397285497
 21
170.072463768
  0
POLYLINE
  8
1
 62
4
  6
CONTINUOUS
 66
1
  0
VERTEX
  8
1
 10
160.097285497
 20
172.072463768
  0
VERTEX
  8
1
 10
160.397285497
 20
170.072463768
  0
VERTEX
  8
1
 10
160.697285497
 20
172.072463768
  0
SEQEND
  8
1
  0
ENDBLK
  8
0
  0
BLOCK
  8
0
  2
*D123
 70
65
 10
0.000000000
 20
0.000000000
  3
*D
  0
TEXT
  8
1
 62
4
  6
CONTINUOUS
 72
5
 10
185.592285497
 20
172.109263768
 40
2.800000000
  1
φ
 41
1.270648030
 50
90.000000000
 11
185.592285497
 21
175.469263768
  0
TEXT
  8
1
 62
4
  6
CONTINUOUS
 72
5
 10
185.592285497
 20
177.149263768
 40
2.800000000
  1
20
 41
1.000000667
 50
90.000000000
 11
185.592285497
 21
181.349263768
  0
TEXT
  8
1
 62
4
  6
CONTINUOUS
 72
5
 10
183.828285497
 20
182.189263768
 40
1.400000000
  1
-0.01
 41
1.710000684
 50
90.000000000
 11
183.828285497
 21
190.169263768
  0
TEXT
  8
1
 62
4
  6
CONTINUOUS
 72
5
 10
185.970285497
 20
182.189263768
 40
1.400000000
  1
-0.02
 41
1.554544889
 50
90.000000000
 11
185.970285497
 21
190.169263768
  0
POLYLINE
  8
1
 62
4
  6
CONTINUOUS
 66
1
  0
VERTEX
  8
1
 10
188.097285497
 20
188.072463768
  0
VERTEX
  8
1
 10
187.797285497
 20
190.072463768
  0
VERTEX
  8
1
 10
187.497285497
 20
188.072463768
  0
SEQEND
  8
1
  0
LINE
  8
1
 62
4
  6
CONTINUOUS
 10
187.797285497
 20
190.072463768
 11
187.797285497
 21
170.072463768
  0
POLYLINE
  8
1
 62
4
  6
CONTINUOUS
 66
1
  0
VERTEX
  8
1
 10
187.497285497
 20
172.072463768
  0
VERTEX
  8
1
 10
187.797285497
 20
170.072463768
  0
VERTEX
  8
1
 10
188.097285497
 20
172.072463768
  0
SEQEND
  8
1
  0
ENDBLK
  8
0
  0
BLOCK
  8
0
  2
*D125
 70
65
 10
0.000000000
 20
0.000000000
  3
*D
  0
TEXT
  8
1
 62
4
  6
CONTINUOUS
 72
5
 10
255.385685497
 20
152.277463768
 40
2.800000000
  1
(
 41
1.800001800
 11
257.065685497
 21
152.277463768
  0
TEXT
  8
1
 62
4
  6
CONTINUOUS
 72
5
 10
257.905685497
 20
152.277463768
 40
2.800000000
  1
20
 41
1.000000667
 11
262.105685497
 21
152.277463768
  0
TEXT
  8
1
 62
4
  6
CONTINUOUS
 72
5
 10
262.945685497
 20
152.277463768
 40
2.800000000
  1
)
 41
1.800001800
 11
264.625685497
 21
152.277463768
  0
POLYLINE
  8
1
 62
4
  6
CONTINUOUS
 66
1
  0
VERTEX
  8
1
 10
251.997285497
 20
150.372463768
  0
VERTEX
  8
1
 10
249.997285497
 20
150.072463768
  0
VERTEX
  8
1
 10
251.997285497
 20
149.772463768
  0
SEQEND
  8
1
  0
LINE
  8
1
 62
4
  6
CONTINUOUS
 10
249.997285497
 20
150.072463768
 11
269.997285497
 21
150.072463768
  0
POLYLINE
  8
1
 62
4
  6
CONTINUOUS
 66
1
  0
VERTEX
  8
1
 10
267.997285497
 20
149.772463768
  0
VERTEX
  8
1
 10
269.997285497
 20
150.072463768
  0
VERTEX
  8
1
 10
267.997285497
 20
150.372463768
  0
SEQEND
  8
1
  0
LINE
  8
1
 62
4
  6
CONTINUOUS
 10
269.997285497
 20
171.097463768
 11
269.997285497
 21
148.072463768
  0
ENDBLK
  8
0
  0
BLOCK
  8
0
  2
*D126
 70
65
 10
0.000000000
 20
0.000000000
  3
*D
  0
TEXT
  8
1
 62
4
  6
CONTINUOUS
 72
5
 10
205.585685497
 20
152.277463768
 40
2.800000000
  1
79.6
 41
1.099999267
 11
214.825685497
 21
152.277463768
  0
POLYLINE
  8
1
 62
4
  6
CONTINUOUS
 66
1
  0
VERTEX
  8
1
 10
172.397285497
 20
150.372463768
  0
VERTEX
  8
1
 10
170.397285497
 20
150.072463768
  0
VERTEX
  8
1
 10
172.397285497
 20
149.772463768
  0
SEQEND
  8
1
  0
LINE
  8
1
 62
4
  6
CONTINUOUS
 10
170.397285497
 20
150.072463768
 11
249.997285497
 21
150.072463768
  0
POLYLINE
  8
1
 62
4
  6
CONTINUOUS
 66
1
  0
VERTEX
  8
1
 10
247.997285497
 20
149.772463768
  0
VERTEX
  8
1
 10
249.997285497
 20
150.072463768
  0
VERTEX
  8
1
 10
247.997285497
 20
150.372463768
  0
SEQEND
  8
1
  0
LINE
  8
1
 62
4
  6
CONTINUOUS
 10
249.997285497
 20
170.372463768
 11
249.997285497
 21
148.072463768
  0
ENDBLK
  8
0
  0
BLOCK
  8
0
  2
*D127
 70
65
 10
0.000000000
 20
0.000000000
  3
*D
  0
TEXT
  8
1
 62
4
  6
CONTINUOUS
 72
5
 10
149.665685497
 20
152.277463768
 40
2.800000000
  1
(
 41
1.800001800
 11
151.345685497
 21
152.277463768
  0
TEXT
  8
1
 62
4
  6
CONTINUOUS
 72
5
 10
152.185685497
 20
152.277463768
 40
2.800000000
  1
27.2
 41
1.099999267
 11
161.425685497
 21
152.277463768
  0
TEXT
  8
1
 62
4
  6
CONTINUOUS
 72
5
 10
162.265685497
 20
152.277463768
 40
2.800000000
  1
)
 41
1.800001800
 11
163.945685497
 21
152.277463768
  0
POLYLINE
  8
1
 62
4
  6
CONTINUOUS
 66
1
  0
VERTEX
  8
1
 10
145.197285497
 20
150.372463768
  0
VERTEX
  8
1
 10
143.197285497
 20
150.072463768
  0
VERTEX
  8
1
 10
145.197285497
 20
149.772463768
  0
SEQEND
  8
1
  0
LINE
  8
1
 62
4
  6
CONTINUOUS
 10
143.197285497
 20
150.072463768
 11
170.397285497
 21
150.072463768
  0
POLYLINE
  8
1
 62
4
  6
CONTINUOUS
 66
1
  0
VERTEX
  8
1
 10
168.397285497
 20
149.772463768
  0
VERTEX
  8
1
 10
170.397285497
 20
150.072463768
  0
VERTEX
  8
1
 10
168.397285497
 20
150.372463768
  0
SEQEND
  8
1
  0
LINE
  8
1
 62
4
  6
CONTINUOUS
 10
170.397285497
 20
170.072463768
 11
170.397285497
 21
148.072463768
  0
ENDBLK
  8
0
  0
BLOCK
  8
0
  2
*D128
 70
65
 10
0.000000000
 20
0.000000000
  3
*D
  0
TEXT
  8
1
 62
4
  6
CONTINUOUS
 72
5
 10
128.729934190
 20
152.277463768
 40
2.800000000
  1
(
 41
1.800001800
 11
130.409934190
 21
152.277463768
  0
TEXT
  8
1
 62
4
  6
CONTINUOUS
 72
5
 10
131.249934190
 20
152.277463768
 40
2.800000000
  1
14.7
 41
1.237498917
 11
140.489934190
 21
152.277463768
  0
TEXT
  8
1
 62
4
  6
CONTINUOUS
 72
5
 10
141.329934190
 20
152.277463768
 40
2.800000000
  1
)
 41
1.800001800
 11
143.009934190
 21
152.277463768
  0
LINE
  8
1
 62
4
  6
CONTINUOUS
 10
128.525782882
 20
176.649814037
 11
128.525782882
 21
148.072463768
  0
POLYLINE
  8
1
 62
4
  6
CONTINUOUS
 66
1
  0
VERTEX
  8
1
 10
130.525782882
 20
150.372463768
  0
VERTEX
  8
1
 10
128.525782882
 20
150.072463768
  0
VERTEX
  8
1
 10
130.525782882
 20
149.772463768
  0
SEQEND
  8
1
  0
LINE
  8
1
 62
4
  6
CONTINUOUS
 10
128.525782882
 20
150.072463768
 11
143.197285497
 21
150.072463768
  0
POLYLINE
  8
1
 62
4
  6
CONTINUOUS
 66
1
  0
VERTEX
  8
1
 10
141.197285497
 20
149.772463768
  0
VERTEX
  8
1
 10
143.197285497
 20
150.072463768
  0
VERTEX
  8
1
 10
141.197285497
 20
150.372463768
  0
SEQEND
  8
1
  0
LINE
  8
1
 62
4
  6
CONTINUOUS
 10
143.197285497
 20
170.797463768
 11
143.197285497
 21
148.072463768
  0
ENDBLK
  8
0
  0
BLOCK
  8
0
  2
*D129
 70
65
 10
0.000000000
 20
0.000000000
  3
*D
  0
TEXT
  8
1
 62
4
  6
CONTINUOUS
 72
5
 10
190.869934190
 20
144.277463768
 40
2.800000000
  1
(
 41
1.800001800
 11
192.549934190
 21
144.277463768
  0
TEXT
  8
1
 62
4
  6
CONTINUOUS
 72
5
 10
193.389934190
 20
144.277463768
 40
2.800000000
  1
141.5
 41
1.259998992
 11
205.149934190
 21
144.277463768
  0
TEXT
  8
1
 62
4
  6
CONTINUOUS
 72
5
 10
205.989934190
 20
144.277463768
 40
2.800000000
  1
)
 41
1.800001800
 11
207.669934190
 21
144.277463768
  0
LINE
  8
1
 62
4
  6
CONTINUOUS
 10
128.525782882
 20
176.649814037
 11
128.525782882
 21
140.072463768
  0
POLYLINE
  8
1
 62
4
  6
CONTINUOUS
 66
1
  0
VERTEX
  8
1
 10
130.525782882
 20
142.372463768
  0
VERTEX
  8
1
 10
128.525782882
 20
142.072463768
  0
VERTEX
  8
1
 10
130.525782882
 20
141.772463768
  0
SEQEND
  8
1
  0
LINE
  8
1
 62
4
  6
CONTINUOUS
 10
128.525782882
 20
142.072463768
 11
269.997285497
 21
142.072463768
  0
POLYLINE
  8
1
 62
4
  6
CONTINUOUS
 66
1
  0
VERTEX
  8
1
 10
267.997285497
 20
141.772463768
  0
VERTEX
  8
1
 10
269.997285497
 20
142.072463768
  0
VERTEX
  8
1
 10
267.997285497
 20
142.372463768
  0
SEQEND
  8
1
  0
LINE
  8
1
 62
4
  6
CONTINUOUS
 10
269.997285497
 20
171.097463768
 11
269.997285497
 21
140.072463768
  0
ENDBLK
  8
0
  0
BLOCK
  8
0
  2
*D130
 70
65
 10
0.000000000
 20
0.000000000
  3
*D
  0
TEXT
  8
1
 62
4
  6
CONTINUOUS
 72
5
 10
291.792285497
 20
172.940863768
 40
2.800000000
  1
φ
 41
1.270648030
 50
90.000000000
 11
291.792285497
 21
176.300863768
  0
TEXT
  8
1
 62
4
  6
CONTINUOUS
 72
5
 10
291.792285497
 20
177.980863768
 40
2.800000000
  1
18.8
 41
1.237498917
 50
90.000000000
 11
291.792285497
 21
187.220863768
  0
LINE
  8
1
 62
4
  6
CONTINUOUS
 10
269.497285497
 20
189.472463768
 11
295.997285497
 21
189.472463768
  0
POLYLINE
  8
1
 62
4
  6
CONTINUOUS
 66
1
  0
VERTEX
  8
1
 10
294.297285497
 20
187.472463768
  0
VERTEX
  8
1
 10
293.997285497
 20
189.472463768
  0
VERTEX
  8
1
 10
293.697285497
 20
187.472463768
  0
SEQEND
  8
1
  0
LINE
  8
1
 62
4
  6
CONTINUOUS
 10
293.997285497
 20
189.472463768
 11
293.997285497
 21
170.672463768
  0
POLYLINE
  8
1
 62
4
  6
CONTINUOUS
 66
1
  0
VERTEX
  8
1
 10
293.697285497
 20
172.672463768
  0
VERTEX
  8
1
 10
293.997285497
 20
170.672463768
  0
VERTEX
  8
1
 10
294.297285497
 20
172.672463768
  0
SEQEND
  8
1
  0
LINE
  8
1
 62
4
  6
CONTINUOUS
 10
269.497285497
 20
170.672463768
 11
295.997285497
 21
170.672463768
  0
ENDBLK
  8
0
  0
ENDSEC
  0
SECTION
  2
ENTITIES
  0
LINE
  8
1
 62
7
  6
CONTINUOUS
 10
143.097285497
 20
175.472463768
 11
143.197285497
 21
175.372463768
  0
LINE
  8
5
 62
7
  6
CONTINUOUS
 10
170.397285497
 20
190.072463768
 11
170.397285497
 21
170.072463768
  0
LINE
  8
1
 62
4
  6
CONTINUOUS
 10
205.197285497
 20
184.431362712
 11
208.397285497
 21
175.713564825
  0
LINE
  8
5
 62
7
  6
CONTINUOUS
 10
249.997285497
 20
189.772463768
 11
249.997285497
 21
170.372463768
  0
LINE
  8
5
 62
7
  6
CONTINUOUS
 10
249.697285497
 20
190.072463768
 11
249.997285497
 21
189.772463768
  0
LINE
  8
5
 62
7
  6
CONTINUOUS
 10
170.397285497
 20
170.072463768
 11
249.697285497
 21
170.072463768
  0
LINE
  8
5
 62
7
  6
CONTINUOUS
 10
170.397285497
 20
190.072463768
 11
249.697285497
 21
190.072463768
  0
LINE
  8
1
 62
4
  6
CONTINUOUS
 10
208.397285497
 20
184.431362712
 11
205.197285497
 21
175.713564825
  0
LINE
  8
5
 62
7
  6
CONTINUOUS
 10
249.997285497
 20
170.372463768
 11
249.697285497
 21
170.072463768
  0
LINE
  8
1
 62
7
  6
CONTINUOUS
 10
140.497285497
 20
184.672463768
 11
143.097285497
 21
184.672463768
  0
LINE
  8
1
 62
7
  6
CONTINUOUS
 10
140.397285497
 20
184.772463768
 11
140.497285497
 21
184.672463768
  0
LINE
  8
1
 62
7
  6
CONTINUOUS
 10
140.025782882
 20
184.772463768
 11
140.397285497
 21
184.772463768
  0
LINE
  8
1
 62
7
  6
CONTINUOUS
 10
132.375782882
 20
174.172463768
 11
132.525782882
 21
174.322463768
  0
LINE
  8
1
 62
7
  6
CONTINUOUS
 10
132.675782882
 20
182.207879419
 11
132.525782882
 21
182.057879419
  0
LINE
  8
17
 62
1
  6
CENTER
 10
116.525782882
 20
180.072463768
 11
271.997285497
 21
180.072463768
  0
LINE
  8
1
 62
7
  6
CONTINUOUS
 10
129.025782882
 20
184.361138903
 11
131.584628609
 21
185.838489172
  0
LINE
  8
1
 62
7
  6
CONTINUOUS
 10
140.397285497
 20
175.372463768
 11
140.497285497
 21
175.472463768
  0
LINE
  8
1
 62
7
  6
CONTINUOUS
 10
140.497285497
 20
175.472463768
 11
143.097285497
 21
175.472463768
  0
LINE
  8
1
 62
7
  6
CONTINUOUS
 10
132.525782882
 20
174.572463768
 11
135.525782882
 21
174.572463768
  0
LINE
  8
1
 62
7
  6
CONTINUOUS
 10
143.097285497
 20
184.672463768
 11
143.197285497
 21
184.772463768
  0
LINE
  8
1
 62
7
  6
CONTINUOUS
 10
143.097285497
 20
184.672463768
 11
143.097285497
 21
175.472463768
  0
LINE
  8
1
 62
7
  6
CONTINUOUS
 10
140.497285497
 20
184.672463768
 11
140.497285497
 21
175.472463768
  0
ARC
  8
1
 62
7
  6
CONTINUOUS
 10
139.225782882
 20
174.972463768
 40
0.800000000
 50
270.000000000
 51
0.000000000
  0
LINE
  8
1
 62
7
  6
CONTINUOUS
 10
140.397285497
 20
184.772463768
 11
140.397285497
 21
175.372463768
  0
ARC
  8
1
 62
7
  6
CONTINUOUS
 10
129.525782882
 20
183.495113499
 40
1.000000000
 50
120.000000000
 51
180.000000000
  0
LINE
  8
1
 62
7
  6
CONTINUOUS
 10
140.025782882
 20
175.372463768
 11
140.397285497
 21
175.372463768
  0
LINE
  8
30
 62
7
  6
CONTINUOUS
 10
145.797285497
 20
170.072463768
 11
170.397285497
 21
170.072463768
  0
LINE
  8
1
 62
4
  6
CONTINUOUS
 10
140.597285497
 20
182.344027106
 11
142.997285497
 21
177.800900430
  0
LINE
  8
1
 62
4
  6
CONTINUOUS
 10
163.597285497
 20
184.431362712
 11
166.797285497
 21
175.713564825
  0
LINE
  8
1
 62
4
  6
CONTINUOUS
 10
166.797285497
 20
184.431362712
 11
163.597285497
 21
175.713564825
  0
LINE
  8
30
 62
7
  6
CONTINUOUS
 10
145.597285497
 20
170.272463768
 11
145.797285497
 21
170.072463768
  0
LINE
  8
30
 62
7
  6
CONTINUOUS
 10
170.397285497
 20
190.072463768
 11
170.397285497
 21
170.072463768
  0
LINE
  8
1
 62
7
  6
CONTINUOUS
 10
269.497285497
 20
189.472463768
 11
269.997285497
 21
188.972463768
  0
LINE
  8
30
 62
7
  6
CONTINUOUS
 10
145.797285497
 20
190.072463768
 11
170.397285497
 21
190.072463768
  0
LINE
  8
1
 62
7
  6
CONTINUOUS
 10
142.997285497
 20
182.344027106
 11
142.997285497
 21
177.800900430
  0
LINE
  8
1
 62
4
  6
CONTINUOUS
 10
142.997285497
 20
182.344027106
 11
140.597285497
 21
177.800900430
  0
LINE
  8
2
 62
1
  6
CONTINUOUS
 10
145.597285497
 20
186.972463768
 11
145.397285497
 21
186.972463768
  0
LINE
  8
2
 62
7
  6
CONTINUOUS
 10
145.597285497
 20
187.272463768
 11
145.397285497
 21
187.272463768
  0
LINE
  8
2
 62
7
  6
CONTINUOUS
 10
145.597285497
 20
172.872463768
 11
145.397285497
 21
172.872463768
  0
LINE
  8
2
 62
1
  6
CONTINUOUS
 10
145.597285497
 20
173.172463768
 11
145.397285497
 21
173.172463768
  0
LINE
  8
1
 62
7
  6
CONTINUOUS
 10
145.397285497
 20
189.447463768
 11
145.297285497
 21
189.547463768
  0
LINE
  8
1
 62
7
  6
CONTINUOUS
 10
143.197285497
 20
189.347463768
 11
143.397285497
 21
189.547463768
  0
LINE
  8
1
 62
7
  6
CONTINUOUS
 10
145.297285497
 20
189.547463768
 11
143.397285497
 21
189.547463768
  0
LINE
  8
1
 62
7
  6
CONTINUOUS
 10
145.397285497
 20
170.697463768
 11
145.397285497
 21
189.447463768
  0
LINE
  8
1
 62
7
  6
CONTINUOUS
 10
249.997285497
 20
189.472463768
 11
269.497285497
 21
189.472463768
  0
LINE
  8
1
 62
7
  6
CONTINUOUS
 10
143.197285497
 20
189.347463768
 11
143.197285497
 21
170.797463768
  0
ARC
  8
1
 62
7
  6
CONTINUOUS
 10
192.231477960
 20
180.072463768
 40
16.743157807
 50
344.909814821
 51
15.090185179
  0
ARC
  8
1
 62
7
  6
CONTINUOUS
 10
221.363093034
 20
180.072463768
 40
16.743157807
 50
164.909814821
 51
195.090185179
  0
LINE
  8
1
 62
7
  6
CONTINUOUS
 10
208.397285497
 20
184.431362712
 11
208.397285497
 21
175.713564825
  0
LINE
  8
1
 62
7
  6
CONTINUOUS
 10
145.297285497
 20
170.597463768
 11
143.397285497
 21
170.597463768
  0
LINE
  8
1
 62
7
  6
CONTINUOUS
 10
143.197285497
 20
170.797463768
 11
143.397285497
 21
170.597463768
  0
LINE
  8
31
 62
7
  6
CONTINUOUS
 10
269.997285497
 20
171.097463768
 11
269.997285497
 21
188.972463768
  0
LINE
  8
1
 62
7
  6
CONTINUOUS
 10
145.397285497
 20
170.697463768
 11
145.297285497
 21
170.597463768
  0
ARC
  8
1
 62
4
  6
CONTINUOUS
 10
280.928535497
 20
185.347463768
 40
1.781250000
 50
306.869897646
 51
53.130102354
  0
ARC
  8
1
 62
4
  6
CONTINUOUS
 10
283.066035497
 20
185.347463768
 40
1.781250000
 50
126.869897646
 51
233.130102354
  0
ARC
  8
1
 62
4
  6
CONTINUOUS
 10
280.928535497
 20
182.497463768
 40
1.781250000
 50
306.869897646
 51
53.130102354
  0
ARC
  8
1
 62
4
  6
CONTINUOUS
 10
283.216035497
 20
177.847463768
 40
2.031250000
 50
126.869897646
 51
233.130102354
  0
ARC
  8
1
 62
4
  6
CONTINUOUS
 10
280.778535497
 20
174.597463768
 40
2.031250000
 50
306.869897646
 51
53.130102354
  0
ARC
  8
1
 62
7
  6
CONTINUOUS
 10
129.525782882
 20
176.649814037
 40
1.000000000
 50
180.000000000
 51
240.000000000
  0
LINE
  8
1
 62
7
  6
CONTINUOUS
 10
139.225782882
 20
174.172463768
 11
135.675782882
 21
174.172463768
  0
ARC
  8
1
 62
4
  6
CONTINUOUS
 10
280.778535497
 20
177.847463768
 40
2.031250000
 50
306.869897646
 51
53.130102354
  0
LINE
  8
1
 62
7
  6
CONTINUOUS
 10
281.997285497
 20
172.972463768
 11
269.997285497
 21
172.972463768
  0
ARC
  8
1
 62
7
  6
CONTINUOUS
 10
139.225782882
 20
185.172463768
 40
0.800000000
 50
0.000000000
 51
90.000000000
  0
ARC
  8
1
 62
7
  6
CONTINUOUS
 10
132.084628609
 20
184.972463768
 40
1.000000000
 50
90.000000000
 51
120.000000000
  0
LINE
  8
1
 62
7
  6
CONTINUOUS
 10
132.375782882
 20
185.972463768
 11
132.084628609
 21
185.972463768
  0
LINE
  8
1
 62
7
  6
CONTINUOUS
 10
132.525782882
 20
178.087048118
 11
132.675782882
 21
177.937048118
  0
LINE
  8
1
 62
7
  6
CONTINUOUS
 10
135.525782882
 20
185.822463768
 11
135.675782882
 21
185.972463768
  0
LINE
  8
15
 62
7
  6
CONTINUOUS
 10
128.525782882
 20
178.572463768
 11
118.725782882
 21
178.572463768
  0
LINE
  8
1
 62
1
  6
CENTER
 10
283.997285497
 20
183.922463768
 11
267.997285497
 21
183.922463768
  0
ARC
  8
15
 62
7
  6
CONTINUOUS
 10
118.725782882
 20
181.372463768
 40
0.200000000
 50
90.000000000
 51
180.000000000
  0
LINE
  8
15
 62
7
  6
CONTINUOUS
 10
118.725782882
 20
181.572463768
 11
128.525782882
 21
181.572463768
  0
LINE
  8
1
 62
4
  6
CONTINUOUS
 10
135.525782882
 20
182.057879419
 11
132.525782882
 21
178.087048118
  0
LINE
  8
15
 62
7
  6
CONTINUOUS
 10
118.525782882
 20
181.372463768
 11
118.525782882
 21
178.772463768
  0
ARC
  8
15
 62
7
  6
CONTINUOUS
 10
118.725782882
 20
178.772463768
 40
0.200000000
 50
180.000000000
 51
270.000000000
  0
LINE
  8
1
 62
7
  6
CONTINUOUS
 10
269.497285497
 20
170.672463768
 11
269.997285497
 21
171.097463768
  0
LINE
  8
1
 62
7
  6
CONTINUOUS
 10
281.997285497
 20
179.472463768
 11
269.997285497
 21
179.472463768
  0
LINE
  8
1
 62
1
  6
CENTER
 10
283.997285497
 20
176.222463768
 11
267.997285497
 21
176.222463768
  0
DIMENSION
  8
1
 62
4
  6
CONTINUOUS
  2
*D78
 70
1
 10
112.525782882
 20
174.172463768
 11
112.525782882
 21
180.072463768
 14
132.084628609
 24
174.172463768
 13
132.084628609
 23
185.972463768
 50
90.000000000
  0
LINE
  8
1
 62
7
  6
CONTINUOUS
 10
269.997285497
 20
186.772463768
 11
281.997285497
 21
186.772463768
  0
LINE
  8
1
 62
7
  6
CONTINUOUS
 10
281.997285497
 20
181.072463768
 11
269.997285497
 21
181.072463768
  0
LINE
  8
1
 62
7
  6
CONTINUOUS
 10
205.197285497
 20
184.431362712
 11
205.197285497
 21
175.713564825
  0
LINE
  8
1
 62
7
  6
CONTINUOUS
 10
205.197285497
 20
175.713564825
 11
208.397285497
 21
175.713564825
  0
LINE
  8
1
 62
7
  6
CONTINUOUS
 10
205.197285497
 20
184.431362712
 11
208.397285497
 21
184.431362712
  0
LINE
  8
1
 62
7
  6
CONTINUOUS
 10
249.997285497
 20
170.672463768
 11
269.497285497
 21
170.672463768
  0
LINE
  8
1
 62
7
  6
CONTINUOUS
 10
131.584628609
 20
185.338489172
 11
131.584628609
 21
174.806438364
  0
LINE
  8
1
 62
7
  6
CONTINUOUS
 10
135.675782882
 20
174.172463768
 11
135.675782882
 21
185.972463768
  0
LINE
  8
1
 62
7
  6
CONTINUOUS
 10
132.375782882
 20
174.172463768
 11
132.375782882
 21
185.972463768
  0
LINE
  8
1
 62
7
  6
CONTINUOUS
 10
135.375782882
 20
177.937048118
 11
135.525782882
 21
178.087048118
  0
LINE
  8
1
 62
7
  6
CONTINUOUS
 10
135.525782882
 20
182.057879419
 11
135.375782882
 21
182.207879419
  0
LINE
  8
1
 62
7
  6
CONTINUOUS
 10
132.675782882
 20
174.572463768
 11
132.675782882
 21
177.937048118
  0
LINE
  8
1
 62
7
  6
CONTINUOUS
 10
135.375782882
 20
174.572463768
 11
135.375782882
 21
177.937048118
  0
LINE
  8
1
 62
7
  6
CONTINUOUS
 10
132.675782882
 20
182.207879419
 11
135.375782882
 21
182.207879419
  0
LINE
  8
1
 62
7
  6
CONTINUOUS
 10
132.675782882
 20
177.937048118
 11
135.375782882
 21
177.937048118
  0
LINE
  8
1
 62
4
  6
CONTINUOUS
 10
132.525782882
 20
182.057879419
 11
135.525782882
 21
178.087048118
  0
LINE
  8
1
 62
7
  6
CONTINUOUS
 10
132.675782882
 20
182.207879419
 11
132.675782882
 21
185.572463768
  0
LINE
  8
1
 62
7
  6
CONTINUOUS
 10
135.375782882
 20
182.207879419
 11
135.375782882
 21
185.572463768
  0
LINE
  8
1
 62
7
  6
CONTINUOUS
 10
139.225782882
 20
185.972463768
 11
139.225782882
 21
174.172463768
  0
LINE
  8
1
 62
7
  6
CONTINUOUS
 10
128.525782882
 20
176.649814037
 11
128.525782882
 21
183.495113499
  0
LINE
  8
1
 62
7
  6
CONTINUOUS
 10
132.084628609
 20
185.972463768
 11
132.084628609
 21
174.172463768
  0
LINE
  8
1
 62
7
  6
CONTINUOUS
 10
135.525782882
 20
174.322463768
 11
135.675782882
 21
174.172463768
  0
LINE
  8
1
 62
7
  6
CONTINUOUS
 10
129.025782882
 20
183.861138903
 11
129.025782882
 21
176.283788634
  0
LINE
  8
1
 62
7
  6
CONTINUOUS
 10
135.525782882
 20
185.822463768
 11
135.525782882
 21
174.322463768
  0
LINE
  8
1
 62
7
  6
CONTINUOUS
 10
132.375782882
 20
174.172463768
 11
132.084628609
 21
174.172463768
  0
ARC
  8
1
 62
7
  6
CONTINUOUS
 10
132.084628609
 20
175.172463768
 40
1.000000000
 50
240.000000000
 51
270.000000000
  0
LINE
  8
1
 62
7
  6
CONTINUOUS
 10
132.525782882
 20
174.322463768
 11
132.525782882
 21
185.822463768
  0
LINE
  8
1
 62
7
  6
CONTINUOUS
 10
129.025782882
 20
175.783788634
 11
131.584628609
 21
174.306438364
  0
LINE
  8
1
 62
7
  6
CONTINUOUS
 10
139.225782882
 20
185.972463768
 11
135.675782882
 21
185.972463768
  0
LINE
  8
1
 62
7
  6
CONTINUOUS
 10
140.025782882
 20
185.172463768
 11
140.025782882
 21
174.972463768
  0
LINE
  8
1
 62
7
  6
CONTINUOUS
 10
132.525782882
 20
185.572463768
 11
135.525782882
 21
185.572463768
  0
LINE
  8
1
 62
7
  6
CONTINUOUS
 10
132.375782882
 20
185.972463768
 11
132.525782882
 21
185.822463768
  0
ARC
  8
1
 62
7
  6
CONTINUOUS
 10
150.631477960
 20
180.072463768
 40
16.743157807
 50
344.909814821
 51
15.090185179
  0
ARC
  8
1
 62
7
  6
CONTINUOUS
 10
179.763093034
 20
180.072463768
 40
16.743157807
 50
164.909814821
 51
195.090185179
  0
LINE
  8
30
 62
7
  6
CONTINUOUS
 10
145.597285497
 20
170.272463768
 11
145.597285497
 21
189.872463768
  0
LINE
  8
1
 62
7
  6
CONTINUOUS
 10
140.597285497
 20
182.344027106
 11
142.997285497
 21
182.344027106
  0
LINE
  8
1
 62
7
  6
CONTINUOUS
 10
140.597285497
 20
177.800900430
 11
142.997285497
 21
177.800900430
  0
LINE
  8
1
 62
7
  6
CONTINUOUS
 10
166.797285497
 20
184.431362712
 11
166.797285497
 21
175.713564825
  0
LINE
  8
1
 62
7
  6
CONTINUOUS
 10
163.597285497
 20
184.431362712
 11
163.597285497
 21
175.713564825
  0
LINE
  8
1
 62
7
  6
CONTINUOUS
 10
163.597285497
 20
175.713564825
 11
166.797285497
 21
175.713564825
  0
LINE
  8
1
 62
7
  6
CONTINUOUS
 10
163.597285497
 20
184.431362712
 11
166.797285497
 21
184.431362712
  0
LINE
  8
1
 62
7
  6
CONTINUOUS
 10
140.597285497
 20
182.344027106
 11
140.597285497
 21
177.800900430
  0
LINE
  8
30
 62
7
  6
CONTINUOUS
 10
145.597285497
 20
189.872463768
 11
145.797285497
 21
190.072463768
  0
DIMENSION
  8
1
 62
4
  6
CONTINUOUS
  2
*D122
 70
1
 10
160.397285497
 20
170.072463768
 11
160.397285497
 21
180.072463768
 14
160.397285497
 24
170.072463768
 13
160.397285497
 23
190.072463768
 50
90.000000000
  0
DIMENSION
  8
1
 62
4
  6
CONTINUOUS
  2
*D123
 70
1
 10
187.797285497
 20
170.072463768
 11
187.797285497
 21
180.072463768
 14
187.797285497
 24
170.072463768
 13
187.797285497
 23
190.072463768
 50
90.000000000
  0
TEXT
  8
1
 62
3
  6
CONTINUOUS
 72
5
 10
181.461534190
 20
128.088463768
 40
4.000000000
  1
ＭＳＳ－２００８Ｒ
 41
0.834566215
 11
216.661534190
 21
128.088463768
  0
DIMENSION
  8
1
 62
4
  6
CONTINUOUS
  2
*D125
 70
0
 10
269.997285497
 20
150.072463768
 11
259.997285497
 21
150.072463768
 14
269.997285497
 24
171.097463768
 13
249.997285497
 23
170.372463768
 50
0.000000000
  0
DIMENSION
  8
1
 62
4
  6
CONTINUOUS
  2
*D126
 70
0
 10
249.997285497
 20
150.072463768
 11
210.197285497
 21
150.072463768
 14
249.997285497
 24
170.372463768
 13
170.397285497
 23
170.072463768
 50
0.000000000
  0
DIMENSION
  8
1
 62
4
  6
CONTINUOUS
  2
*D127
 70
0
 10
170.397285497
 20
150.072463768
 11
156.797285497
 21
150.072463768
 14
170.397285497
 24
170.072463768
 13
143.197285497
 23
170.797463768
 50
0.000000000
  0
DIMENSION
  8
1
 62
4
  6
CONTINUOUS
  2
*D128
 70
0
 10
143.197285497
 20
150.072463768
 11
135.861534190
 21
150.072463768
 14
143.197285497
 24
170.797463768
 13
128.525782882
 23
176.649814037
 50
0.000000000
  0
DIMENSION
  8
1
 62
4
  6
CONTINUOUS
  2
*D129
 70
0
 10
269.997285497
 20
142.072463768
 11
199.261534190
 21
142.072463768
 14
269.997285497
 24
171.097463768
 13
128.525782882
 23
176.649814037
 50
0.000000000
  0
DIMENSION
  8
1
 62
4
  6
CONTINUOUS
  2
*D130
 70
1
 10
293.997285497
 20
170.672463768
 11
293.997285497
 21
180.072463768
 14
269.497285497
 24
170.672463768
 13
269.497285497
 23
189.472463768
 50
90.000000000
  0
ENDSEC
  0
EOF
