  0
SECTION
  2
HEADER
  9
$ACADVER
  1
AC1009
  9
$INSBASE
 10
0.000000000
 20
0.000000000
  9
$EXTMIN
 10
-36.335832045
 20
-21.407246377
  9
$EXTMAX
 10
399.694152492
 20
235.479710145
  9
$LIMMIN
 10
-36.335832045
 20
-21.407246377
  9
$LIMMAX
 10
399.694152492
 20
235.479710145
  9
$SNAPBASE
 10
0.000000000
 20
0.000000000
  9
$SNAPANG
 50
0.000000000
  9
$SNAPSTYLE
 70
0
  9
$GRIDMODE
 70
0
  9
$GRIDUNIT
 10
0.000000000
 20
0.000000000
  9
$DIMEXO
 40
0.000000000
  9
$DIMDLI
 40
8.000000000
  9
$DIMDLE
 40
0.000000000
  9
$DIMEXE
 40
1.000000000
  9
$DIMTIH
 70
1
  9
$DIMTOH
 70
1
  9
$DIMTAD
 70
2
  9
$DIMZIN
 70
0
  9
$FILLETRAD
 40
1.000000000
  9
$CHAMFERA
 40
1.000000000
  9
$CHAMFERB
 40
1.000000000
  9
$TDCREATE
 40
2454152.721064815
  9
$TDUPDATE
 40
2454152.721064815
  9
$ANGBASE
 50
0.000000000
  9
$ANGDIR
 70
0
  0
ENDSEC
  0
SECTION
  2
TABLES
  0
TABLE
  2
LTYPE
 70
4
  0
LTYPE
  2
CENTER
 70
64
  3
___ _ ___ _ __
 72
65
 73
4
 40
13.000000000
 49
8.500000000
 49
-1.500000000
 49
1.500000000
 49
-1.500000000
  0
LTYPE
  2
CONTINUOUS
 70
64
  3
______________
 72
65
 73
0
 40
0.000000000
  0
LTYPE
  2
DIVIDE
 70
64
  3
___ . . ___ . 
 72
65
 73
6
 40
12.999999523
 49
5.199999809
 49
-2.599999905
 49
0.000000000
 49
-2.599999905
 49
0.000000000
 49
-2.599999905
  0
LTYPE
  2
PHANTOM
 70
64
  3
___ _ _ ___ _ 
 72
65
 73
6
 40
12.999999762
 49
4.000000000
 49
-1.799999952
 49
1.799999952
 49
-1.799999952
 49
1.799999952
 49
-1.799999952
  0
ENDTAB
  0
TABLE
  2
LAYER
 70
6
  0
LAYER
  2
1
 70
0
 62
7
  6
CONTINUOUS
  0
LAYER
  2
2
 70
0
 62
7
  6
CONTINUOUS
  0
LAYER
  2
5
 70
0
 62
7
  6
CONTINUOUS
999
Comment
  0
LAYER
  2
15
 70
0
 62
5
  6
CONTINUOUS
999
ﾁｬｯｸ
  0
LAYER
  2
17
 70
0
 62
3
  6
CONTINUOUS
999
226
  0
LAYER
  2
30
 70
0
 62
7
  6
CONTINUOUS
999
111
  0
LAYER
  2
_CONSTR
 70
0
 62
5
  6
CONTINUOUS
  0
ENDTAB
  0
TABLE
  2
STYLE
 70
1
  0
STYLE
  2
STANDARD
 70
64
 40
0.000000000
 41
1.000000000
 50
0.000000000
 71
0
 42
3.200000000
  3
TXT
  4
EXTFONT
  0
ENDTAB
  0
TABLE
  2
VIEW
 70
0
  0
ENDTAB
  0
ENDSEC
  0
SECTION
  2
BLOCKS
  0
BLOCK
  8
0
  2
*D91
 70
65
 10
0.000000000
 20
0.000000000
  3
*D
  0
TEXT
  8
1
 62
4
  6
CONTINUOUS
 72
5
 10
279.853581291
 20
154.316758464
 40
2.800000000
  1
(
 41
1.800001800
 50
78.000000007
 11
280.202872932
 21
155.960046433
  0
TEXT
  8
1
 62
4
  6
CONTINUOUS
 72
5
 10
280.377518752
 20
156.781690418
 40
2.800000000
  1
58
 41
0.899998740
 50
78.000000007
 11
281.250747853
 21
160.889910341
  0
TEXT
  8
1
 62
4
  6
CONTINUOUS
 72
5
 10
281.425393673
 20
161.711554326
 40
2.800000000
  1
)
 41
1.800001800
 50
78.000000007
 11
281.774685313
 21
163.354842295
  0
LINE
  8
1
 62
4
  6
CONTINUOUS
 10
320.297285497
 20
180.072463768
 11
287.040267071
 21
187.141461252
  0
POLYLINE
  8
1
 62
4
  6
CONTINUOUS
 66
1
  0
VERTEX
  8
1
 10
288.874183172
 20
184.706969162
  0
VERTEX
  8
1
 10
288.996562273
 20
186.725637870
  0
VERTEX
  8
1
 10
288.287294611
 20
184.831716176
  0
SEQEND
  8
1
  0
LINE
  8
1
 62
4
  6
CONTINUOUS
 10
288.996562273
 20
186.725637870
 11
276.941842335
 21
130.012639453
  0
POLYLINE
  8
1
 62
4
  6
CONTINUOUS
 66
1
  0
VERTEX
  8
1
 10
277.064221436
 20
132.031308162
  0
VERTEX
  8
1
 10
276.941842335
 20
130.012639453
  0
VERTEX
  8
1
 10
277.651109996
 20
131.906561147
  0
SEQEND
  8
1
  0
LINE
  8
1
 62
4
  6
CONTINUOUS
 10
298.656719064
 20
125.396999921
 11
274.985547133
 21
130.428462834
  0
ENDBLK
  8
0
  0
BLOCK
  8
0
  2
*D94
 70
65
 10
0.000000000
 20
0.000000000
  3
*D
  0
TEXT
  8
1
 62
4
  6
CONTINUOUS
 72
5
 10
358.676174491
 20
164.030950304
 40
2.800000000
  1
(
 41
1.800001800
 50
281.999999995
 11
359.025466131
 21
162.387662334
  0
TEXT
  8
1
 62
4
  6
CONTINUOUS
 72
5
 10
359.200111951
 20
161.566018350
 40
2.800000000
  1
57
 41
0.899998740
 50
281.999999995
 11
360.073341053
 21
157.457798427
  0
TEXT
  8
1
 62
4
  6
CONTINUOUS
 72
5
 10
360.247986873
 20
156.636154442
 40
2.800000000
  1
)
 41
1.800001800
 50
281.999999995
 11
360.597278514
 21
154.992866473
  0
LINE
  8
1
 62
4
  6
CONTINUOUS
 10
320.297285497
 20
180.072463768
 11
353.554303923
 21
187.141461253
  0
POLYLINE
  8
1
 62
4
  6
CONTINUOUS
 66
1
  0
VERTEX
  8
1
 10
352.307276383
 20
184.831716177
  0
VERTEX
  8
1
 10
351.598008721
 20
186.725637872
  0
VERTEX
  8
1
 10
351.720387823
 20
184.706969163
  0
SEQEND
  8
1
  0
LINE
  8
1
 62
4
  6
CONTINUOUS
 10
351.598008721
 20
186.725637872
 11
363.358320447
 21
131.397721229
  0
POLYLINE
  8
1
 62
4
  6
CONTINUOUS
 66
1
  0
VERTEX
  8
1
 10
362.649052785
 20
133.291642923
  0
VERTEX
  8
1
 10
363.358320447
 20
131.397721229
  0
VERTEX
  8
1
 10
363.235941346
 20
133.416389937
  0
SEQEND
  8
1
  0
LINE
  8
1
 62
4
  6
CONTINUOUS
 10
341.643443711
 20
126.782081694
 11
365.314615649
 21
131.813544610
  0
ENDBLK
  8
0
  0
BLOCK
  8
0
  2
*D102
 70
65
 10
0.000000000
 20
0.000000000
  3
*D
  0
TEXT
  8
1
 62
4
  6
CONTINUOUS
 72
5
 10
324.048462567
 20
112.318404177
 40
2.800000000
  1
12
 41
1.124997750
 50
6.000000000
 11
328.225454527
 21
112.757423723
  0
TEXT
  8
1
 62
4
  6
CONTINUOUS
 72
5
 10
329.060852920
 20
112.845227632
 40
2.800000000
  1
°
 41
1.270648030
 50
6.000000000
 11
332.402446488
 21
113.196443269
  0
POLYLINE
  8
1
 62
4
  6
CONTINUOUS
 66
1
  0
VERTEX
  8
1
 10
322.297285497
 20
110.392463230
  0
VERTEX
  8
1
 10
320.297285497
 20
110.092463230
  0
VERTEX
  8
1
 10
322.297285497
 20
109.792463230
  0
SEQEND
  8
1
  0
ARC
  8
1
 62
4
  6
CONTINUOUS
 10
320.297285497
 20
180.072463768
 40
69.980000538
 50
270.000000000
 51
282.000000000
  0
POLYLINE
  8
1
 62
4
  6
CONTINUOUS
 66
1
  0
VERTEX
  8
1
 10
332.953024038
 20
110.912426481
  0
VERTEX
  8
1
 10
334.846945732
 20
111.621694143
  0
VERTEX
  8
1
 10
332.828277024
 20
111.499315041
  0
SEQEND
  8
1
  0
LINE
  8
1
 62
4
  6
CONTINUOUS
 10
322.677874357
 20
168.872673740
 11
335.262769114
 21
109.665398941
  0
ENDBLK
  8
0
  0
BLOCK
  8
0
  2
*D119
 70
65
 10
0.000000000
 20
0.000000000
  3
*D
  0
TEXT
  8
1
 62
4
  6
CONTINUOUS
 72
5
 10
294.328339034
 20
116.303199370
 40
2.800000000
  1
3.8
 41
1.199998800
 50
348.000000000
 11
300.901490912
 21
114.906032808
  0
LINE
  8
1
 62
4
  6
CONTINUOUS
 10
304.109781289
 20
122.193234574
 11
301.614840999
 21
110.455463365
  0
POLYLINE
  8
1
 62
4
  6
CONTINUOUS
 66
1
  0
VERTEX
  8
1
 10
300.136742686
 20
113.121026229
  0
VERTEX
  8
1
 10
302.030664381
 20
112.411758567
  0
SEQEND
  8
1
  0
POLYLINE
  8
1
 62
4
  6
CONTINUOUS
 66
1
  0
VERTEX
  8
1
 10
299.096221578
 20
113.035493639
  0
VERTEX
  8
1
 10
302.030664381
 20
112.411758567
  0
VERTEX
  8
1
 10
300.011995672
 20
112.534137668
  0
SEQEND
  8
1
  0
LINE
  8
1
 62
4
  6
CONTINUOUS
 10
302.030664381
 20
112.411758567
 11
305.747625262
 21
111.621694143
  0
POLYLINE
  8
1
 62
4
  6
CONTINUOUS
 66
1
  0
VERTEX
  8
1
 10
307.641546956
 20
110.912426481
  0
VERTEX
  8
1
 10
305.747625262
 20
111.621694143
  0
SEQEND
  8
1
  0
POLYLINE
  8
1
 62
4
  6
CONTINUOUS
 66
1
  0
VERTEX
  8
1
 10
308.682068064
 20
110.997959071
  0
VERTEX
  8
1
 10
305.747625262
 20
111.621694143
  0
VERTEX
  8
1
 10
307.766293971
 20
111.499315041
  0
SEQEND
  8
1
  0
LINE
  8
1
 62
4
  6
CONTINUOUS
 10
317.916696637
 20
168.872673740
 11
305.331801880
 21
109.665398941
  0
POLYLINE
  8
1
 62
4
  6
CONTINUOUS
 66
1
  0
VERTEX
  8
1
 10
302.030664381
 20
112.411758567
  0
VERTEX
  8
1
 10
291.913598555
 20
114.562207292
  0
SEQEND
  8
1
  0
ENDBLK
  8
0
  0
BLOCK
  8
0
  2
*D120
 70
65
 10
0.000000000
 20
0.000000000
  3
*D
  0
TEXT
  8
1
 62
4
  6
CONTINUOUS
 72
5
 10
309.879629258
 20
113.019079372
 40
2.800000000
  1
12
 41
1.124997750
 50
354.000000000
 11
314.056621219
 21
112.580059826
  0
TEXT
  8
1
 62
4
  6
CONTINUOUS
 72
5
 10
314.892019611
 20
112.492255917
 40
2.800000000
  1
°
 41
1.270648030
 50
354.000000000
 11
318.233613180
 21
112.141040281
  0
LINE
  8
1
 62
4
  6
CONTINUOUS
 10
317.916696637
 20
168.872673740
 11
305.331801880
 21
109.665398941
  0
POLYLINE
  8
1
 62
4
  6
CONTINUOUS
 66
1
  0
VERTEX
  8
1
 10
307.766293970
 20
111.499315041
  0
VERTEX
  8
1
 10
305.747625262
 20
111.621694143
  0
VERTEX
  8
1
 10
307.641546956
 20
110.912426481
  0
SEQEND
  8
1
  0
ARC
  8
1
 62
4
  6
CONTINUOUS
 10
320.297285497
 20
180.072463768
 40
69.980000538
 50
258.000000000
 51
270.000000000
  0
POLYLINE
  8
1
 62
4
  6
CONTINUOUS
 66
1
  0
VERTEX
  8
1
 10
318.297285497
 20
109.792463230
  0
VERTEX
  8
1
 10
320.297285497
 20
110.092463230
  0
VERTEX
  8
1
 10
318.297285497
 20
110.392463230
  0
SEQEND
  8
1
  0
LINE
  8
1
 62
4
  6
CONTINUOUS
 10
320.297285497
 20
168.622463768
 11
320.297285497
 21
108.092463230
  0
ENDBLK
  8
0
  0
BLOCK
  8
0
  2
*D140
 70
65
 10
0.000000000
 20
0.000000000
  3
*D
  0
TEXT
  8
1
 62
4
  6
CONTINUOUS
 72
5
 10
256.092285497
 20
172.940863768
 40
2.800000000
  1
φ
 41
1.270648030
 50
90.000000000
 11
256.092285497
 21
176.300863768
  0
TEXT
  8
1
 62
4
  6
CONTINUOUS
 72
5
 10
256.092285497
 20
177.980863768
 40
2.800000000
  1
18.9
 41
1.237498917
 50
90.000000000
 11
256.092285497
 21
187.220863768
  0
LINE
  8
1
 62
4
  6
CONTINUOUS
 10
245.997285497
 20
189.522463768
 11
260.297285497
 21
189.522463768
  0
POLYLINE
  8
1
 62
4
  6
CONTINUOUS
 66
1
  0
VERTEX
  8
1
 10
258.597285497
 20
187.522463768
  0
VERTEX
  8
1
 10
258.297285497
 20
189.522463768
  0
VERTEX
  8
1
 10
257.997285497
 20
187.522463768
  0
SEQEND
  8
1
  0
LINE
  8
1
 62
4
  6
CONTINUOUS
 10
258.297285497
 20
189.522463768
 11
258.297285497
 21
170.622463768
  0
POLYLINE
  8
1
 62
4
  6
CONTINUOUS
 66
1
  0
VERTEX
  8
1
 10
257.997285497
 20
172.622463768
  0
VERTEX
  8
1
 10
258.297285497
 20
170.622463768
  0
VERTEX
  8
1
 10
258.597285497
 20
172.622463768
  0
SEQEND
  8
1
  0
LINE
  8
1
 62
4
  6
CONTINUOUS
 10
245.997285497
 20
170.622463768
 11
260.297285497
 21
170.622463768
  0
ENDBLK
  8
0
  0
BLOCK
  8
0
  2
*D148
 70
65
 10
0.000000000
 20
0.000000000
  3
*D
  0
TEXT
  8
1
 62
4
  6
CONTINUOUS
 72
5
 10
339.958283027
 20
114.962403435
 40
2.800000000
  1
3.8
 41
1.199998800
 50
11.999999995
 11
346.531434904
 21
116.359569996
  0
LINE
  8
1
 62
4
  6
CONTINUOUS
 10
322.677874357
 20
168.872673740
 11
335.262769114
 21
109.665398941
  0
POLYLINE
  8
1
 62
4
  6
CONTINUOUS
 66
1
  0
VERTEX
  8
1
 10
332.828277024
 20
111.499315041
  0
VERTEX
  8
1
 10
334.846945732
 20
111.621694143
  0
SEQEND
  8
1
  0
POLYLINE
  8
1
 62
4
  6
CONTINUOUS
 66
1
  0
VERTEX
  8
1
 10
331.912502930
 20
110.997959070
  0
VERTEX
  8
1
 10
334.846945732
 20
111.621694143
  0
VERTEX
  8
1
 10
332.953024038
 20
110.912426481
  0
SEQEND
  8
1
  0
LINE
  8
1
 62
4
  6
CONTINUOUS
 10
334.846945732
 20
111.621694143
 11
338.563906614
 21
112.411758567
  0
POLYLINE
  8
1
 62
4
  6
CONTINUOUS
 66
1
  0
VERTEX
  8
1
 10
340.582575323
 20
112.534137668
  0
VERTEX
  8
1
 10
338.563906614
 20
112.411758567
  0
SEQEND
  8
1
  0
POLYLINE
  8
1
 62
4
  6
CONTINUOUS
 66
1
  0
VERTEX
  8
1
 10
341.498349417
 20
113.035493639
  0
VERTEX
  8
1
 10
338.563906614
 20
112.411758567
  0
VERTEX
  8
1
 10
340.457828309
 20
113.121026229
  0
SEQEND
  8
1
  0
LINE
  8
1
 62
4
  6
CONTINUOUS
 10
336.190381488
 20
123.578316348
 11
338.979729996
 21
110.455463366
  0
POLYLINE
  8
1
 62
4
  6
CONTINUOUS
 66
1
  0
VERTEX
  8
1
 10
338.563906614
 20
112.411758567
  0
VERTEX
  8
1
 10
348.929742504
 20
114.615085002
  0
SEQEND
  8
1
  0
ENDBLK
  8
0
  0
BLOCK
  8
0
  2
*D162
 70
65
 10
0.000000000
 20
0.000000000
  3
*D
  0
TEXT
  8
1
 62
4
  6
CONTINUOUS
 72
5
 10
284.023072996
 20
143.029067857
 40
2.800000000
  1
(
 41
1.650001650
 50
348.000000000
 11
285.529420301
 21
142.708883853
  0
TEXT
  8
1
 62
4
  6
CONTINUOUS
 72
5
 10
286.282593954
 20
142.548791851
 40
2.800000000
  1
φ
 41
1.164760695
 50
348.000000000
 11
289.295288564
 21
141.908423843
  0
TEXT
  8
1
 62
4
  6
CONTINUOUS
 72
5
 10
290.801635869
 20
141.588239840
 40
2.800000000
  1
14
 41
1.031247938
 50
348.000000000
 11
294.567504132
 21
140.787779830
  0
TEXT
  8
1
 62
4
  6
CONTINUOUS
 72
5
 10
295.320677785
 20
140.627687828
 40
2.800000000
  1
)
 41
1.650001650
 50
348.000000000
 11
296.827025090
 21
140.307503824
  0
LINE
  8
1
 62
4
  6
CONTINUOUS
 10
313.493980381
 20
132.674279770
 11
314.283247452
 21
136.387489397
  0
POLYLINE
  8
1
 62
4
  6
CONTINUOUS
 66
1
  0
VERTEX
  8
1
 10
311.848755362
 20
134.553573297
  0
VERTEX
  8
1
 10
313.867424070
 20
134.431194196
  0
VERTEX
  8
1
 10
311.973502376
 20
135.140461858
  0
SEQEND
  8
1
  0
LINE
  8
1
 62
4
  6
CONTINUOUS
 10
313.867424070
 20
134.431194196
 11
300.173357660
 21
137.341957867
  0
POLYLINE
  8
1
 62
4
  6
CONTINUOUS
 66
1
  0
VERTEX
  8
1
 10
302.192026369
 20
137.219578766
  0
VERTEX
  8
1
 10
300.173357660
 20
137.341957867
  0
VERTEX
  8
1
 10
302.067279354
 20
136.632690205
  0
SEQEND
  8
1
  0
LINE
  8
1
 62
4
  6
CONTINUOUS
 10
299.748783792
 20
135.344494864
 11
300.589181042
 21
139.298253069
  0
POLYLINE
  8
1
 62
4
  6
CONTINUOUS
 66
1
  0
VERTEX
  8
1
 10
313.867424070
 20
134.431194196
  0
VERTEX
  8
1
 10
281.608332517
 20
141.288075779
  0
SEQEND
  8
1
  0
ENDBLK
  8
0
  0
BLOCK
  8
0
  2
*D205
 70
65
 10
0.000000000
 20
0.000000000
  3
*D
  0
TEXT
  8
1
 62
4
  6
CONTINUOUS
 72
5
 10
110.320782882
 20
172.940863768
 40
2.800000000
  1
φ
 41
1.270648030
 50
90.000000000
 11
110.320782882
 21
176.300863768
  0
TEXT
  8
1
 62
4
  6
CONTINUOUS
 72
5
 10
110.320782882
 20
177.980863768
 40
2.800000000
  1
11.8
 41
1.414284098
 50
90.000000000
 11
110.320782882
 21
187.220863768
  0
LINE
  8
1
 62
4
  6
CONTINUOUS
 10
132.084628609
 20
185.972463768
 11
110.525782882
 21
185.972463768
  0
POLYLINE
  8
1
 62
4
  6
CONTINUOUS
 66
1
  0
VERTEX
  8
1
 10
112.825782882
 20
183.972463768
  0
VERTEX
  8
1
 10
112.525782882
 20
185.972463768
  0
VERTEX
  8
1
 10
112.225782882
 20
183.972463768
  0
SEQEND
  8
1
  0
LINE
  8
1
 62
4
  6
CONTINUOUS
 10
112.525782882
 20
185.972463768
 11
112.525782882
 21
174.172463768
  0
POLYLINE
  8
1
 62
4
  6
CONTINUOUS
 66
1
  0
VERTEX
  8
1
 10
112.225782882
 20
176.172463768
  0
VERTEX
  8
1
 10
112.525782882
 20
174.172463768
  0
VERTEX
  8
1
 10
112.825782882
 20
176.172463768
  0
SEQEND
  8
1
  0
LINE
  8
1
 62
4
  6
CONTINUOUS
 10
132.084628609
 20
174.172463768
 11
110.525782882
 21
174.172463768
  0
ENDBLK
  8
0
  0
BLOCK
  8
0
  2
*D275
 70
65
 10
0.000000000
 20
0.000000000
  3
*D
  0
TEXT
  8
1
 62
4
  6
CONTINUOUS
 72
5
 10
340.963210953
 20
139.481079221
 40
2.800000000
  1
(
 41
1.650001650
 50
11.999999995
 11
342.469558258
 21
139.801263225
  0
TEXT
  8
1
 62
4
  6
CONTINUOUS
 72
5
 10
343.222731911
 20
139.961355227
 40
2.800000000
  1
φ
 41
1.164760695
 50
11.999999995
 11
346.235426521
 21
140.601723234
  0
TEXT
  8
1
 62
4
  6
CONTINUOUS
 72
5
 10
347.741773826
 20
140.921907238
 40
2.800000000
  1
12
 41
1.031247938
 50
11.999999995
 11
351.507642089
 21
141.722367247
  0
TEXT
  8
1
 62
4
  6
CONTINUOUS
 72
5
 10
352.260815742
 20
141.882459249
 40
2.800000000
  1
)
 41
1.650001650
 50
11.999999995
 11
353.767163047
 21
142.202643253
  0
LINE
  8
1
 62
4
  6
CONTINUOUS
 10
327.621261512
 20
135.034450131
 11
328.167962743
 21
132.462423056
  0
POLYLINE
  8
1
 62
4
  6
CONTINUOUS
 66
1
  0
VERTEX
  8
1
 10
329.646061056
 20
135.127985919
  0
VERTEX
  8
1
 10
327.752139362
 20
134.418718257
  0
VERTEX
  8
1
 10
329.770808070
 20
134.541097359
  0
SEQEND
  8
1
  0
LINE
  8
1
 62
4
  6
CONTINUOUS
 10
327.752139362
 20
134.418718257
 11
339.489910571
 21
136.913658546
  0
POLYLINE
  8
1
 62
4
  6
CONTINUOUS
 66
1
  0
VERTEX
  8
1
 10
337.595988876
 20
136.204390884
  0
VERTEX
  8
1
 10
339.489910571
 20
136.913658546
  0
VERTEX
  8
1
 10
337.471241862
 20
136.791279445
  0
SEQEND
  8
1
  0
LINE
  8
1
 62
4
  6
CONTINUOUS
 10
339.373800499
 20
137.459913486
 11
339.905733952
 21
134.957363345
  0
POLYLINE
  8
1
 62
4
  6
CONTINUOUS
 66
1
  0
VERTEX
  8
1
 10
339.489910571
 20
136.913658546
  0
VERTEX
  8
1
 10
356.166840054
 20
140.458449335
  0
SEQEND
  8
1
  0
ENDBLK
  8
0
  0
BLOCK
  8
0
  2
*D276
 70
65
 10
0.000000000
 20
0.000000000
  3
*D
  0
TEXT
  8
1
 62
4
  6
CONTINUOUS
 72
5
 10
158.192285497
 20
172.109263768
 40
2.800000000
  1
φ
 41
1.270648030
 50
90.000000000
 11
158.192285497
 21
175.469263768
  0
TEXT
  8
1
 62
4
  6
CONTINUOUS
 72
5
 10
158.192285497
 20
177.149263768
 40
2.800000000
  1
20
 41
1.000000667
 50
90.000000000
 11
158.192285497
 21
181.349263768
  0
TEXT
  8
1
 62
4
  6
CONTINUOUS
 72
5
 10
156.428285497
 20
182.189263768
 40
1.400000000
  1
 0
 41
2.333335926
 50
90.000000000
 11
156.428285497
 21
185.129263768
  0
TEXT
  8
1
 62
4
  6
CONTINUOUS
 72
5
 10
158.570285497
 20
182.189263768
 40
1.400000000
  1
-0.01
 41
1.710000684
 50
90.000000000
 11
158.570285497
 21
190.169263768
  0
POLYLINE
  8
1
 62
4
  6
CONTINUOUS
 66
1
  0
VERTEX
  8
1
 10
160.697285497
 20
188.072463768
  0
VERTEX
  8
1
 10
160.397285497
 20
190.072463768
  0
VERTEX
  8
1
 10
160.097285497
 20
188.072463768
  0
SEQEND
  8
1
  0
LINE
  8
1
 62
4
  6
CONTINUOUS
 10
160.397285497
 20
190.072463768
 11
160.397285497
 21
170.072463768
  0
POLYLINE
  8
1
 62
4
  6
CONTINUOUS
 66
1
  0
VERTEX
  8
1
 10
160.097285497
 20
172.072463768
  0
VERTEX
  8
1
 10
160.397285497
 20
170.072463768
  0
VERTEX
  8
1
 10
160.697285497
 20
172.072463768
  0
SEQEND
  8
1
  0
ENDBLK
  8
0
  0
BLOCK
  8
0
  2
*D277
 70
65
 10
0.000000000
 20
0.000000000
  3
*D
  0
TEXT
  8
1
 62
4
  6
CONTINUOUS
 72
5
 10
177.642285497
 20
172.109263768
 40
2.800000000
  1
φ
 41
1.270648030
 50
90.000000000
 11
177.642285497
 21
175.469263768
  0
TEXT
  8
1
 62
4
  6
CONTINUOUS
 72
5
 10
177.642285497
 20
177.149263768
 40
2.800000000
  1
20
 41
1.000000667
 50
90.000000000
 11
177.642285497
 21
181.349263768
  0
TEXT
  8
1
 62
4
  6
CONTINUOUS
 72
5
 10
175.878285497
 20
182.189263768
 40
1.400000000
  1
-0.01
 41
1.710000684
 50
90.000000000
 11
175.878285497
 21
190.169263768
  0
TEXT
  8
1
 62
4
  6
CONTINUOUS
 72
5
 10
178.020285497
 20
182.189263768
 40
1.400000000
  1
-0.02
 41
1.554544889
 50
90.000000000
 11
178.020285497
 21
190.169263768
  0
POLYLINE
  8
1
 62
4
  6
CONTINUOUS
 66
1
  0
VERTEX
  8
1
 10
180.147285497
 20
188.072463768
  0
VERTEX
  8
1
 10
179.847285497
 20
190.072463768
  0
VERTEX
  8
1
 10
179.547285497
 20
188.072463768
  0
SEQEND
  8
1
  0
LINE
  8
1
 62
4
  6
CONTINUOUS
 10
179.847285497
 20
190.072463768
 11
179.847285497
 21
170.072463768
  0
POLYLINE
  8
1
 62
4
  6
CONTINUOUS
 66
1
  0
VERTEX
  8
1
 10
179.547285497
 20
172.072463768
  0
VERTEX
  8
1
 10
179.847285497
 20
170.072463768
  0
VERTEX
  8
1
 10
180.147285497
 20
172.072463768
  0
SEQEND
  8
1
  0
ENDBLK
  8
0
  0
BLOCK
  8
0
  2
*D279
 70
65
 10
0.000000000
 20
0.000000000
  3
*D
  0
TEXT
  8
1
 62
4
  6
CONTINUOUS
 72
5
 10
149.665685497
 20
208.277463768
 40
2.800000000
  1
(
 41
1.800001800
 11
151.345685497
 21
208.277463768
  0
TEXT
  8
1
 62
4
  6
CONTINUOUS
 72
5
 10
152.185685497
 20
208.277463768
 40
2.800000000
  1
27.2
 41
1.099999267
 11
161.425685497
 21
208.277463768
  0
TEXT
  8
1
 62
4
  6
CONTINUOUS
 72
5
 10
162.265685497
 20
208.277463768
 40
2.800000000
  1
)
 41
1.800001800
 11
163.945685497
 21
208.277463768
  0
POLYLINE
  8
1
 62
4
  6
CONTINUOUS
 66
1
  0
VERTEX
  8
1
 10
145.197285497
 20
206.372463768
  0
VERTEX
  8
1
 10
143.197285497
 20
206.072463768
  0
VERTEX
  8
1
 10
145.197285497
 20
205.772463768
  0
SEQEND
  8
1
  0
LINE
  8
1
 62
4
  6
CONTINUOUS
 10
143.197285497
 20
206.072463768
 11
170.397285497
 21
206.072463768
  0
POLYLINE
  8
1
 62
4
  6
CONTINUOUS
 66
1
  0
VERTEX
  8
1
 10
168.397285497
 20
205.772463768
  0
VERTEX
  8
1
 10
170.397285497
 20
206.072463768
  0
VERTEX
  8
1
 10
168.397285497
 20
206.372463768
  0
SEQEND
  8
1
  0
LINE
  8
1
 62
4
  6
CONTINUOUS
 10
170.397285497
 20
190.072463768
 11
170.397285497
 21
208.072463768
  0
ENDBLK
  8
0
  0
BLOCK
  8
0
  2
*D280
 70
65
 10
0.000000000
 20
0.000000000
  3
*D
  0
TEXT
  8
1
 62
4
  6
CONTINUOUS
 72
5
 10
197.635685497
 20
208.277463768
 40
2.800000000
  1
63.7
 41
1.099999267
 11
206.875685497
 21
208.277463768
  0
POLYLINE
  8
1
 62
4
  6
CONTINUOUS
 66
1
  0
VERTEX
  8
1
 10
172.397285497
 20
206.372463768
  0
VERTEX
  8
1
 10
170.397285497
 20
206.072463768
  0
VERTEX
  8
1
 10
172.397285497
 20
205.772463768
  0
SEQEND
  8
1
  0
LINE
  8
1
 62
4
  6
CONTINUOUS
 10
170.397285497
 20
206.072463768
 11
234.097285497
 21
206.072463768
  0
POLYLINE
  8
1
 62
4
  6
CONTINUOUS
 66
1
  0
VERTEX
  8
1
 10
232.097285497
 20
205.772463768
  0
VERTEX
  8
1
 10
234.097285497
 20
206.072463768
  0
VERTEX
  8
1
 10
232.097285497
 20
206.372463768
  0
SEQEND
  8
1
  0
LINE
  8
1
 62
4
  6
CONTINUOUS
 10
234.097285497
 20
189.772463768
 11
234.097285497
 21
208.072463768
  0
ENDBLK
  8
0
  0
BLOCK
  8
0
  2
*D281
 70
65
 10
0.000000000
 20
0.000000000
  3
*D
  0
TEXT
  8
1
 62
4
  6
CONTINUOUS
 72
5
 10
179.019934190
 20
216.277463768
 40
2.800000000
  1
(
 41
1.800001800
 11
180.699934190
 21
216.277463768
  0
TEXT
  8
1
 62
4
  6
CONTINUOUS
 72
5
 10
181.539934190
 20
216.277463768
 40
2.800000000
  1
117.8
 41
1.259998992
 11
193.299934190
 21
216.277463768
  0
TEXT
  8
1
 62
4
  6
CONTINUOUS
 72
5
 10
194.139934190
 20
216.277463768
 40
2.800000000
  1
)
 41
1.800001800
 11
195.819934190
 21
216.277463768
  0
LINE
  8
1
 62
4
  6
CONTINUOUS
 10
246.297285497
 20
189.222463768
 11
246.297285497
 21
216.072463768
  0
POLYLINE
  8
1
 62
4
  6
CONTINUOUS
 66
1
  0
VERTEX
  8
1
 10
244.297285497
 20
213.772463768
  0
VERTEX
  8
1
 10
246.297285497
 20
214.072463768
  0
VERTEX
  8
1
 10
244.297285497
 20
214.372463768
  0
SEQEND
  8
1
  0
LINE
  8
1
 62
4
  6
CONTINUOUS
 10
246.297285497
 20
214.072463768
 11
128.525782882
 21
214.072463768
  0
POLYLINE
  8
1
 62
4
  6
CONTINUOUS
 66
1
  0
VERTEX
  8
1
 10
130.525782882
 20
214.372463768
  0
VERTEX
  8
1
 10
128.525782882
 20
214.072463768
  0
VERTEX
  8
1
 10
130.525782882
 20
213.772463768
  0
SEQEND
  8
1
  0
LINE
  8
1
 62
4
  6
CONTINUOUS
 10
128.525782882
 20
183.495113499
 11
128.525782882
 21
216.072463768
  0
ENDBLK
  8
0
  0
BLOCK
  8
0
  2
*D282
 70
65
 10
0.000000000
 20
0.000000000
  3
*D
  0
TEXT
  8
1
 62
4
  6
CONTINUOUS
 72
5
 10
232.915572397
 20
208.277463768
 40
2.800000000
  1
(
 41
1.650001650
 11
234.455572397
 21
208.277463768
  0
TEXT
  8
1
 62
4
  6
CONTINUOUS
 72
5
 10
235.225572397
 20
208.277463768
 40
2.800000000
  1
12.2
 41
1.134374007
 11
243.695572397
 21
208.277463768
  0
TEXT
  8
1
 62
4
  6
CONTINUOUS
 72
5
 10
244.465572397
 20
208.277463768
 40
2.800000000
  1
)
 41
1.650001650
 11
246.005572397
 21
208.277463768
  0
POLYLINE
  8
1
 62
4
  6
CONTINUOUS
 66
1
  0
VERTEX
  8
1
 10
236.097285497
 20
206.372463768
  0
VERTEX
  8
1
 10
234.097285497
 20
206.072463768
  0
VERTEX
  8
1
 10
236.097285497
 20
205.772463768
  0
SEQEND
  8
1
  0
LINE
  8
1
 62
4
  6
CONTINUOUS
 10
234.097285497
 20
206.072463768
 11
246.297285497
 21
206.072463768
  0
POLYLINE
  8
1
 62
4
  6
CONTINUOUS
 66
1
  0
VERTEX
  8
1
 10
244.297285497
 20
205.772463768
  0
VERTEX
  8
1
 10
246.297285497
 20
206.072463768
  0
VERTEX
  8
1
 10
244.297285497
 20
206.372463768
  0
SEQEND
  8
1
  0
LINE
  8
1
 62
4
  6
CONTINUOUS
 10
246.297285497
 20
189.222463768
 11
246.297285497
 21
208.072463768
  0
ENDBLK
  8
0
  0
BLOCK
  8
0
  2
*D283
 70
65
 10
0.000000000
 20
0.000000000
  3
*D
  0
TEXT
  8
1
 62
4
  6
CONTINUOUS
 72
5
 10
129.324234190
 20
208.277463768
 40
2.800000000
  1
(
 41
1.650001650
 11
130.864234190
 21
208.277463768
  0
TEXT
  8
1
 62
4
  6
CONTINUOUS
 72
5
 10
131.634234190
 20
208.277463768
 40
2.800000000
  1
14.7
 41
1.134374007
 11
140.104234190
 21
208.277463768
  0
TEXT
  8
1
 62
4
  6
CONTINUOUS
 72
5
 10
140.874234190
 20
208.277463768
 40
2.800000000
  1
)
 41
1.650001650
 11
142.414234190
 21
208.277463768
  0
LINE
  8
1
 62
4
  6
CONTINUOUS
 10
128.525782882
 20
183.495113499
 11
128.525782882
 21
208.072463768
  0
POLYLINE
  8
1
 62
4
  6
CONTINUOUS
 66
1
  0
VERTEX
  8
1
 10
130.525782882
 20
206.372463768
  0
VERTEX
  8
1
 10
128.525782882
 20
206.072463768
  0
VERTEX
  8
1
 10
130.525782882
 20
205.772463768
  0
SEQEND
  8
1
  0
LINE
  8
1
 62
4
  6
CONTINUOUS
 10
128.525782882
 20
206.072463768
 11
143.197285497
 21
206.072463768
  0
POLYLINE
  8
1
 62
4
  6
CONTINUOUS
 66
1
  0
VERTEX
  8
1
 10
141.197285497
 20
205.772463768
  0
VERTEX
  8
1
 10
143.197285497
 20
206.072463768
  0
VERTEX
  8
1
 10
141.197285497
 20
206.372463768
  0
SEQEND
  8
1
  0
LINE
  8
1
 62
4
  6
CONTINUOUS
 10
143.197285497
 20
189.347463768
 11
143.197285497
 21
208.072463768
  0
ENDBLK
  8
0
  0
ENDSEC
  0
SECTION
  2
ENTITIES
  0
LINE
  8
1
 62
7
  6
CONTINUOUS
 10
143.097285497
 20
175.472463768
 11
143.197285497
 21
175.372463768
  0
LINE
  8
5
 62
7
  6
CONTINUOUS
 10
170.397285497
 20
190.072463768
 11
170.397285497
 21
170.072463768
  0
LINE
  8
1
 62
4
  6
CONTINUOUS
 10
189.297285497
 20
184.431362712
 11
192.497285497
 21
175.713564825
  0
LINE
  8
5
 62
7
  6
CONTINUOUS
 10
234.097285497
 20
189.772463768
 11
234.097285497
 21
170.372463768
  0
LINE
  8
5
 62
7
  6
CONTINUOUS
 10
233.797285497
 20
190.072463768
 11
234.097285497
 21
189.772463768
  0
LINE
  8
5
 62
7
  6
CONTINUOUS
 10
170.397285497
 20
170.072463768
 11
233.797285497
 21
170.072463768
  0
LINE
  8
5
 62
7
  6
CONTINUOUS
 10
170.397285497
 20
190.072463768
 11
233.797285497
 21
190.072463768
  0
LINE
  8
1
 62
4
  6
CONTINUOUS
 10
192.497285497
 20
184.431362712
 11
189.297285497
 21
175.713564825
  0
LINE
  8
5
 62
7
  6
CONTINUOUS
 10
234.097285497
 20
170.372463768
 11
233.797285497
 21
170.072463768
  0
LINE
  8
1
 62
7
  6
CONTINUOUS
 10
140.497285497
 20
184.672463768
 11
143.097285497
 21
184.672463768
  0
LINE
  8
1
 62
7
  6
CONTINUOUS
 10
140.397285497
 20
184.772463768
 11
140.497285497
 21
184.672463768
  0
LINE
  8
1
 62
7
  6
CONTINUOUS
 10
140.025782882
 20
184.772463768
 11
140.397285497
 21
184.772463768
  0
LINE
  8
1
 62
7
  6
CONTINUOUS
 10
132.375782882
 20
174.172463768
 11
132.525782882
 21
174.322463768
  0
LINE
  8
1
 62
7
  6
CONTINUOUS
 10
132.675782882
 20
182.207879419
 11
132.525782882
 21
182.057879419
  0
LINE
  8
17
 62
1
  6
CENTER
 10
116.525782882
 20
180.072463768
 11
248.297285497
 21
180.072463768
  0
LINE
  8
1
 62
7
  6
CONTINUOUS
 10
129.025782882
 20
184.361138903
 11
131.584628609
 21
185.838489172
  0
LINE
  8
1
 62
7
  6
CONTINUOUS
 10
140.397285497
 20
175.372463768
 11
140.497285497
 21
175.472463768
  0
LINE
  8
1
 62
7
  6
CONTINUOUS
 10
140.497285497
 20
175.472463768
 11
143.097285497
 21
175.472463768
  0
LINE
  8
1
 62
7
  6
CONTINUOUS
 10
132.525782882
 20
174.572463768
 11
135.525782882
 21
174.572463768
  0
LINE
  8
1
 62
7
  6
CONTINUOUS
 10
143.097285497
 20
184.672463768
 11
143.197285497
 21
184.772463768
  0
LINE
  8
1
 62
7
  6
CONTINUOUS
 10
143.097285497
 20
184.672463768
 11
143.097285497
 21
175.472463768
  0
LINE
  8
1
 62
7
  6
CONTINUOUS
 10
140.497285497
 20
184.672463768
 11
140.497285497
 21
175.472463768
  0
ARC
  8
1
 62
7
  6
CONTINUOUS
 10
139.225782882
 20
174.972463768
 40
0.800000000
 50
270.000000000
 51
0.000000000
  0
LINE
  8
1
 62
7
  6
CONTINUOUS
 10
140.397285497
 20
184.772463768
 11
140.397285497
 21
175.372463768
  0
ARC
  8
1
 62
7
  6
CONTINUOUS
 10
129.525782882
 20
183.495113499
 40
1.000000000
 50
120.000000000
 51
180.000000000
  0
LINE
  8
1
 62
7
  6
CONTINUOUS
 10
140.025782882
 20
175.372463768
 11
140.397285497
 21
175.372463768
  0
LINE
  8
30
 62
7
  6
CONTINUOUS
 10
145.797285497
 20
170.072463768
 11
170.397285497
 21
170.072463768
  0
LINE
  8
1
 62
4
  6
CONTINUOUS
 10
140.597285497
 20
182.344027106
 11
142.997285497
 21
177.800900430
  0
LINE
  8
1
 62
4
  6
CONTINUOUS
 10
163.597285497
 20
184.431362712
 11
166.797285497
 21
175.713564825
  0
LINE
  8
1
 62
4
  6
CONTINUOUS
 10
166.797285497
 20
184.431362712
 11
163.597285497
 21
175.713564825
  0
LINE
  8
30
 62
7
  6
CONTINUOUS
 10
145.597285497
 20
170.272463768
 11
145.797285497
 21
170.072463768
  0
LINE
  8
30
 62
7
  6
CONTINUOUS
 10
170.397285497
 20
190.072463768
 11
170.397285497
 21
170.072463768
  0
LINE
  8
30
 62
7
  6
CONTINUOUS
 10
145.797285497
 20
190.072463768
 11
170.397285497
 21
190.072463768
  0
LINE
  8
1
 62
7
  6
CONTINUOUS
 10
142.997285497
 20
182.344027106
 11
142.997285497
 21
177.800900430
  0
LINE
  8
1
 62
4
  6
CONTINUOUS
 10
142.997285497
 20
182.344027106
 11
140.597285497
 21
177.800900430
  0
LINE
  8
1
 62
7
  6
CONTINUOUS
 10
330.224332702
 20
161.265837790
 11
331.263891156
 21
156.375099787
  0
LINE
  8
1
 62
7
  6
CONTINUOUS
 10
322.410718450
 20
171.572463768
 11
324.844520898
 21
160.122323491
  0
LINE
  8
1
 62
7
  6
CONTINUOUS
 10
315.239456529
 20
151.520108064
 11
315.931498447
 21
154.337598060
  0
LINE
  8
1
 62
1
  6
CENTER
 10
240.297285497
 20
178.159050610
 11
240.297285497
 21
122.149529776
  0
LINE
  8
1
 62
7
  6
CONTINUOUS
 10
324.110910197
 20
159.966389723
 11
325.150468651
 21
155.075651719
  0
LINE
  8
1
 62
7
  6
CONTINUOUS
 10
305.870631100
 20
153.511513384
 11
306.384395772
 21
156.366897379
  0
ARC
  8
1
 62
7
  6
CONTINUOUS
 10
240.297285496
 20
142.524530314
 40
10.625000000
 50
64.942384582
 51
115.057615418
  0
LINE
  8
1
 62
7
  6
CONTINUOUS
 10
235.797285496
 20
125.149529776
 11
235.797285496
 21
127.149529776
  0
LINE
  8
1
 62
1
  6
CENTER
 10
322.677874357
 20
168.872673740
 11
320.297285497
 21
180.072463768
  0
ARC
  8
1
 62
7
  6
CONTINUOUS
 10
320.297285497
 20
180.072463768
 40
9.450000000
 50
257.696846312
 51
283.819219294
  0
LINE
  8
1
 62
1
  6
CENTER
 10
304.109781289
 20
122.193234574
 11
315.248025916
 21
174.594555620
  0
LINE
  8
2
 62
7
  6
CONTINUOUS
 10
307.131844780
 20
156.852296441
 11
315.446099386
 21
155.085047069
  0
LINE
  8
1
 62
7
  6
CONTINUOUS
 10
314.284825739
 20
160.443586377
 11
313.245267284
 21
155.552848373
  0
LINE
  8
1
 62
7
  6
CONTINUOUS
 10
232.297285496
 20
152.149530314
 11
232.297285496
 21
143.173336867
  0
ARC
  8
1
 62
7
  6
CONTINUOUS
 10
320.297285497
 20
180.072463768
 40
9.450000000
 50
295.911393746
 51
244.088606254
  0
LINE
  8
1
 62
1
  6
CENTER
 10
320.297285497
 20
191.522463768
 11
320.297285497
 21
168.622463768
  0
LINE
  8
1
 62
7
  6
CONTINUOUS
 10
234.047285496
 20
153.149530314
 11
246.547285496
 21
153.149530314
  0
LINE
  8
1
 62
1
  6
CENTER
 10
331.747285497
 20
180.072463768
 11
308.847285497
 21
180.072463768
  0
LINE
  8
2
 62
7
  6
CONTINUOUS
 10
306.384395772
 20
156.366897379
 11
315.931498447
 21
154.337598060
  0
LINE
  8
1
 62
7
  6
CONTINUOUS
 10
315.931498447
 20
154.337598060
 11
315.446099386
 21
155.085047069
  0
LINE
  8
1
 62
7
  6
CONTINUOUS
 10
247.297285496
 20
127.649529776
 11
233.297285496
 21
127.649529776
  0
LINE
  8
1
 62
7
  6
CONTINUOUS
 10
235.797285496
 20
142.994829776
 11
235.797285496
 21
152.149530314
  0
ARC
  8
1
 62
7
  6
CONTINUOUS
 10
234.153934092
 20
143.845131693
 40
1.850301917
 50
220.317900462
 51
332.642077288
  0
LINE
  8
1
 62
7
  6
CONTINUOUS
 10
248.297285496
 20
143.149530314
 11
247.297285496
 21
141.994829776
  0
LINE
  8
1
 62
7
  6
CONTINUOUS
 10
232.297285496
 20
143.173336867
 11
233.297365357
 21
141.994829776
  0
LINE
  8
1
 62
7
  6
CONTINUOUS
 10
246.297285496
 20
125.149529776
 11
234.297285496
 21
125.149529776
  0
LINE
  8
1
 62
7
  6
CONTINUOUS
 10
236.547285495
 20
176.159050610
 11
236.547285495
 21
161.679530314
  0
LINE
  8
1
 62
7
  6
CONTINUOUS
 10
244.547285495
 20
161.679530314
 11
236.047285495
 21
161.679530314
  0
LINE
  8
1
 62
7
  6
CONTINUOUS
 10
236.047285495
 20
161.679530314
 11
236.047285495
 21
156.679530314
  0
LINE
  8
1
 62
7
  6
CONTINUOUS
 10
244.547285495
 20
161.679530314
 11
244.547285495
 21
156.679530314
  0
LINE
  8
1
 62
7
  6
CONTINUOUS
 10
238.297285495
 20
161.679530314
 11
238.297285495
 21
156.679530314
  0
LINE
  8
2
 62
1
  6
CONTINUOUS
 10
145.597285497
 20
186.972463768
 11
145.397285497
 21
186.972463768
  0
LINE
  8
2
 62
7
  6
CONTINUOUS
 10
145.597285497
 20
187.272463768
 11
145.397285497
 21
187.272463768
  0
LINE
  8
1
 62
7
  6
CONTINUOUS
 10
244.047285495
 20
176.159050610
 11
244.047285495
 21
161.679530314
  0
LINE
  8
1
 62
1
  6
CONTINUOUS
 10
236.015025919
 20
153.149530314
 11
235.908454151
 21
156.540698970
  0
LINE
  8
1
 62
1
  6
CONTINUOUS
 10
244.579545072
 20
153.149530314
 11
244.686116840
 21
156.540698970
  0
LINE
  8
1
 62
7
  6
CONTINUOUS
 10
236.047285495
 20
156.679530314
 11
235.417090181
 21
156.049335000
  0
LINE
  8
1
 62
7
  6
CONTINUOUS
 10
245.177480810
 20
156.049335000
 11
244.547285495
 21
156.679530314
  0
LINE
  8
1
 62
7
  6
CONTINUOUS
 10
244.797285496
 20
127.149529776
 11
244.797285496
 21
125.149529776
  0
LINE
  8
1
 62
7
  6
CONTINUOUS
 10
248.297285496
 20
152.149530314
 11
248.297285496
 21
143.149530314
  0
LINE
  8
2
 62
7
  6
CONTINUOUS
 10
145.597285497
 20
172.872463768
 11
145.397285497
 21
172.872463768
  0
LINE
  8
2
 62
1
  6
CONTINUOUS
 10
145.597285497
 20
173.172463768
 11
145.397285497
 21
173.172463768
  0
LINE
  8
1
 62
7
  6
CONTINUOUS
 10
234.047285496
 20
153.149530314
 11
232.297285496
 21
152.149530314
  0
LINE
  8
1
 62
7
  6
CONTINUOUS
 10
234.297285496
 20
124.149529776
 11
246.297285496
 21
124.149529776
  0
LINE
  8
1
 62
1
  6
CENTER
 10
317.916696637
 20
168.872673740
 11
320.297285497
 21
180.072463768
  0
LINE
  8
1
 62
7
  6
CONTINUOUS
 10
246.547285496
 20
153.149530314
 11
248.297285496
 21
152.149530314
  0
LINE
  8
1
 62
7
  6
CONTINUOUS
 10
234.297285496
 20
125.149529776
 11
234.297285496
 21
124.149529776
  0
LINE
  8
1
 62
7
  6
CONTINUOUS
 10
246.297285496
 20
124.149529776
 11
246.297285496
 21
125.149529776
  0
LINE
  8
1
 62
7
  6
CONTINUOUS
 10
244.797285496
 20
142.994829776
 11
244.797285496
 21
152.149530314
  0
ARC
  8
1
 62
7
  6
CONTINUOUS
 10
234.047285496
 20
151.118280314
 40
2.031250000
 50
30.510237406
 51
90.000000000
  0
LINE
  8
2
 62
7
  6
CONTINUOUS
 10
235.417090181
 20
156.049335000
 11
245.177480810
 21
156.049335000
  0
LINE
  8
1
 62
7
  6
CONTINUOUS
 10
242.297285495
 20
161.679530314
 11
242.297285495
 21
156.679530314
  0
LINE
  8
1
 62
1
  6
CENTER
 10
336.190381488
 20
123.578316348
 11
325.346545079
 21
174.594555620
  0
LINE
  8
1
 62
7
  6
CONTINUOUS
 10
307.131844780
 20
156.852296441
 11
306.384395772
 21
156.366897379
  0
LINE
  8
1
 62
1
  6
CONTINUOUS
 10
314.743725745
 20
151.625478895
 11
315.553032273
 21
154.920384862
  0
DIMENSION
  8
1
 62
4
  6
CONTINUOUS
  2
*D91
 70
0
 10
276.941842335
 20
130.012639453
 11
282.969202304
 21
158.369138662
 14
298.656719064
 24
125.396999921
 13
320.297285497
 23
180.072463768
 50
78.000000007
  0
LINE
  8
1
 62
1
  6
CONTINUOUS
 10
306.366361884
 20
153.406142553
 11
306.967182574
 21
156.745363554
  0
LINE
  8
1
 62
7
  6
CONTINUOUS
 10
318.439437693
 20
171.572463768
 11
315.996584040
 21
160.079740918
  0
DIMENSION
  8
1
 62
4
  6
CONTINUOUS
  2
*D94
 70
0
 10
363.358320447
 20
131.397721231
 11
357.478164584
 21
159.061679550
 14
341.643443711
 24
126.782081694
 13
320.297285497
 23
180.072463768
 50
102.000000000
  0
LINE
  8
1
 62
7
  6
CONTINUOUS
 10
310.372235336
 20
161.275233140
 11
309.332676881
 21
156.384495136
  0
LINE
  8
1
 62
7
  6
CONTINUOUS
 10
316.485657840
 20
159.975785072
 11
315.446099386
 21
155.085047069
  0
LINE
  8
1
 62
7
  6
CONTINUOUS
 10
145.397285497
 20
189.447463768
 11
145.297285497
 21
189.547463768
  0
LINE
  8
1
 62
7
  6
CONTINUOUS
 10
308.171403234
 20
161.743034444
 11
307.131844780
 21
156.852296441
  0
LINE
  8
1
 62
7
  6
CONTINUOUS
 10
316.485657840
 20
159.975785072
 11
308.171403234
 21
161.743034444
  0
LINE
  8
1
 62
7
  6
CONTINUOUS
 10
311.730644750
 20
176.083082074
 11
308.660477034
 21
161.639078599
  0
LINE
  8
1
 62
7
  6
CONTINUOUS
 10
332.425164803
 20
161.733639095
 11
333.464723258
 21
156.842901091
  0
DIMENSION
  8
1
 62
4
  6
CONTINUOUS
  2
*D102
 70
5
 10
334.846945732
 20
111.621694143
 11
327.612187413
 21
110.475820995
 13
320.297285497
 23
168.622463768
 14
322.677874357
 24
168.872673740
 15
320.297285497
 25
180.072463768
  0
LINE
  8
1
 62
7
  6
CONTINUOUS
 10
328.685449683
 20
175.720314691
 11
331.691554103
 21
161.577705327
  0
LINE
  8
1
 62
7
  6
CONTINUOUS
 10
143.197285497
 20
189.347463768
 11
143.397285497
 21
189.547463768
  0
LINE
  8
1
 62
1
  6
CONTINUOUS
 10
325.870590776
 20
151.543824666
 11
325.043535764
 21
154.910989513
  0
LINE
  8
1
 62
7
  6
CONTINUOUS
 10
145.297285497
 20
189.547463768
 11
143.397285497
 21
189.547463768
  0
LINE
  8
1
 62
7
  6
CONTINUOUS
 10
145.397285497
 20
170.697463768
 11
145.397285497
 21
189.447463768
  0
LINE
  8
1
 62
1
  6
CONTINUOUS
 10
334.243382441
 20
153.323516474
 11
333.629385464
 21
156.735968204
  0
LINE
  8
1
 62
7
  6
CONTINUOUS
 10
324.665069590
 20
154.328202711
 11
334.212172266
 21
156.357502030
  0
LINE
  8
2
 62
7
  6
CONTINUOUS
 10
325.150468651
 20
155.075651719
 11
333.464723258
 21
156.842901091
  0
LINE
  8
1
 62
7
  6
CONTINUOUS
 10
325.374859992
 20
151.438453835
 11
324.665069590
 21
154.328202711
  0
LINE
  8
1
 62
7
  6
CONTINUOUS
 10
143.197285497
 20
189.347463768
 11
143.197285497
 21
170.797463768
  0
LINE
  8
1
 62
7
  6
CONTINUOUS
 10
334.739113225
 20
153.428887305
 11
334.212172266
 21
156.357502030
  0
LINE
  8
1
 62
7
  6
CONTINUOUS
 10
324.110910197
 20
159.966389723
 11
332.425164803
 21
161.733639095
  0
LINE
  8
1
 62
7
  6
CONTINUOUS
 10
326.311742299
 20
160.434191027
 11
327.351300753
 21
155.543453023
  0
ARC
  8
1
 62
7
  6
CONTINUOUS
 10
176.331477960
 20
180.072463768
 40
16.743157807
 50
344.909814821
 51
15.090185179
  0
ARC
  8
1
 62
7
  6
CONTINUOUS
 10
205.463093034
 20
180.072463768
 40
16.743157807
 50
164.909814821
 51
195.090185179
  0
LINE
  8
1
 62
7
  6
CONTINUOUS
 10
192.497285497
 20
184.431362712
 11
192.497285497
 21
175.713564825
  0
DIMENSION
  8
1
 62
4
  6
CONTINUOUS
  2
*D119
 70
0
 10
305.747625269
 20
111.621694141
 11
297.148253255
 21
113.449547088
 14
317.916696637
 24
168.872673740
 13
304.109781289
 23
122.193234574
 50
168.000000007
  0
DIMENSION
  8
1
 62
4
  6
CONTINUOUS
  2
*D120
 70
5
 10
320.297285497
 20
110.092463230
 11
312.982383581
 21
110.475820995
 13
317.916696637
 23
168.872673740
 14
320.297285497
 24
168.622463768
 15
320.297285497
 25
180.072463768
  0
LINE
  8
1
 62
7
  6
CONTINUOUS
 10
325.150468651
 20
155.075651719
 11
325.414507910
 21
155.131774996
  0
LINE
  8
1
 62
7
  6
CONTINUOUS
 10
325.150468651
 20
155.075651719
 11
324.665069590
 21
154.328202711
  0
LINE
  8
1
 62
7
  6
CONTINUOUS
 10
145.297285497
 20
170.597463768
 11
143.397285497
 21
170.597463768
  0
LINE
  8
1
 62
7
  6
CONTINUOUS
 10
334.202417314
 20
156.363836969
 11
333.464723258
 21
156.842901091
  0
LINE
  8
1
 62
7
  6
CONTINUOUS
 10
143.197285497
 20
170.797463768
 11
143.397285497
 21
170.597463768
  0
LINE
  8
1
 62
7
  6
CONTINUOUS
 10
246.797285496
 20
127.149529776
 11
247.297285496
 21
127.649529776
  0
LINE
  8
1
 62
7
  6
CONTINUOUS
 10
233.297285496
 20
127.649529776
 11
233.797285496
 21
127.149529776
  0
LINE
  8
1
 62
7
  6
CONTINUOUS
 10
247.297285496
 20
141.994829776
 11
247.297285496
 21
127.649529776
  0
LINE
  8
1
 62
7
  6
CONTINUOUS
 10
246.797285496
 20
127.149529776
 11
233.797285496
 21
127.149529776
  0
LINE
  8
1
 62
7
  6
CONTINUOUS
 10
233.297285496
 20
142.003089007
 11
233.297285496
 21
127.649529776
  0
ARC
  8
1
 62
7
  6
CONTINUOUS
 10
240.297285496
 20
152.619829776
 40
10.625000000
 50
244.942384582
 51
295.057615418
  0
LINE
  8
1
 62
7
  6
CONTINUOUS
 10
145.397285497
 20
170.697463768
 11
145.297285497
 21
170.597463768
  0
LINE
  8
2
 62
7
  6
CONTINUOUS
 10
236.047285495
 20
156.679530314
 11
244.547285495
 21
156.679530314
  0
LINE
  8
1
 62
7
  6
CONTINUOUS
 10
235.508220215
 20
153.149530314
 11
235.417090181
 21
156.049335000
  0
LINE
  8
1
 62
7
  6
CONTINUOUS
 10
245.086350776
 20
153.149530314
 11
245.177480810
 21
156.049335000
  0
LINE
  8
1
 62
4
  6
PHANTOM
 10
246.297285497
 20
188.572463768
 11
246.297285497
 21
189.222463768
  0
ARC
  8
1
 62
7
  6
CONTINUOUS
 10
246.547285496
 20
151.118280314
 40
2.031250000
 50
90.000000000
 51
149.489762594
  0
LINE
  8
1
 62
7
  6
CONTINUOUS
 10
247.297285496
 20
141.994829776
 11
233.297365357
 21
141.994829776
  0
ARC
  8
1
 62
7
  6
CONTINUOUS
 10
246.447107290
 20
143.855785752
 40
1.860955976
 50
207.557708232
 51
319.106605351
  0
DIMENSION
  8
1
 62
4
  6
CONTINUOUS
  2
*D140
 70
1
 10
258.297285497
 20
170.622463768
 11
258.297285497
 21
180.072463768
 14
245.997285497
 24
170.622463768
 13
245.997285497
 23
189.522463768
 50
90.000000000
  0
LINE
  8
1
 62
7
  6
CONTINUOUS
 10
236.297285497
 20
189.522463768
 11
234.297285497
 21
189.522463768
  0
LINE
  8
1
 62
7
  6
CONTINUOUS
 10
236.297285497
 20
170.622463768
 11
234.297285497
 21
170.622463768
  0
LINE
  8
1
 62
7
  6
CONTINUOUS
 10
246.297285497
 20
171.572463768
 11
246.297285497
 21
188.572463768
  0
ARC
  8
1
 62
7
  6
CONTINUOUS
 10
233.847285497
 20
188.772463768
 40
0.450000000
 50
0.000000000
 51
56.251011407
  0
LINE
  8
1
 62
7
  6
CONTINUOUS
 10
236.297285497
 20
188.572463768
 11
236.297285497
 21
189.522463768
  0
LINE
  8
1
 62
7
  6
CONTINUOUS
 10
246.297285497
 20
171.572463768
 11
244.097285497
 21
171.572463768
  0
LINE
  8
1
 62
7
  6
CONTINUOUS
 10
236.297285497
 20
171.572463768
 11
236.297285497
 21
170.622463768
  0
DIMENSION
  8
1
 62
4
  6
CONTINUOUS
  2
*D148
 70
0
 10
338.563906614
 20
112.411758567
 11
343.695087803
 21
113.502424798
 14
336.190381488
 24
123.578316348
 13
322.677874357
 23
168.872673740
 50
191.999999995
  0
LINE
  8
1
 62
7
  6
CONTINUOUS
 10
324.426752775
 20
188.572463768
 11
316.167818219
 21
188.572463768
  0
LINE
  8
1
 62
7
  6
CONTINUOUS
 10
316.167818219
 20
171.572463768
 11
324.426752775
 21
171.572463768
  0
LINE
  8
1
 62
7
  6
CONTINUOUS
 10
244.097285497
 20
176.159050610
 11
236.497285497
 21
176.159050610
  0
TEXT
  8
1
 62
4
  6
CONTINUOUS
 72
5
 10
353.490714546
 20
121.271869877
 40
3.200000000
  1
（給気）
 41
0.722783070
 11
364.001483776
 21
121.271869877
  0
ARC
  8
1
 62
7
  6
CONTINUOUS
 10
129.525782882
 20
176.649814037
 40
1.000000000
 50
180.000000000
 51
240.000000000
  0
LINE
  8
1
 62
7
  6
CONTINUOUS
 10
139.225782882
 20
174.172463768
 11
135.675782882
 21
174.172463768
  0
LINE
  8
1
 62
7
  6
CONTINUOUS
 10
244.097285497
 20
171.572463768
 11
244.097285497
 21
176.159050610
  0
TEXT
  8
1
 62
4
  6
CONTINUOUS
 72
5
 10
276.047723885
 20
121.271869877
 40
3.200000000
  1
（排気）
 41
0.722783070
 11
286.558493116
 21
121.271869877
  0
LINE
  8
1
 62
7
  6
CONTINUOUS
 10
236.497285497
 20
171.572463768
 11
236.297285497
 21
171.572463768
  0
LINE
  8
1
 62
4
  6
PHANTOM
 10
246.297285497
 20
170.922463768
 11
245.997285497
 21
170.622463768
  0
ARC
  8
1
 62
7
  6
CONTINUOUS
 10
139.225782882
 20
185.172463768
 40
0.800000000
 50
0.000000000
 51
90.000000000
  0
ARC
  8
1
 62
7
  6
CONTINUOUS
 10
132.084628609
 20
184.972463768
 40
1.000000000
 50
90.000000000
 51
120.000000000
  0
LINE
  8
1
 62
7
  6
CONTINUOUS
 10
236.497285497
 20
171.572463768
 11
236.497285497
 21
176.159050610
  0
DIMENSION
  8
1
 62
4
  6
CONTINUOUS
  2
*D162
 70
0
 10
300.173357660
 20
137.341957867
 11
289.959072028
 21
139.513071301
 14
299.748783792
 24
135.344494864
 13
313.493980381
 23
132.674279770
 50
348.000000000
  0
LINE
  8
1
 62
7
  6
CONTINUOUS
 10
132.375782882
 20
185.972463768
 11
132.084628609
 21
185.972463768
  0
LINE
  8
1
 62
7
  6
CONTINUOUS
 10
132.525782882
 20
178.087048118
 11
132.675782882
 21
177.937048118
  0
LINE
  8
1
 62
7
  6
CONTINUOUS
 10
135.525782882
 20
185.822463768
 11
135.675782882
 21
185.972463768
  0
ARC
  8
1
 62
7
  6
CONTINUOUS
 10
332.266048324
 20
142.040852312
 40
10.625000000
 50
76.942384582
 51
127.057615418
  0
ARC
  8
1
 62
7
  6
CONTINUOUS
 10
338.067281141
 20
144.809037383
 40
2.031250000
 50
222.510237406
 51
275.560735571
  0
ARC
  8
1
 62
7
  6
CONTINUOUS
 10
330.167117543
 20
151.915545259
 40
10.625000000
 50
256.942384582
 51
307.057615418
  0
ARC
  8
1
 62
7
  6
CONTINUOUS
 10
324.365884726
 20
149.147360188
 40
2.031250000
 50
42.510237406
 51
102.000000000
  0
LINE
  8
1
 62
7
  6
CONTINUOUS
 10
338.090079105
 20
153.118816495
 11
339.961284323
 21
144.315488089
  0
LINE
  8
1
 62
7
  6
CONTINUOUS
 10
327.766603364
 20
141.565271993
 11
325.863234096
 21
150.519920360
  0
LINE
  8
15
 62
7
  6
CONTINUOUS
 10
128.525782882
 20
178.572463768
 11
118.725782882
 21
178.572463768
  0
LINE
  8
1
 62
7
  6
CONTINUOUS
 10
340.915752793
 20
130.205598297
 11
329.177981584
 21
127.710658007
  0
LINE
  8
1
 62
7
  6
CONTINUOUS
 10
340.530634838
 20
129.612568651
 11
340.915752793
 21
130.205598297
  0
LINE
  8
1
 62
4
  6
PHANTOM
 10
245.997285497
 20
189.522463768
 11
236.297285497
 21
189.522463768
  0
LINE
  8
1
 62
7
  6
CONTINUOUS
 10
329.177981584
 20
127.710658007
 11
329.771011230
 21
127.325540052
  0
LINE
  8
1
 62
7
  6
CONTINUOUS
 10
331.164982212
 20
125.577156542
 11
330.749158830
 21
127.533451743
  0
LINE
  8
1
 62
7
  6
CONTINUOUS
 10
322.439717494
 20
149.792229442
 11
324.305973050
 21
141.012187358
  0
LINE
  8
1
 62
7
  6
CONTINUOUS
 10
336.170409113
 20
153.733118637
 11
338.090079105
 21
153.118816495
  0
LINE
  8
1
 62
7
  6
CONTINUOUS
 10
312.100328792
 20
126.117664543
 11
298.406262382
 21
129.028428214
  0
LINE
  8
1
 62
7
  6
CONTINUOUS
 10
311.507299146
 20
125.732546588
 11
312.100328792
 21
126.117664543
  0
LINE
  8
1
 62
7
  6
CONTINUOUS
 10
298.406262382
 20
129.028428214
 11
298.791380337
 21
128.435398569
  0
LINE
  8
1
 62
7
  6
CONTINUOUS
 10
300.331852156
 20
126.063279985
 11
300.747675538
 21
128.019575187
  0
LINE
  8
1
 62
7
  6
CONTINUOUS
 10
323.943564104
 20
151.134222502
 11
322.439717494
 21
149.792229442
  0
ARC
  8
15
 62
7
  6
CONTINUOUS
 10
118.725782882
 20
181.372463768
 40
0.200000000
 50
90.000000000
 51
180.000000000
  0
LINE
  8
15
 62
7
  6
CONTINUOUS
 10
118.725782882
 20
181.572463768
 11
128.525782882
 21
181.572463768
  0
ARC
  8
1
 62
7
  6
CONTINUOUS
 10
308.345982100
 20
142.122992466
 40
10.625000000
 50
52.942384582
 51
103.057615418
  0
LINE
  8
1
 62
4
  6
CONTINUOUS
 10
135.525782882
 20
182.057879419
 11
132.525782882
 21
178.087048118
  0
LINE
  8
15
 62
7
  6
CONTINUOUS
 10
118.525782882
 20
181.372463768
 11
118.525782882
 21
178.772463768
  0
LINE
  8
1
 62
7
  6
CONTINUOUS
 10
338.245064863
 20
142.770197146
 11
326.507371770
 21
140.275273460
  0
LINE
  8
1
 62
7
  6
CONTINUOUS
 10
326.505576463
 20
140.283335603
 11
329.177981584
 21
127.710658007
  0
ARC
  8
15
 62
7
  6
CONTINUOUS
 10
118.725782882
 20
178.772463768
 40
0.200000000
 50
180.000000000
 51
270.000000000
  0
LINE
  8
1
 62
7
  6
CONTINUOUS
 10
340.530634838
 20
129.612568651
 11
329.771011230
 21
127.325540052
  0
LINE
  8
1
 62
4
  6
PHANTOM
 10
245.997285497
 20
189.522463768
 11
246.297285497
 21
189.222463768
  0
LINE
  8
1
 62
7
  6
CONTINUOUS
 10
338.245064863
 20
142.770197146
 11
340.915752793
 21
130.205598297
  0
ARC
  8
1
 62
7
  6
CONTINUOUS
 10
314.638199101
 20
142.146536931
 40
1.860955976
 50
195.557708232
 51
307.106605351
  0
LINE
  8
1
 62
7
  6
CONTINUOUS
 10
315.082884370
 20
140.149485320
 11
301.388896076
 21
143.060232387
  0
ARC
  8
1
 62
7
  6
CONTINUOUS
 10
316.246145697
 20
149.229500342
 40
2.031250000
 50
78.000000000
 51
137.489762594
  0
LINE
  8
1
 62
4
  6
PHANTOM
 10
245.997285497
 20
170.622463768
 11
236.297285497
 21
170.622463768
  0
LINE
  8
1
 62
4
  6
PHANTOM
 10
246.297285497
 20
170.922463768
 11
246.297285497
 21
171.572463768
  0
ARC
  8
1
 62
7
  6
CONTINUOUS
 10
310.444912880
 20
151.997685413
 40
10.625000000
 50
232.942384582
 51
283.057615418
  0
LINE
  8
1
 62
7
  6
CONTINUOUS
 10
301.390535151
 20
143.068327738
 11
298.406262382
 21
129.028428214
  0
LINE
  8
1
 62
7
  6
CONTINUOUS
 10
311.507299146
 20
125.732546588
 11
298.791380337
 21
128.435398569
  0
LINE
  8
1
 62
7
  6
CONTINUOUS
 10
315.082884370
 20
140.149485320
 11
312.100328792
 21
126.117664543
  0
DIMENSION
  8
1
 62
4
  6
CONTINUOUS
  2
*D205
 70
1
 10
112.525782882
 20
174.172463768
 11
112.525782882
 21
180.072463768
 14
132.084628609
 24
174.172463768
 13
132.084628609
 23
185.972463768
 50
90.000000000
  0
ARC
  8
1
 62
7
  6
CONTINUOUS
 10
304.019300688
 20
151.828396478
 40
2.031250000
 50
18.510237406
 51
78.000000000
  0
ARC
  8
1
 62
7
  6
CONTINUOUS
 10
233.847285497
 20
171.372463768
 40
0.450000000
 50
303.748988593
 51
0.000000000
  0
LINE
  8
1
 62
7
  6
CONTINUOUS
 10
312.845427059
 20
141.647412147
 11
314.748796327
 21
150.602060515
  0
LINE
  8
1
 62
7
  6
CONTINUOUS
 10
234.297285497
 20
189.522463768
 11
234.297285497
 21
170.622463768
  0
LINE
  8
1
 62
7
  6
CONTINUOUS
 10
189.297285497
 20
184.431362712
 11
189.297285497
 21
175.713564825
  0
LINE
  8
1
 62
7
  6
CONTINUOUS
 10
189.297285497
 20
175.713564825
 11
192.497285497
 21
175.713564825
  0
LINE
  8
1
 62
7
  6
CONTINUOUS
 10
189.297285497
 20
184.431362712
 11
192.497285497
 21
184.431362712
  0
LINE
  8
1
 62
7
  6
CONTINUOUS
 10
310.394490273
 20
122.902059631
 11
310.602401964
 21
123.880207232
  0
LINE
  8
1
 62
7
  6
CONTINUOUS
 10
298.864630755
 20
126.375147522
 11
298.656719064
 21
125.396999921
  0
LINE
  8
1
 62
7
  6
CONTINUOUS
 10
316.668466319
 20
151.216362656
 11
318.172312930
 21
149.874369597
  0
LINE
  8
1
 62
7
  6
CONTINUOUS
 10
298.656719064
 20
125.396999921
 11
310.394490273
 21
122.902059631
  0
LINE
  8
1
 62
7
  6
CONTINUOUS
 10
304.441621310
 20
153.815258792
 11
302.521951318
 21
153.200956650
  0
LINE
  8
1
 62
7
  6
CONTINUOUS
 10
131.584628609
 20
185.338489172
 11
131.584628609
 21
174.806438364
  0
LINE
  8
1
 62
7
  6
CONTINUOUS
 10
135.675782882
 20
174.172463768
 11
135.675782882
 21
185.972463768
  0
LINE
  8
1
 62
7
  6
CONTINUOUS
 10
132.375782882
 20
174.172463768
 11
132.375782882
 21
185.972463768
  0
LINE
  8
1
 62
7
  6
CONTINUOUS
 10
135.375782882
 20
177.937048118
 11
135.525782882
 21
178.087048118
  0
LINE
  8
1
 62
7
  6
CONTINUOUS
 10
135.525782882
 20
182.057879419
 11
135.375782882
 21
182.207879419
  0
LINE
  8
1
 62
7
  6
CONTINUOUS
 10
132.675782882
 20
174.572463768
 11
132.675782882
 21
177.937048118
  0
LINE
  8
1
 62
7
  6
CONTINUOUS
 10
135.375782882
 20
174.572463768
 11
135.375782882
 21
177.937048118
  0
LINE
  8
1
 62
7
  6
CONTINUOUS
 10
132.675782882
 20
182.207879419
 11
135.375782882
 21
182.207879419
  0
LINE
  8
1
 62
7
  6
CONTINUOUS
 10
132.675782882
 20
177.937048118
 11
135.375782882
 21
177.937048118
  0
LINE
  8
1
 62
4
  6
CONTINUOUS
 10
132.525782882
 20
182.057879419
 11
135.525782882
 21
178.087048118
  0
LINE
  8
1
 62
7
  6
CONTINUOUS
 10
132.675782882
 20
182.207879419
 11
132.675782882
 21
185.572463768
  0
LINE
  8
1
 62
7
  6
CONTINUOUS
 10
135.375782882
 20
182.207879419
 11
135.375782882
 21
185.572463768
  0
LINE
  8
1
 62
7
  6
CONTINUOUS
 10
139.225782882
 20
185.972463768
 11
139.225782882
 21
174.172463768
  0
LINE
  8
1
 62
7
  6
CONTINUOUS
 10
128.525782882
 20
176.649814037
 11
128.525782882
 21
183.495113499
  0
LINE
  8
1
 62
7
  6
CONTINUOUS
 10
132.084628609
 20
185.972463768
 11
132.084628609
 21
174.172463768
  0
LINE
  8
1
 62
7
  6
CONTINUOUS
 10
135.525782882
 20
174.322463768
 11
135.675782882
 21
174.172463768
  0
LINE
  8
1
 62
7
  6
CONTINUOUS
 10
129.025782882
 20
183.861138903
 11
129.025782882
 21
176.283788634
  0
LINE
  8
1
 62
7
  6
CONTINUOUS
 10
135.525782882
 20
185.822463768
 11
135.525782882
 21
174.322463768
  0
LINE
  8
1
 62
7
  6
CONTINUOUS
 10
132.375782882
 20
174.172463768
 11
132.084628609
 21
174.172463768
  0
ARC
  8
1
 62
7
  6
CONTINUOUS
 10
132.084628609
 20
175.172463768
 40
1.000000000
 50
240.000000000
 51
270.000000000
  0
LINE
  8
1
 62
7
  6
CONTINUOUS
 10
132.525782882
 20
174.322463768
 11
132.525782882
 21
185.822463768
  0
LINE
  8
1
 62
7
  6
CONTINUOUS
 10
129.025782882
 20
175.783788634
 11
131.584628609
 21
174.306438364
  0
LINE
  8
1
 62
7
  6
CONTINUOUS
 10
139.225782882
 20
185.972463768
 11
135.675782882
 21
185.972463768
  0
LINE
  8
1
 62
7
  6
CONTINUOUS
 10
140.025782882
 20
185.172463768
 11
140.025782882
 21
174.972463768
  0
LINE
  8
1
 62
7
  6
CONTINUOUS
 10
132.525782882
 20
185.572463768
 11
135.525782882
 21
185.572463768
  0
LINE
  8
1
 62
7
  6
CONTINUOUS
 10
132.375782882
 20
185.972463768
 11
132.525782882
 21
185.822463768
  0
LINE
  8
1
 62
7
  6
CONTINUOUS
 10
318.172312930
 20
149.874369597
 11
316.301107712
 21
141.071041190
  0
LINE
  8
1
 62
7
  6
CONTINUOUS
 10
309.551003945
 20
126.148369970
 11
309.135180563
 21
124.192074768
  0
LINE
  8
1
 62
7
  6
CONTINUOUS
 10
310.602401964
 20
123.880207232
 11
298.864630755
 21
126.375147522
  0
LINE
  8
1
 62
7
  6
CONTINUOUS
 10
300.655695761
 20
144.420914566
 11
301.388896076
 21
143.060232387
  0
ARC
  8
1
 62
7
  6
CONTINUOUS
 10
150.631477960
 20
180.072463768
 40
16.743157807
 50
344.909814821
 51
15.090185179
  0
ARC
  8
1
 62
7
  6
CONTINUOUS
 10
179.763093034
 20
180.072463768
 40
16.743157807
 50
164.909814821
 51
195.090185179
  0
LINE
  8
30
 62
7
  6
CONTINUOUS
 10
145.597285497
 20
170.272463768
 11
145.597285497
 21
189.872463768
  0
LINE
  8
1
 62
7
  6
CONTINUOUS
 10
140.597285497
 20
182.344027106
 11
142.997285497
 21
182.344027106
  0
LINE
  8
1
 62
7
  6
CONTINUOUS
 10
140.597285497
 20
177.800900430
 11
142.997285497
 21
177.800900430
  0
LINE
  8
1
 62
7
  6
CONTINUOUS
 10
166.797285497
 20
184.431362712
 11
166.797285497
 21
175.713564825
  0
LINE
  8
1
 62
7
  6
CONTINUOUS
 10
163.597285497
 20
184.431362712
 11
163.597285497
 21
175.713564825
  0
LINE
  8
1
 62
7
  6
CONTINUOUS
 10
163.597285497
 20
175.713564825
 11
166.797285497
 21
175.713564825
  0
LINE
  8
1
 62
7
  6
CONTINUOUS
 10
163.597285497
 20
184.431362712
 11
166.797285497
 21
184.431362712
  0
LINE
  8
1
 62
7
  6
CONTINUOUS
 10
140.597285497
 20
182.344027106
 11
140.597285497
 21
177.800900430
  0
LINE
  8
30
 62
7
  6
CONTINUOUS
 10
145.597285497
 20
189.872463768
 11
145.797285497
 21
190.072463768
  0
LINE
  8
1
 62
7
  6
CONTINUOUS
 10
316.301107712
 20
141.071041190
 11
315.082884370
 21
140.149485320
  0
ARC
  8
1
 62
7
  6
CONTINUOUS
 10
302.611446130
 20
144.692010114
 40
1.850301917
 50
208.317900462
 51
320.642077288
  0
LINE
  8
1
 62
7
  6
CONTINUOUS
 10
304.042098653
 20
143.518617365
 11
305.945467920
 21
152.473265732
  0
LINE
  8
1
 62
7
  6
CONTINUOUS
 10
304.441621310
 20
153.815258792
 11
316.668466319
 21
151.216362656
  0
LINE
  8
1
 62
7
  6
CONTINUOUS
 10
302.521951318
 20
153.200956650
 11
300.655695761
 21
144.420914566
  0
LINE
  8
1
 62
7
  6
CONTINUOUS
 10
341.643443711
 20
126.782081694
 11
341.435532020
 21
127.760229295
  0
LINE
  8
1
 62
7
  6
CONTINUOUS
 10
329.697760811
 20
125.265289005
 11
329.905672502
 21
124.287141405
  0
LINE
  8
1
 62
7
  6
CONTINUOUS
 10
336.569931771
 20
143.436477211
 11
334.666562503
 21
152.391125578
  0
LINE
  8
1
 62
7
  6
CONTINUOUS
 10
329.905672502
 20
124.287141405
 11
341.643443711
 21
126.782081694
  0
LINE
  8
1
 62
7
  6
CONTINUOUS
 10
339.552487237
 20
129.404656960
 11
339.968310619
 21
127.448361759
  0
LINE
  8
1
 62
7
  6
CONTINUOUS
 10
341.435532020
 20
127.760229295
 11
329.697760811
 21
125.265289005
  0
ARC
  8
1
 62
7
  6
CONTINUOUS
 10
325.840436132
 20
142.210141247
 40
2.031250000
 50
288.451825822
 51
341.489762594
  0
LINE
  8
1
 62
7
  6
CONTINUOUS
 10
339.961284323
 20
144.315488089
 11
338.245064863
 21
142.770197146
  0
LINE
  8
1
 62
7
  6
CONTINUOUS
 10
324.305973050
 20
141.012187358
 11
326.507371770
 21
140.275273460
  0
ARC
  8
1
 62
7
  6
CONTINUOUS
 10
336.592729735
 20
151.746256323
 40
2.031250000
 50
102.000000000
 51
161.489762594
  0
LINE
  8
1
 62
7
  6
CONTINUOUS
 10
323.943564104
 20
151.134222502
 11
336.170409113
 21
153.733118637
  0
DIMENSION
  8
1
 62
4
  6
CONTINUOUS
  2
*D275
 70
0
 10
339.489910571
 20
136.913658546
 11
347.816100542
 21
138.683444857
 14
339.373800499
 24
137.459913486
 13
327.621261512
 23
135.034450131
 50
191.999999995
  0
DIMENSION
  8
1
 62
4
  6
CONTINUOUS
  2
*D276
 70
1
 10
160.397285497
 20
170.072463768
 11
160.397285497
 21
180.072463768
 14
160.397285497
 24
170.072463768
 13
160.397285497
 23
190.072463768
 50
90.000000000
  0
DIMENSION
  8
1
 62
4
  6
CONTINUOUS
  2
*D277
 70
1
 10
179.847285497
 20
170.072463768
 11
179.847285497
 21
180.072463768
 14
179.847285497
 24
170.072463768
 13
179.847285497
 23
190.072463768
 50
90.000000000
  0
TEXT
  8
1
 62
3
  6
CONTINUOUS
 72
5
 10
167.611534190
 20
122.165529776
 40
4.000000000
  1
ＭＳＳ－２０３０ＲＡ
 41
0.834440244
 11
206.811534190
 21
122.165529776
  0
DIMENSION
  8
1
 62
4
  6
CONTINUOUS
  2
*D279
 70
0
 10
170.397285497
 20
206.072463768
 11
156.797285497
 21
206.072463768
 14
170.397285497
 24
190.072463768
 13
143.197285497
 23
189.347463768
 50
0.000000000
  0
DIMENSION
  8
1
 62
4
  6
CONTINUOUS
  2
*D280
 70
0
 10
234.097285497
 20
206.072463768
 11
202.247285497
 21
206.072463768
 14
234.097285497
 24
189.772463768
 13
170.397285497
 23
190.072463768
 50
0.000000000
  0
DIMENSION
  8
1
 62
4
  6
CONTINUOUS
  2
*D281
 70
0
 10
128.525782882
 20
214.072463768
 11
187.411534190
 21
214.072463768
 14
128.525782882
 24
183.495113499
 13
246.297285497
 23
189.222463768
 50
0.000000000
  0
DIMENSION
  8
1
 62
4
  6
CONTINUOUS
  2
*D282
 70
0
 10
246.297285497
 20
206.072463768
 11
239.452872397
 21
206.072463768
 14
246.297285497
 24
189.222463768
 13
234.097285497
 23
189.772463768
 50
0.000000000
  0
DIMENSION
  8
1
 62
4
  6
CONTINUOUS
  2
*D283
 70
0
 10
143.197285497
 20
206.072463768
 11
135.861534190
 21
206.072463768
 14
143.197285497
 24
189.347463768
 13
128.525782882
 23
183.495113499
 50
0.000000000
  0
LINE
  8
1
 62
7
  6
CONTINUOUS
 10
246.297285497
 20
188.572463768
 11
236.297285497
 21
188.572463768
  0
ENDSEC
  0
EOF
