  0
SECTION
  2
HEADER
  9
$ACADVER
  1
AC1009
  9
$INSBASE
 10
0.000000000
 20
0.000000000
  9
$EXTMIN
 10
-28.396274066
 20
-18.188100572
  9
$EXTMAX
 10
312.359014726
 20
200.069106287
  9
$LIMMIN
 10
-28.396274066
 20
-18.188100572
  9
$LIMMAX
 10
312.359014726
 20
200.069106287
  9
$SNAPBASE
 10
0.000000000
 20
0.000000000
  9
$SNAPANG
 50
0.000000000
  9
$SNAPSTYLE
 70
0
  9
$GRIDMODE
 70
0
  9
$GRIDUNIT
 10
0.000000000
 20
0.000000000
  9
$DIMEXO
 40
0.000000000
  9
$DIMDLI
 40
8.000000000
  9
$DIMDLE
 40
0.000000000
  9
$DIMEXE
 40
1.000000000
  9
$DIMTIH
 70
1
  9
$DIMTOH
 70
1
  9
$DIMTAD
 70
2
  9
$DIMZIN
 70
0
  9
$FILLETRAD
 40
1.000000000
  9
$CHAMFERA
 40
1.000000000
  9
$CHAMFERB
 40
1.000000000
  9
$TDCREATE
 40
2454152.721203704
  9
$TDUPDATE
 40
2454152.721203704
  9
$ANGBASE
 50
0.000000000
  9
$ANGDIR
 70
0
  0
ENDSEC
  0
SECTION
  2
TABLES
  0
TABLE
  2
LTYPE
 70
3
  0
LTYPE
  2
CENTER
 70
64
  3
___ _ ___ _ __
 72
65
 73
4
 40
13.000000000
 49
8.500000000
 49
-1.500000000
 49
1.500000000
 49
-1.500000000
  0
LTYPE
  2
CONTINUOUS
 70
64
  3
______________
 72
65
 73
0
 40
0.000000000
  0
LTYPE
  2
DIVIDE
 70
64
  3
___ . . ___ . 
 72
65
 73
6
 40
12.999999523
 49
5.199999809
 49
-2.599999905
 49
0.000000000
 49
-2.599999905
 49
0.000000000
 49
-2.599999905
  0
ENDTAB
  0
TABLE
  2
LAYER
 70
7
  0
LAYER
  2
1
 70
0
 62
7
  6
CONTINUOUS
  0
LAYER
  2
3
 70
0
 62
7
  6
CONTINUOUS
999
Comment
  0
LAYER
  2
5
 70
0
 62
7
  6
CONTINUOUS
999
Comment
  0
LAYER
  2
15
 70
0
 62
5
  6
CONTINUOUS
999
ﾁｬｯｸ
  0
LAYER
  2
17
 70
0
 62
3
  6
CONTINUOUS
999
226
  0
LAYER
  2
30
 70
0
 62
7
  6
CONTINUOUS
999
111
  0
LAYER
  2
31
 70
0
 62
7
  6
CONTINUOUS
999
m006
  0
LAYER
  2
_CONSTR
 70
0
 62
5
  6
CONTINUOUS
  0
ENDTAB
  0
TABLE
  2
STYLE
 70
1
  0
STYLE
  2
STANDARD
 70
64
 40
0.000000000
 41
1.000000000
 50
0.000000000
 71
0
 42
3.200000000
  3
TXT
  4
EXTFONT
  0
ENDTAB
  0
TABLE
  2
VIEW
 70
0
  0
ENDTAB
  0
ENDSEC
  0
SECTION
  2
BLOCKS
  0
BLOCK
  8
0
  2
*D42
 70
65
 10
0.000000000
 20
0.000000000
  3
*D
  0
TEXT
  8
1
 62
4
  6
CONTINUOUS
 72
5
 10
133.957740660
 20
155.442597101
 40
2.800000000
  1
φ
 41
1.270648030
 50
90.000000000
 11
133.957740660
 21
158.802597101
  0
TEXT
  8
1
 62
4
  6
CONTINUOUS
 72
5
 10
133.957740660
 20
160.482597101
 40
2.800000000
  1
22
 41
0.899998740
 50
90.000000000
 11
133.957740660
 21
164.682597101
  0
TEXT
  8
1
 62
4
  6
CONTINUOUS
 72
5
 10
132.193740660
 20
165.522597101
 40
1.400000000
  1
 0
 41
2.333335926
 50
90.000000000
 11
132.193740660
 21
168.462597101
  0
TEXT
  8
1
 62
4
  6
CONTINUOUS
 72
5
 10
134.335740660
 20
165.522597101
 40
1.400000000
  1
-0.01
 41
1.710000684
 50
90.000000000
 11
134.335740660
 21
173.502597101
  0
POLYLINE
  8
1
 62
4
  6
CONTINUOUS
 66
1
  0
VERTEX
  8
1
 10
136.462740660
 20
172.405797101
  0
VERTEX
  8
1
 10
136.162740660
 20
174.405797101
  0
VERTEX
  8
1
 10
135.862740660
 20
172.405797101
  0
SEQEND
  8
1
  0
LINE
  8
1
 62
4
  6
CONTINUOUS
 10
136.162740660
 20
174.405797101
 11
136.162740660
 21
152.405797101
  0
POLYLINE
  8
1
 62
4
  6
CONTINUOUS
 66
1
  0
VERTEX
  8
1
 10
135.862740660
 20
154.405797101
  0
VERTEX
  8
1
 10
136.162740660
 20
152.405797101
  0
VERTEX
  8
1
 10
136.462740660
 20
154.405797101
  0
SEQEND
  8
1
  0
ENDBLK
  8
0
  0
BLOCK
  8
0
  2
*D43
 70
65
 10
0.000000000
 20
0.000000000
  3
*D
  0
TEXT
  8
1
 62
4
  6
CONTINUOUS
 72
5
 10
168.457740660
 20
155.442597101
 40
2.800000000
  1
φ
 41
1.270648030
 50
90.000000000
 11
168.457740660
 21
158.802597101
  0
TEXT
  8
1
 62
4
  6
CONTINUOUS
 72
5
 10
168.457740660
 20
160.482597101
 40
2.800000000
  1
22
 41
0.899998740
 50
90.000000000
 11
168.457740660
 21
164.682597101
  0
TEXT
  8
1
 62
4
  6
CONTINUOUS
 72
5
 10
166.693740660
 20
165.522597101
 40
1.400000000
  1
-0.01
 41
1.710000684
 50
90.000000000
 11
166.693740660
 21
173.502597101
  0
TEXT
  8
1
 62
4
  6
CONTINUOUS
 72
5
 10
168.835740660
 20
165.522597101
 40
1.400000000
  1
-0.02
 41
1.554544889
 50
90.000000000
 11
168.835740660
 21
173.502597101
  0
POLYLINE
  8
1
 62
4
  6
CONTINUOUS
 66
1
  0
VERTEX
  8
1
 10
170.962740660
 20
172.405797101
  0
VERTEX
  8
1
 10
170.662740660
 20
174.405797101
  0
VERTEX
  8
1
 10
170.362740660
 20
172.405797101
  0
SEQEND
  8
1
  0
LINE
  8
1
 62
4
  6
CONTINUOUS
 10
170.662740660
 20
174.405797101
 11
170.662740660
 21
152.405797101
  0
POLYLINE
  8
1
 62
4
  6
CONTINUOUS
 66
1
  0
VERTEX
  8
1
 10
170.362740660
 20
154.405797101
  0
VERTEX
  8
1
 10
170.662740660
 20
152.405797101
  0
VERTEX
  8
1
 10
170.962740660
 20
154.405797101
  0
SEQEND
  8
1
  0
ENDBLK
  8
0
  0
BLOCK
  8
0
  2
*D49
 70
65
 10
0.000000000
 20
0.000000000
  3
*D
  0
TEXT
  8
1
 62
4
  6
CONTINUOUS
 72
5
 10
86.086238045
 20
156.274197101
 40
2.800000000
  1
φ
 41
1.270648030
 50
90.000000000
 11
86.086238045
 21
159.634197101
  0
TEXT
  8
1
 62
4
  6
CONTINUOUS
 72
5
 10
86.086238045
 20
161.314197101
 40
2.800000000
  1
11.8
 41
1.414284098
 50
90.000000000
 11
86.086238045
 21
170.554197101
  0
LINE
  8
1
 62
4
  6
CONTINUOUS
 10
107.850083772
 20
169.305797101
 11
86.291238045
 21
169.305797101
  0
POLYLINE
  8
1
 62
4
  6
CONTINUOUS
 66
1
  0
VERTEX
  8
1
 10
88.591238045
 20
167.305797101
  0
VERTEX
  8
1
 10
88.291238045
 20
169.305797101
  0
VERTEX
  8
1
 10
87.991238045
 20
167.305797101
  0
SEQEND
  8
1
  0
LINE
  8
1
 62
4
  6
CONTINUOUS
 10
88.291238045
 20
169.305797101
 11
88.291238045
 21
157.505797101
  0
POLYLINE
  8
1
 62
4
  6
CONTINUOUS
 66
1
  0
VERTEX
  8
1
 10
87.991238045
 20
159.505797101
  0
VERTEX
  8
1
 10
88.291238045
 20
157.505797101
  0
VERTEX
  8
1
 10
88.591238045
 20
159.505797101
  0
SEQEND
  8
1
  0
LINE
  8
1
 62
4
  6
CONTINUOUS
 10
107.850083772
 20
157.505797101
 11
86.291238045
 21
157.505797101
  0
ENDBLK
  8
0
  0
BLOCK
  8
0
  2
*D51
 70
65
 10
0.000000000
 20
0.000000000
  3
*D
  0
TEXT
  8
1
 62
4
  6
CONTINUOUS
 72
5
 10
245.351140660
 20
134.610797101
 40
2.800000000
  1
(
 41
1.800001800
 11
247.031140660
 21
134.610797101
  0
TEXT
  8
1
 62
4
  6
CONTINUOUS
 72
5
 10
247.871140660
 20
134.610797101
 40
2.800000000
  1
20
 41
1.000000667
 11
252.071140660
 21
134.610797101
  0
TEXT
  8
1
 62
4
  6
CONTINUOUS
 72
5
 10
252.911140660
 20
134.610797101
 40
2.800000000
  1
)
 41
1.800001800
 11
254.591140660
 21
134.610797101
  0
POLYLINE
  8
1
 62
4
  6
CONTINUOUS
 66
1
  0
VERTEX
  8
1
 10
241.962740660
 20
132.705797101
  0
VERTEX
  8
1
 10
239.962740660
 20
132.405797101
  0
VERTEX
  8
1
 10
241.962740660
 20
132.105797101
  0
SEQEND
  8
1
  0
LINE
  8
1
 62
4
  6
CONTINUOUS
 10
239.962740660
 20
132.405797101
 11
259.962740660
 21
132.405797101
  0
POLYLINE
  8
1
 62
4
  6
CONTINUOUS
 66
1
  0
VERTEX
  8
1
 10
257.962740660
 20
132.105797101
  0
VERTEX
  8
1
 10
259.962740660
 20
132.405797101
  0
VERTEX
  8
1
 10
257.962740660
 20
132.705797101
  0
SEQEND
  8
1
  0
LINE
  8
1
 62
4
  6
CONTINUOUS
 10
259.962740660
 20
154.430797101
 11
259.962740660
 21
130.405797101
  0
ENDBLK
  8
0
  0
BLOCK
  8
0
  2
*D52
 70
65
 10
0.000000000
 20
0.000000000
  3
*D
  0
TEXT
  8
1
 62
4
  6
CONTINUOUS
 72
5
 10
188.451140660
 20
134.610797101
 40
2.800000000
  1
93.8
 41
1.099999267
 11
197.691140660
 21
134.610797101
  0
POLYLINE
  8
1
 62
4
  6
CONTINUOUS
 66
1
  0
VERTEX
  8
1
 10
148.162740660
 20
132.705797101
  0
VERTEX
  8
1
 10
146.162740660
 20
132.405797101
  0
VERTEX
  8
1
 10
148.162740660
 20
132.105797101
  0
SEQEND
  8
1
  0
LINE
  8
1
 62
4
  6
CONTINUOUS
 10
146.162740660
 20
132.405797101
 11
239.962740660
 21
132.405797101
  0
POLYLINE
  8
1
 62
4
  6
CONTINUOUS
 66
1
  0
VERTEX
  8
1
 10
237.962740660
 20
132.105797101
  0
VERTEX
  8
1
 10
239.962740660
 20
132.405797101
  0
VERTEX
  8
1
 10
237.962740660
 20
132.705797101
  0
SEQEND
  8
1
  0
LINE
  8
1
 62
4
  6
CONTINUOUS
 10
239.962740660
 20
153.405797101
 11
239.962740660
 21
130.405797101
  0
ENDBLK
  8
0
  0
BLOCK
  8
0
  2
*D53
 70
65
 10
0.000000000
 20
0.000000000
  3
*D
  0
TEXT
  8
1
 62
4
  6
CONTINUOUS
 72
5
 10
125.431140660
 20
134.610797101
 40
2.800000000
  1
(
 41
1.800001800
 11
127.111140660
 21
134.610797101
  0
TEXT
  8
1
 62
4
  6
CONTINUOUS
 72
5
 10
127.951140660
 20
134.610797101
 40
2.800000000
  1
27.2
 41
1.099999267
 11
137.191140660
 21
134.610797101
  0
TEXT
  8
1
 62
4
  6
CONTINUOUS
 72
5
 10
138.031140660
 20
134.610797101
 40
2.800000000
  1
)
 41
1.800001800
 11
139.711140660
 21
134.610797101
  0
POLYLINE
  8
1
 62
4
  6
CONTINUOUS
 66
1
  0
VERTEX
  8
1
 10
120.962740660
 20
132.705797101
  0
VERTEX
  8
1
 10
118.962740660
 20
132.405797101
  0
VERTEX
  8
1
 10
120.962740660
 20
132.105797101
  0
SEQEND
  8
1
  0
LINE
  8
1
 62
4
  6
CONTINUOUS
 10
118.962740660
 20
132.405797101
 11
146.162740660
 21
132.405797101
  0
POLYLINE
  8
1
 62
4
  6
CONTINUOUS
 66
1
  0
VERTEX
  8
1
 10
144.162740660
 20
132.105797101
  0
VERTEX
  8
1
 10
146.162740660
 20
132.405797101
  0
VERTEX
  8
1
 10
144.162740660
 20
132.705797101
  0
SEQEND
  8
1
  0
LINE
  8
1
 62
4
  6
CONTINUOUS
 10
146.162740660
 20
152.405797101
 11
146.162740660
 21
130.405797101
  0
ENDBLK
  8
0
  0
BLOCK
  8
0
  2
*D54
 70
65
 10
0.000000000
 20
0.000000000
  3
*D
  0
TEXT
  8
1
 62
4
  6
CONTINUOUS
 72
5
 10
104.495389353
 20
134.610797101
 40
2.800000000
  1
(
 41
1.800001800
 11
106.175389353
 21
134.610797101
  0
TEXT
  8
1
 62
4
  6
CONTINUOUS
 72
5
 10
107.015389353
 20
134.610797101
 40
2.800000000
  1
14.7
 41
1.237498917
 11
116.255389353
 21
134.610797101
  0
TEXT
  8
1
 62
4
  6
CONTINUOUS
 72
5
 10
117.095389353
 20
134.610797101
 40
2.800000000
  1
)
 41
1.800001800
 11
118.775389353
 21
134.610797101
  0
LINE
  8
1
 62
4
  6
CONTINUOUS
 10
104.291238045
 20
159.983147371
 11
104.291238045
 21
130.405797101
  0
POLYLINE
  8
1
 62
4
  6
CONTINUOUS
 66
1
  0
VERTEX
  8
1
 10
106.291238045
 20
132.705797101
  0
VERTEX
  8
1
 10
104.291238045
 20
132.405797101
  0
VERTEX
  8
1
 10
106.291238045
 20
132.105797101
  0
SEQEND
  8
1
  0
LINE
  8
1
 62
4
  6
CONTINUOUS
 10
104.291238045
 20
132.405797101
 11
118.962740660
 21
132.405797101
  0
POLYLINE
  8
1
 62
4
  6
CONTINUOUS
 66
1
  0
VERTEX
  8
1
 10
116.962740660
 20
132.105797101
  0
VERTEX
  8
1
 10
118.962740660
 20
132.405797101
  0
VERTEX
  8
1
 10
116.962740660
 20
132.705797101
  0
SEQEND
  8
1
  0
LINE
  8
1
 62
4
  6
CONTINUOUS
 10
118.962740660
 20
154.130797101
 11
118.962740660
 21
130.405797101
  0
ENDBLK
  8
0
  0
BLOCK
  8
0
  2
*D55
 70
65
 10
0.000000000
 20
0.000000000
  3
*D
  0
TEXT
  8
1
 62
4
  6
CONTINUOUS
 72
5
 10
173.735389353
 20
126.610797101
 40
2.800000000
  1
(
 41
1.800001800
 11
175.415389353
 21
126.610797101
  0
TEXT
  8
1
 62
4
  6
CONTINUOUS
 72
5
 10
176.255389353
 20
126.610797101
 40
2.800000000
  1
155.7
 41
1.145453817
 11
188.015389353
 21
126.610797101
  0
TEXT
  8
1
 62
4
  6
CONTINUOUS
 72
5
 10
188.855389353
 20
126.610797101
 40
2.800000000
  1
)
 41
1.800001800
 11
190.535389353
 21
126.610797101
  0
LINE
  8
1
 62
4
  6
CONTINUOUS
 10
104.291238045
 20
159.983147371
 11
104.291238045
 21
122.405797101
  0
POLYLINE
  8
1
 62
4
  6
CONTINUOUS
 66
1
  0
VERTEX
  8
1
 10
106.291238045
 20
124.705797101
  0
VERTEX
  8
1
 10
104.291238045
 20
124.405797101
  0
VERTEX
  8
1
 10
106.291238045
 20
124.105797101
  0
SEQEND
  8
1
  0
LINE
  8
1
 62
4
  6
CONTINUOUS
 10
104.291238045
 20
124.405797101
 11
259.962740660
 21
124.405797101
  0
POLYLINE
  8
1
 62
4
  6
CONTINUOUS
 66
1
  0
VERTEX
  8
1
 10
257.962740660
 20
124.105797101
  0
VERTEX
  8
1
 10
259.962740660
 20
124.405797101
  0
VERTEX
  8
1
 10
257.962740660
 20
124.705797101
  0
SEQEND
  8
1
  0
LINE
  8
1
 62
4
  6
CONTINUOUS
 10
259.962740660
 20
154.430797101
 11
259.962740660
 21
122.405797101
  0
ENDBLK
  8
0
  0
BLOCK
  8
0
  2
*D103
 70
65
 10
0.000000000
 20
0.000000000
  3
*D
  0
TEXT
  8
1
 62
4
  6
CONTINUOUS
 72
5
 10
281.757740660
 20
156.274197101
 40
2.800000000
  1
φ
 41
1.270648030
 50
90.000000000
 11
281.757740660
 21
159.634197101
  0
TEXT
  8
1
 62
4
  6
CONTINUOUS
 72
5
 10
281.757740660
 20
161.314197101
 40
2.800000000
  1
18.8
 41
1.237498917
 50
90.000000000
 11
281.757740660
 21
170.554197101
  0
LINE
  8
1
 62
4
  6
CONTINUOUS
 10
259.462740660
 20
172.805797101
 11
285.962740660
 21
172.805797101
  0
POLYLINE
  8
1
 62
4
  6
CONTINUOUS
 66
1
  0
VERTEX
  8
1
 10
284.262740660
 20
170.805797101
  0
VERTEX
  8
1
 10
283.962740660
 20
172.805797101
  0
VERTEX
  8
1
 10
283.662740660
 20
170.805797101
  0
SEQEND
  8
1
  0
LINE
  8
1
 62
4
  6
CONTINUOUS
 10
283.962740660
 20
172.805797101
 11
283.962740660
 21
154.005797101
  0
POLYLINE
  8
1
 62
4
  6
CONTINUOUS
 66
1
  0
VERTEX
  8
1
 10
283.662740660
 20
156.005797101
  0
VERTEX
  8
1
 10
283.962740660
 20
154.005797101
  0
VERTEX
  8
1
 10
284.262740660
 20
156.005797101
  0
SEQEND
  8
1
  0
LINE
  8
1
 62
4
  6
CONTINUOUS
 10
259.462740660
 20
154.005797101
 11
285.962740660
 21
154.005797101
  0
ENDBLK
  8
0
  0
ENDSEC
  0
SECTION
  2
ENTITIES
  0
LINE
  8
1
 62
7
  6
CONTINUOUS
 10
118.862740660
 20
158.805797101
 11
118.862740660
 21
168.005797101
  0
LINE
  8
1
 62
7
  6
CONTINUOUS
 10
118.862740660
 20
158.805797101
 11
118.962740660
 21
158.705797101
  0
LINE
  8
1
 62
7
  6
CONTINUOUS
 10
116.262740660
 20
168.005797101
 11
118.862740660
 21
168.005797101
  0
LINE
  8
1
 62
7
  6
CONTINUOUS
 10
116.262740660
 20
158.805797101
 11
116.262740660
 21
168.005797101
  0
LINE
  8
1
 62
7
  6
CONTINUOUS
 10
116.162740660
 20
168.105797101
 11
116.262740660
 21
168.005797101
  0
LINE
  8
1
 62
7
  6
CONTINUOUS
 10
115.791238045
 20
168.105797101
 11
116.162740660
 21
168.105797101
  0
LINE
  8
17
 62
1
  6
CENTER
 10
92.291238045
 20
163.405797101
 11
247.762740660
 21
163.405797101
  0
LINE
  8
1
 62
7
  6
CONTINUOUS
 10
116.162740660
 20
158.705797101
 11
116.262740660
 21
158.805797101
  0
LINE
  8
1
 62
7
  6
CONTINUOUS
 10
116.262740660
 20
158.805797101
 11
118.862740660
 21
158.805797101
  0
LINE
  8
1
 62
7
  6
CONTINUOUS
 10
118.862740660
 20
168.005797101
 11
118.962740660
 21
168.105797101
  0
LINE
  8
1
 62
4
  6
CONTINUOUS
 10
118.762740660
 20
165.677360440
 11
116.362740660
 21
161.134233763
  0
LINE
  8
1
 62
4
  6
CONTINUOUS
 10
116.362740660
 20
165.677360440
 11
118.762740660
 21
161.134233763
  0
ARC
  8
1
 62
7
  6
CONTINUOUS
 10
114.991238045
 20
168.505797101
 40
0.800000000
 50
0.000000000
 51
90.000000000
  0
LINE
  8
1
 62
7
  6
CONTINUOUS
 10
116.162740660
 20
168.105797101
 11
116.162740660
 21
158.705797101
  0
LINE
  8
1
 62
7
  6
CONTINUOUS
 10
108.141238045
 20
157.505797101
 11
108.291238045
 21
157.655797101
  0
LINE
  8
1
 62
7
  6
CONTINUOUS
 10
115.791238045
 20
158.705797101
 11
116.162740660
 21
158.705797101
  0
LINE
  8
3
 62
7
  6
CONTINUOUS
 10
121.162740660
 20
170.655797101
 11
121.362740660
 21
170.655797101
  0
LINE
  8
30
 62
7
  6
CONTINUOUS
 10
121.362740660
 20
173.405797101
 11
122.362740660
 21
174.405797101
  0
LINE
  8
30
 62
7
  6
CONTINUOUS
 10
146.162740660
 20
152.405797101
 11
146.162740660
 21
174.405797101
  0
ARC
  8
1
 62
7
  6
CONTINUOUS
 10
157.260599005
 20
163.405797101
 40
18.475208614
 50
165.638488437
 51
194.361511563
  0
LINE
  8
30
 62
7
  6
CONTINUOUS
 10
121.362740660
 20
153.405797101
 11
122.362740660
 21
152.405797101
  0
LINE
  8
30
 62
7
  6
CONTINUOUS
 10
122.362740660
 20
152.405797101
 11
146.162740660
 21
152.405797101
  0
LINE
  8
30
 62
7
  6
CONTINUOUS
 10
122.362740660
 20
174.405797101
 11
146.162740660
 21
174.405797101
  0
LINE
  8
30
 62
7
  6
CONTINUOUS
 10
122.362740660
 20
152.405797101
 11
122.362740660
 21
174.405797101
  0
LINE
  8
1
 62
7
  6
CONTINUOUS
 10
121.162740660
 20
172.780797101
 11
121.062740660
 21
172.880797101
  0
LINE
  8
1
 62
7
  6
CONTINUOUS
 10
118.962740660
 20
172.680797101
 11
119.162740660
 21
172.880797101
  0
LINE
  8
1
 62
7
  6
CONTINUOUS
 10
121.062740660
 20
172.880797101
 11
119.162740660
 21
172.880797101
  0
LINE
  8
1
 62
7
  6
CONTINUOUS
 10
118.962740660
 20
154.130797101
 11
118.962740660
 21
172.680797101
  0
LINE
  8
1
 62
7
  6
CONTINUOUS
 10
121.162740660
 20
172.780797101
 11
121.162740660
 21
154.030797101
  0
LINE
  8
1
 62
7
  6
CONTINUOUS
 10
121.062740660
 20
153.930797101
 11
119.162740660
 21
153.930797101
  0
LINE
  8
1
 62
7
  6
CONTINUOUS
 10
118.962740660
 20
154.130797101
 11
119.162740660
 21
153.930797101
  0
LINE
  8
1
 62
7
  6
CONTINUOUS
 10
121.162740660
 20
154.030797101
 11
121.062740660
 21
153.930797101
  0
LINE
  8
1
 62
7
  6
CONTINUOUS
 10
142.562740660
 20
158.823221406
 11
142.562740660
 21
167.988372796
  0
LINE
  8
1
 62
7
  6
CONTINUOUS
 10
108.441238045
 20
165.541212752
 11
108.291238045
 21
165.391212752
  0
LINE
  8
1
 62
7
  6
CONTINUOUS
 10
104.791238045
 20
167.694472236
 11
107.350083772
 21
169.171822505
  0
LINE
  8
1
 62
7
  6
CONTINUOUS
 10
108.291238045
 20
157.905797101
 11
111.291238045
 21
157.905797101
  0
LINE
  8
1
 62
7
  6
CONTINUOUS
 10
114.991238045
 20
157.505797101
 11
111.441238045
 21
157.505797101
  0
ARC
  8
1
 62
7
  6
CONTINUOUS
 10
107.850083772
 20
168.305797101
 40
1.000000000
 50
90.000000000
 51
120.000000000
  0
LINE
  8
1
 62
7
  6
CONTINUOUS
 10
108.141238045
 20
169.305797101
 11
107.850083772
 21
169.305797101
  0
LINE
  8
1
 62
7
  6
CONTINUOUS
 10
108.291238045
 20
161.420381451
 11
108.441238045
 21
161.270381451
  0
LINE
  8
1
 62
7
  6
CONTINUOUS
 10
111.291238045
 20
169.155797101
 11
111.441238045
 21
169.305797101
  0
DIMENSION
  8
1
 62
4
  6
CONTINUOUS
  2
*D42
 70
1
 10
136.162740660
 20
152.405797101
 11
136.162740660
 21
163.405797101
 14
136.162740660
 24
152.405797101
 13
136.162740660
 23
174.405797101
 50
90.000000000
  0
DIMENSION
  8
1
 62
4
  6
CONTINUOUS
  2
*D43
 70
1
 10
170.662740660
 20
152.405797101
 11
170.662740660
 21
163.405797101
 14
170.662740660
 24
152.405797101
 13
170.662740660
 23
174.405797101
 50
90.000000000
  0
ARC
  8
15
 62
7
  6
CONTINUOUS
 10
94.491238045
 20
164.705797101
 40
0.200000000
 50
90.000000000
 51
180.000000000
  0
LINE
  8
15
 62
7
  6
CONTINUOUS
 10
94.491238045
 20
164.905797101
 11
104.291238045
 21
164.905797101
  0
LINE
  8
1
 62
7
  6
CONTINUOUS
 10
139.362740660
 20
158.823221406
 11
142.562740660
 21
158.823221406
  0
LINE
  8
15
 62
7
  6
CONTINUOUS
 10
94.291238045
 20
164.705797101
 11
94.291238045
 21
162.105797101
  0
TEXT
  8
1
 62
3
  6
CONTINUOUS
 72
5
 10
164.326989353
 20
110.421797101
 40
4.000000000
  1
ＭＳＳ－２２０２Ｒ
 41
0.834566215
 11
199.526989353
 21
110.421797101
  0
DIMENSION
  8
1
 62
4
  6
CONTINUOUS
  2
*D49
 70
1
 10
88.291238045
 20
157.505797101
 11
88.291238045
 21
163.405797101
 14
107.850083772
 24
157.505797101
 13
107.850083772
 23
169.305797101
 50
90.000000000
  0
ARC
  8
15
 62
7
  6
CONTINUOUS
 10
94.491238045
 20
162.105797101
 40
0.200000000
 50
180.000000000
 51
270.000000000
  0
DIMENSION
  8
1
 62
4
  6
CONTINUOUS
  2
*D51
 70
0
 10
259.962740660
 20
132.405797101
 11
249.962740660
 21
132.405797101
 14
259.962740660
 24
154.430797101
 13
239.962740660
 23
153.405797101
 50
0.000000000
  0
DIMENSION
  8
1
 62
4
  6
CONTINUOUS
  2
*D52
 70
0
 10
239.962740660
 20
132.405797101
 11
193.062740660
 21
132.405797101
 14
239.962740660
 24
153.405797101
 13
146.162740660
 23
152.405797101
 50
0.000000000
  0
DIMENSION
  8
1
 62
4
  6
CONTINUOUS
  2
*D53
 70
0
 10
146.162740660
 20
132.405797101
 11
132.562740660
 21
132.405797101
 14
146.162740660
 24
152.405797101
 13
118.962740660
 23
154.130797101
 50
0.000000000
  0
DIMENSION
  8
1
 62
4
  6
CONTINUOUS
  2
*D54
 70
0
 10
118.962740660
 20
132.405797101
 11
111.626989353
 21
132.405797101
 14
118.962740660
 24
154.130797101
 13
104.291238045
 23
159.983147371
 50
0.000000000
  0
DIMENSION
  8
1
 62
4
  6
CONTINUOUS
  2
*D55
 70
0
 10
259.962740660
 20
124.405797101
 11
182.126989353
 21
124.405797101
 14
259.962740660
 24
154.430797101
 13
104.291238045
 23
159.983147371
 50
0.000000000
  0
LINE
  8
30
 62
7
  6
CONTINUOUS
 10
238.962740660
 20
152.405797101
 11
238.962740660
 21
174.405797101
  0
LINE
  8
1
 62
4
  6
CONTINUOUS
 10
139.362740660
 20
167.988372796
 11
142.562740660
 21
158.823221406
  0
LINE
  8
1
 62
4
  6
CONTINUOUS
 10
142.562740660
 20
167.988372796
 11
139.362740660
 21
158.823221406
  0
LINE
  8
1
 62
7
  6
CONTINUOUS
 10
142.562740660
 20
167.988372796
 11
139.362740660
 21
167.988372796
  0
LINE
  8
1
 62
7
  6
CONTINUOUS
 10
118.762740660
 20
165.677360440
 11
116.362740660
 21
165.677360440
  0
LINE
  8
1
 62
7
  6
CONTINUOUS
 10
118.762740660
 20
161.134233763
 11
118.762740660
 21
165.677360440
  0
LINE
  8
1
 62
7
  6
CONTINUOUS
 10
116.362740660
 20
161.134233763
 11
118.762740660
 21
161.134233763
  0
LINE
  8
1
 62
4
  6
CONTINUOUS
 10
111.291238045
 20
165.391212752
 11
108.291238045
 21
161.420381451
  0
LINE
  8
1
 62
7
  6
CONTINUOUS
 10
116.362740660
 20
165.677360440
 11
116.362740660
 21
161.134233763
  0
LINE
  8
1
 62
7
  6
CONTINUOUS
 10
139.362740660
 20
167.988372796
 11
139.362740660
 21
158.823221406
  0
ARC
  8
1
 62
4
  6
CONTINUOUS
 10
270.893990660
 20
168.680797101
 40
1.781250000
 50
306.869897646
 51
53.130102354
  0
ARC
  8
1
 62
4
  6
CONTINUOUS
 10
273.031490660
 20
168.680797101
 40
1.781250000
 50
126.869897646
 51
233.130102354
  0
ARC
  8
1
 62
4
  6
CONTINUOUS
 10
270.893990660
 20
165.830797101
 40
1.781250000
 50
306.869897646
 51
53.130102354
  0
ARC
  8
1
 62
4
  6
CONTINUOUS
 10
273.181490660
 20
161.180797101
 40
2.031250000
 50
126.869897646
 51
233.130102354
  0
LINE
  8
15
 62
7
  6
CONTINUOUS
 10
104.291238045
 20
161.905797101
 11
94.491238045
 21
161.905797101
  0
ARC
  8
1
 62
4
  6
CONTINUOUS
 10
270.743990660
 20
157.930797101
 40
2.031250000
 50
306.869897646
 51
53.130102354
  0
ARC
  8
1
 62
7
  6
CONTINUOUS
 10
124.664882315
 20
163.405797101
 40
18.475208614
 50
345.638488437
 51
14.361511563
  0
LINE
  8
1
 62
7
  6
CONTINUOUS
 10
107.350083772
 20
168.671822505
 11
107.350083772
 21
158.139771698
  0
LINE
  8
1
 62
7
  6
CONTINUOUS
 10
111.441238045
 20
157.505797101
 11
111.441238045
 21
169.305797101
  0
LINE
  8
1
 62
7
  6
CONTINUOUS
 10
108.141238045
 20
157.505797101
 11
108.141238045
 21
169.305797101
  0
LINE
  8
1
 62
7
  6
CONTINUOUS
 10
111.141238045
 20
161.270381451
 11
111.291238045
 21
161.420381451
  0
LINE
  8
1
 62
7
  6
CONTINUOUS
 10
111.291238045
 20
165.391212752
 11
111.141238045
 21
165.541212752
  0
LINE
  8
1
 62
7
  6
CONTINUOUS
 10
108.441238045
 20
157.905797101
 11
108.441238045
 21
161.270381451
  0
LINE
  8
1
 62
7
  6
CONTINUOUS
 10
111.141238045
 20
157.905797101
 11
111.141238045
 21
161.270381451
  0
LINE
  8
1
 62
7
  6
CONTINUOUS
 10
108.441238045
 20
165.541212752
 11
111.141238045
 21
165.541212752
  0
LINE
  8
1
 62
7
  6
CONTINUOUS
 10
108.441238045
 20
161.270381451
 11
111.141238045
 21
161.270381451
  0
LINE
  8
1
 62
4
  6
CONTINUOUS
 10
108.291238045
 20
165.391212752
 11
111.291238045
 21
161.420381451
  0
LINE
  8
1
 62
7
  6
CONTINUOUS
 10
108.441238045
 20
165.541212752
 11
108.441238045
 21
168.905797101
  0
LINE
  8
1
 62
7
  6
CONTINUOUS
 10
111.141238045
 20
165.541212752
 11
111.141238045
 21
168.905797101
  0
LINE
  8
1
 62
7
  6
CONTINUOUS
 10
114.991238045
 20
169.305797101
 11
114.991238045
 21
157.505797101
  0
LINE
  8
1
 62
7
  6
CONTINUOUS
 10
104.291238045
 20
159.983147371
 11
104.291238045
 21
166.828446832
  0
LINE
  8
1
 62
7
  6
CONTINUOUS
 10
107.850083772
 20
169.305797101
 11
107.850083772
 21
157.505797101
  0
LINE
  8
1
 62
7
  6
CONTINUOUS
 10
111.291238045
 20
157.655797101
 11
111.441238045
 21
157.505797101
  0
LINE
  8
1
 62
7
  6
CONTINUOUS
 10
104.791238045
 20
167.194472236
 11
104.791238045
 21
159.617121967
  0
LINE
  8
1
 62
7
  6
CONTINUOUS
 10
111.291238045
 20
169.155797101
 11
111.291238045
 21
157.655797101
  0
LINE
  8
1
 62
7
  6
CONTINUOUS
 10
108.141238045
 20
157.505797101
 11
107.850083772
 21
157.505797101
  0
ARC
  8
1
 62
7
  6
CONTINUOUS
 10
107.850083772
 20
158.505797101
 40
1.000000000
 50
240.000000000
 51
270.000000000
  0
LINE
  8
1
 62
7
  6
CONTINUOUS
 10
108.291238045
 20
157.655797101
 11
108.291238045
 21
169.155797101
  0
LINE
  8
1
 62
7
  6
CONTINUOUS
 10
104.791238045
 20
159.117121967
 11
107.350083772
 21
157.639771698
  0
LINE
  8
1
 62
7
  6
CONTINUOUS
 10
114.991238045
 20
169.305797101
 11
111.441238045
 21
169.305797101
  0
LINE
  8
1
 62
7
  6
CONTINUOUS
 10
115.791238045
 20
168.505797101
 11
115.791238045
 21
158.305797101
  0
LINE
  8
1
 62
7
  6
CONTINUOUS
 10
108.291238045
 20
168.905797101
 11
111.291238045
 21
168.905797101
  0
LINE
  8
1
 62
7
  6
CONTINUOUS
 10
108.141238045
 20
169.305797101
 11
108.291238045
 21
169.155797101
  0
ARC
  8
1
 62
7
  6
CONTINUOUS
 10
114.991238045
 20
158.305797101
 40
0.800000000
 50
270.000000000
 51
0.000000000
  0
ARC
  8
1
 62
7
  6
CONTINUOUS
 10
105.291238045
 20
159.983147371
 40
1.000000000
 50
180.000000000
 51
240.000000000
  0
ARC
  8
1
 62
7
  6
CONTINUOUS
 10
105.291238045
 20
166.828446832
 40
1.000000000
 50
120.000000000
 51
180.000000000
  0
ARC
  8
1
 62
4
  6
CONTINUOUS
 10
270.743990660
 20
161.180797101
 40
2.031250000
 50
306.869897646
 51
53.130102354
  0
DIMENSION
  8
1
 62
4
  6
CONTINUOUS
  2
*D103
 70
1
 10
283.962740660
 20
154.005797101
 11
283.962740660
 21
163.405797101
 14
259.462740660
 24
154.005797101
 13
259.462740660
 23
172.805797101
 50
90.000000000
  0
LINE
  8
1
 62
7
  6
CONTINUOUS
 10
259.462740660
 20
172.805797101
 11
259.962740660
 21
172.305797101
  0
LINE
  8
1
 62
7
  6
CONTINUOUS
 10
271.962740660
 20
156.305797101
 11
259.962740660
 21
156.305797101
  0
LINE
  8
1
 62
1
  6
CENTER
 10
273.962740660
 20
167.255797101
 11
257.962740660
 21
167.255797101
  0
ARC
  8
1
 62
7
  6
CONTINUOUS
 10
180.464882315
 20
163.405797101
 40
18.475208614
 50
345.638488437
 51
14.361511563
  0
LINE
  8
3
 62
7
  6
CONTINUOUS
 10
121.162740660
 20
156.155797101
 11
121.362740660
 21
156.155797101
  0
LINE
  8
1
 62
7
  6
CONTINUOUS
 10
195.162740660
 20
167.988372796
 11
195.162740660
 21
158.823221406
  0
LINE
  8
1
 62
7
  6
CONTINUOUS
 10
198.362740660
 20
167.988372796
 11
195.162740660
 21
167.988372796
  0
LINE
  8
1
 62
4
  6
CONTINUOUS
 10
198.362740660
 20
167.988372796
 11
195.162740660
 21
158.823221406
  0
LINE
  8
1
 62
4
  6
CONTINUOUS
 10
195.162740660
 20
167.988372796
 11
198.362740660
 21
158.823221406
  0
LINE
  8
1
 62
7
  6
CONTINUOUS
 10
195.162740660
 20
158.823221406
 11
198.362740660
 21
158.823221406
  0
LINE
  8
1
 62
7
  6
CONTINUOUS
 10
198.362740660
 20
158.823221406
 11
198.362740660
 21
167.988372796
  0
ARC
  8
1
 62
7
  6
CONTINUOUS
 10
213.060599005
 20
163.405797101
 40
18.475208614
 50
165.638488437
 51
194.361511563
  0
LINE
  8
1
 62
7
  6
CONTINUOUS
 10
239.962740660
 20
172.805797101
 11
259.462740660
 21
172.805797101
  0
LINE
  8
1
 62
7
  6
CONTINUOUS
 10
271.962740660
 20
162.805797101
 11
259.962740660
 21
162.805797101
  0
LINE
  8
1
 62
1
  6
CENTER
 10
273.962740660
 20
159.555797101
 11
257.962740660
 21
159.555797101
  0
LINE
  8
31
 62
7
  6
CONTINUOUS
 10
259.962740660
 20
154.430797101
 11
259.962740660
 21
172.305797101
  0
LINE
  8
1
 62
7
  6
CONTINUOUS
 10
259.462740660
 20
154.005797101
 11
259.962740660
 21
154.430797101
  0
LINE
  8
1
 62
7
  6
CONTINUOUS
 10
259.962740660
 20
170.105797101
 11
271.962740660
 21
170.105797101
  0
LINE
  8
30
 62
7
  6
CONTINUOUS
 10
121.362740660
 20
173.405797101
 11
121.362740660
 21
153.405797101
  0
LINE
  8
1
 62
7
  6
CONTINUOUS
 10
271.962740660
 20
164.405797101
 11
259.962740660
 21
164.405797101
  0
LINE
  8
1
 62
7
  6
CONTINUOUS
 10
239.962740660
 20
154.005797101
 11
259.462740660
 21
154.005797101
  0
LINE
  8
5
 62
7
  6
CONTINUOUS
 10
239.962740660
 20
153.405797101
 11
238.962740660
 21
152.405797101
  0
LINE
  8
5
 62
7
  6
CONTINUOUS
 10
146.162740660
 20
174.405797101
 11
238.962740660
 21
174.405797101
  0
LINE
  8
5
 62
7
  6
CONTINUOUS
 10
146.162740660
 20
152.405797101
 11
238.962740660
 21
152.405797101
  0
LINE
  8
5
 62
7
  6
CONTINUOUS
 10
238.962740660
 20
174.405797101
 11
239.962740660
 21
173.405797101
  0
LINE
  8
5
 62
7
  6
CONTINUOUS
 10
146.162740660
 20
174.405797101
 11
146.162740660
 21
152.405797101
  0
LINE
  8
5
 62
7
  6
CONTINUOUS
 10
239.962740660
 20
173.405797101
 11
239.962740660
 21
153.405797101
  0
ENDSEC
  0
EOF
