  0
SECTION
  2
HEADER
  9
$ACADVER
  1
AC1009
  9
$INSBASE
 10
0.000000000
 20
0.000000000
  9
$EXTMIN
 10
-20.346009018
 20
-18.125592941
  9
$EXTMAX
 10
223.806099199
 20
199.381522350
  9
$LIMMIN
 10
-20.346009018
 20
-18.125592941
  9
$LIMMAX
 10
223.806099199
 20
199.381522350
  9
$SNAPBASE
 10
0.000000000
 20
0.000000000
  9
$SNAPANG
 50
0.000000000
  9
$SNAPSTYLE
 70
0
  9
$GRIDMODE
 70
0
  9
$GRIDUNIT
 10
0.000000000
 20
0.000000000
  9
$DIMEXO
 40
0.000000000
  9
$DIMDLI
 40
8.000000000
  9
$DIMDLE
 40
0.000000000
  9
$DIMEXE
 40
1.000000000
  9
$DIMTIH
 70
1
  9
$DIMTOH
 70
1
  9
$DIMTAD
 70
2
  9
$DIMZIN
 70
0
  9
$FILLETRAD
 40
1.000000000
  9
$CHAMFERA
 40
1.000000000
  9
$CHAMFERB
 40
1.000000000
  9
$TDCREATE
 40
2454155.472974537
  9
$TDUPDATE
 40
2454155.472974537
  9
$ANGBASE
 50
0.000000000
  9
$ANGDIR
 70
0
  0
ENDSEC
  0
SECTION
  2
TABLES
  0
TABLE
  2
LTYPE
 70
3
  0
LTYPE
  2
CENTER
 70
64
  3
___ _ ___ _ __
 72
65
 73
4
 40
13.000000000
 49
8.500000000
 49
-1.500000000
 49
1.500000000
 49
-1.500000000
  0
LTYPE
  2
CONTINUOUS
 70
64
  3
______________
 72
65
 73
0
 40
0.000000000
  0
LTYPE
  2
DIVIDE
 70
64
  3
___ . . ___ . 
 72
65
 73
6
 40
12.999999523
 49
5.199999809
 49
-2.599999905
 49
0.000000000
 49
-2.599999905
 49
0.000000000
 49
-2.599999905
  0
ENDTAB
  0
TABLE
  2
LAYER
 70
1
  0
LAYER
  2
1
 70
0
 62
7
  6
CONTINUOUS
999
Comment
  0
LAYER
  2
_CONSTR
 70
0
 62
5
  6
CONTINUOUS
  0
ENDTAB
  0
TABLE
  2
STYLE
 70
1
  0
STYLE
  2
STANDARD
 70
64
 40
0.000000000
 41
1.000000000
 50
0.000000000
 71
0
 42
3.200000000
  3
TXT
  4
EXTFONT
  0
ENDTAB
  0
TABLE
  2
VIEW
 70
0
  0
ENDTAB
  0
ENDSEC
  0
SECTION
  2
BLOCKS
  0
BLOCK
  8
0
  2
*D13
 70
65
 10
0.000000000
 20
0.000000000
  3
*D
  0
TEXT
  8
1
 62
4
  6
CONTINUOUS
 72
5
 10
129.129038809
 20
125.123840580
 40
2.800000000
  1
(
 41
1.800001800
 11
130.809038809
 21
125.123840580
  0
TEXT
  8
1
 62
4
  6
CONTINUOUS
 72
5
 10
131.649038809
 20
125.123840580
 40
2.800000000
  1
97.3
 41
1.099999267
 11
140.889038809
 21
125.123840580
  0
TEXT
  8
1
 62
4
  6
CONTINUOUS
 72
5
 10
141.729038809
 20
125.123840580
 40
2.800000000
  1
)
 41
1.800001800
 11
143.409038809
 21
125.123840580
  0
LINE
  8
1
 62
4
  6
CONTINUOUS
 10
184.894202899
 20
154.518840580
 11
184.894202899
 21
120.918840580
  0
POLYLINE
  8
1
 62
4
  6
CONTINUOUS
 66
1
  0
VERTEX
  8
1
 10
182.894202899
 20
122.618840580
  0
VERTEX
  8
1
 10
184.894202899
 20
122.918840580
  0
VERTEX
  8
1
 10
182.894202899
 20
123.218840580
  0
SEQEND
  8
1
  0
LINE
  8
1
 62
4
  6
CONTINUOUS
 10
184.894202899
 20
122.918840580
 11
87.627074720
 21
122.918840580
  0
POLYLINE
  8
1
 62
4
  6
CONTINUOUS
 66
1
  0
VERTEX
  8
1
 10
89.627074720
 20
123.218840580
  0
VERTEX
  8
1
 10
87.627074720
 20
122.918840580
  0
VERTEX
  8
1
 10
89.627074720
 20
122.618840580
  0
SEQEND
  8
1
  0
LINE
  8
1
 62
4
  6
CONTINUOUS
 10
87.627074720
 20
159.718840580
 11
87.627074720
 21
120.918840580
  0
ENDBLK
  8
0
  0
BLOCK
  8
0
  2
*D85
 70
65
 10
0.000000000
 20
0.000000000
  3
*D
  0
TEXT
  8
1
 62
4
  6
CONTINUOUS
 72
5
 10
88.259038809
 20
133.123840580
 40
2.800000000
  1
(
 41
1.800001800
 11
89.939038809
 21
133.123840580
  0
TEXT
  8
1
 62
4
  6
CONTINUOUS
 72
5
 10
90.779038809
 20
133.123840580
 40
2.800000000
  1
8
 41
0.899996850
 11
92.459038809
 21
133.123840580
  0
TEXT
  8
1
 62
4
  6
CONTINUOUS
 72
5
 10
93.299038809
 20
133.123840580
 40
2.800000000
  1
)
 41
1.800001800
 11
94.979038809
 21
133.123840580
  0
LINE
  8
1
 62
4
  6
CONTINUOUS
 10
87.627074720
 20
159.718840580
 11
87.627074720
 21
128.918840580
  0
POLYLINE
  8
1
 62
4
  6
CONTINUOUS
 66
1
  0
VERTEX
  8
1
 10
85.627074720
 20
131.218840580
  0
VERTEX
  8
1
 10
87.627074720
 20
130.918840580
  0
SEQEND
  8
1
  0
POLYLINE
  8
1
 62
4
  6
CONTINUOUS
 66
1
  0
VERTEX
  8
1
 10
84.627074720
 20
130.918840580
  0
VERTEX
  8
1
 10
87.627074720
 20
130.918840580
  0
VERTEX
  8
1
 10
85.627074720
 20
130.618840580
  0
SEQEND
  8
1
  0
LINE
  8
1
 62
4
  6
CONTINUOUS
 10
87.627074720
 20
130.918840580
 11
95.594202899
 21
130.918840580
  0
POLYLINE
  8
1
 62
4
  6
CONTINUOUS
 66
1
  0
VERTEX
  8
1
 10
97.594202899
 20
130.618840580
  0
VERTEX
  8
1
 10
95.594202899
 20
130.918840580
  0
SEQEND
  8
1
  0
POLYLINE
  8
1
 62
4
  6
CONTINUOUS
 66
1
  0
VERTEX
  8
1
 10
98.594202899
 20
130.918840580
  0
VERTEX
  8
1
 10
95.594202899
 20
130.918840580
  0
VERTEX
  8
1
 10
97.594202899
 20
131.218840580
  0
SEQEND
  8
1
  0
LINE
  8
1
 62
4
  6
CONTINUOUS
 10
95.594202899
 20
153.768840580
 11
95.594202899
 21
128.918840580
  0
ENDBLK
  8
0
  0
BLOCK
  8
0
  2
*D86
 70
65
 10
0.000000000
 20
0.000000000
  3
*D
  0
TEXT
  8
1
 62
4
  6
CONTINUOUS
 72
5
 10
97.982602899
 20
133.123840580
 40
2.800000000
  1
(
 41
1.800001800
 11
99.662602899
 21
133.123840580
  0
TEXT
  8
1
 62
4
  6
CONTINUOUS
 72
5
 10
100.502602899
 20
133.123840580
 40
2.800000000
  1
14
 41
1.124997750
 11
104.702602899
 21
133.123840580
  0
TEXT
  8
1
 62
4
  6
CONTINUOUS
 72
5
 10
105.542602899
 20
133.123840580
 40
2.800000000
  1
)
 41
1.800001800
 11
107.222602899
 21
133.123840580
  0
POLYLINE
  8
1
 62
4
  6
CONTINUOUS
 66
1
  0
VERTEX
  8
1
 10
97.594202899
 20
131.218840580
  0
VERTEX
  8
1
 10
95.594202899
 20
130.918840580
  0
VERTEX
  8
1
 10
97.594202899
 20
130.618840580
  0
SEQEND
  8
1
  0
LINE
  8
1
 62
4
  6
CONTINUOUS
 10
95.594202899
 20
130.918840580
 11
109.594202899
 21
130.918840580
  0
POLYLINE
  8
1
 62
4
  6
CONTINUOUS
 66
1
  0
VERTEX
  8
1
 10
107.594202899
 20
130.618840580
  0
VERTEX
  8
1
 10
109.594202899
 20
130.918840580
  0
VERTEX
  8
1
 10
107.594202899
 20
131.218840580
  0
SEQEND
  8
1
  0
LINE
  8
1
 62
4
  6
CONTINUOUS
 10
109.594202899
 20
151.418840580
 11
109.594202899
 21
128.918840580
  0
ENDBLK
  8
0
  0
BLOCK
  8
0
  2
*D87
 70
65
 10
0.000000000
 20
0.000000000
  3
*D
  0
TEXT
  8
1
 62
4
  6
CONTINUOUS
 72
5
 10
138.502602899
 20
133.123840580
 40
2.800000000
  1
62
 41
0.899998740
 11
142.702602899
 21
133.123840580
  0
POLYLINE
  8
1
 62
4
  6
CONTINUOUS
 66
1
  0
VERTEX
  8
1
 10
111.594202899
 20
131.218840580
  0
VERTEX
  8
1
 10
109.594202899
 20
130.918840580
  0
VERTEX
  8
1
 10
111.594202899
 20
130.618840580
  0
SEQEND
  8
1
  0
LINE
  8
1
 62
4
  6
CONTINUOUS
 10
109.594202899
 20
130.918840580
 11
171.594202899
 21
130.918840580
  0
POLYLINE
  8
1
 62
4
  6
CONTINUOUS
 66
1
  0
VERTEX
  8
1
 10
169.594202899
 20
130.618840580
  0
VERTEX
  8
1
 10
171.594202899
 20
130.918840580
  0
VERTEX
  8
1
 10
169.594202899
 20
131.218840580
  0
SEQEND
  8
1
  0
LINE
  8
1
 62
4
  6
CONTINUOUS
 10
171.594202899
 20
151.018840580
 11
171.594202899
 21
128.918840580
  0
ENDBLK
  8
0
  0
BLOCK
  8
0
  2
*D88
 70
65
 10
0.000000000
 20
0.000000000
  3
*D
  0
TEXT
  8
1
 62
4
  6
CONTINUOUS
 72
5
 10
172.301202899
 20
133.123840580
 40
2.800000000
  1
(
 41
1.500001500
 11
173.701202899
 21
133.123840580
  0
TEXT
  8
1
 62
4
  6
CONTINUOUS
 72
5
 10
174.401202899
 20
133.123840580
 40
2.800000000
  1
13.3
 41
1.031249098
 11
182.101202899
 21
133.123840580
  0
TEXT
  8
1
 62
4
  6
CONTINUOUS
 72
5
 10
182.801202899
 20
133.123840580
 40
2.800000000
  1
)
 41
1.500001500
 11
184.201202899
 21
133.123840580
  0
POLYLINE
  8
1
 62
4
  6
CONTINUOUS
 66
1
  0
VERTEX
  8
1
 10
173.594202899
 20
131.218840580
  0
VERTEX
  8
1
 10
171.594202899
 20
130.918840580
  0
VERTEX
  8
1
 10
173.594202899
 20
130.618840580
  0
SEQEND
  8
1
  0
LINE
  8
1
 62
4
  6
CONTINUOUS
 10
171.594202899
 20
130.918840580
 11
184.894202899
 21
130.918840580
  0
POLYLINE
  8
1
 62
4
  6
CONTINUOUS
 66
1
  0
VERTEX
  8
1
 10
182.894202899
 20
130.618840580
  0
VERTEX
  8
1
 10
184.894202899
 20
130.918840580
  0
VERTEX
  8
1
 10
182.894202899
 20
131.218840580
  0
SEQEND
  8
1
  0
LINE
  8
1
 62
4
  6
CONTINUOUS
 10
184.894202899
 20
154.518840580
 11
184.894202899
 21
128.918840580
  0
ENDBLK
  8
0
  0
BLOCK
  8
0
  2
*D89
 70
65
 10
0.000000000
 20
0.000000000
  3
*D
  0
TEXT
  8
1
 62
4
  6
CONTINUOUS
 72
5
 10
67.422074720
 20
156.447240580
 40
2.800000000
  1
φ
 41
1.270648030
 50
90.000000000
 11
67.422074720
 21
159.807240580
  0
TEXT
  8
1
 62
4
  6
CONTINUOUS
 72
5
 10
67.422074720
 20
161.487240580
 40
2.800000000
  1
8.2
 41
1.199998800
 50
90.000000000
 11
67.422074720
 21
168.207240580
  0
LINE
  8
1
 62
4
  6
CONTINUOUS
 10
91.094202899
 20
166.418840580
 11
67.627074720
 21
166.418840580
  0
POLYLINE
  8
1
 62
4
  6
CONTINUOUS
 66
1
  0
VERTEX
  8
1
 10
69.927074720
 20
168.418840580
  0
VERTEX
  8
1
 10
69.627074720
 20
166.418840580
  0
SEQEND
  8
1
  0
POLYLINE
  8
1
 62
4
  6
CONTINUOUS
 66
1
  0
VERTEX
  8
1
 10
69.627074720
 20
169.418840580
  0
VERTEX
  8
1
 10
69.627074720
 20
166.418840580
  0
VERTEX
  8
1
 10
69.327074720
 20
168.418840580
  0
SEQEND
  8
1
  0
LINE
  8
1
 62
4
  6
CONTINUOUS
 10
69.627074720
 20
166.418840580
 11
69.627074720
 21
158.218840579
  0
POLYLINE
  8
1
 62
4
  6
CONTINUOUS
 66
1
  0
VERTEX
  8
1
 10
69.327074720
 20
156.218840579
  0
VERTEX
  8
1
 10
69.627074720
 20
158.218840579
  0
SEQEND
  8
1
  0
POLYLINE
  8
1
 62
4
  6
CONTINUOUS
 66
1
  0
VERTEX
  8
1
 10
69.627074720
 20
155.218840579
  0
VERTEX
  8
1
 10
69.627074720
 20
158.218840579
  0
VERTEX
  8
1
 10
69.927074720
 20
156.218840579
  0
SEQEND
  8
1
  0
LINE
  8
1
 62
4
  6
CONTINUOUS
 10
91.094202899
 20
158.218840579
 11
67.627074720
 21
158.218840579
  0
ENDBLK
  8
0
  0
BLOCK
  8
0
  2
*D90
 70
65
 10
0.000000000
 20
0.000000000
  3
*D
  0
TEXT
  8
1
 62
4
  6
CONTINUOUS
 72
5
 10
59.422074720
 20
157.707240580
 40
2.800000000
  1
φ
 41
1.270648030
 50
90.000000000
 11
59.422074720
 21
161.067240580
  0
TEXT
  8
1
 62
4
  6
CONTINUOUS
 72
5
 10
59.422074720
 20
162.747240580
 40
2.800000000
  1
18
 41
1.124997750
 50
90.000000000
 11
59.422074720
 21
166.947240580
  0
LINE
  8
1
 62
4
  6
CONTINUOUS
 10
99.394202899
 20
171.318840580
 11
59.627074720
 21
171.318840580
  0
POLYLINE
  8
1
 62
4
  6
CONTINUOUS
 66
1
  0
VERTEX
  8
1
 10
61.927074720
 20
169.318840580
  0
VERTEX
  8
1
 10
61.627074720
 20
171.318840580
  0
VERTEX
  8
1
 10
61.327074720
 20
169.318840580
  0
SEQEND
  8
1
  0
LINE
  8
1
 62
4
  6
CONTINUOUS
 10
61.627074720
 20
171.318840580
 11
61.627074720
 21
153.318840580
  0
POLYLINE
  8
1
 62
4
  6
CONTINUOUS
 66
1
  0
VERTEX
  8
1
 10
61.327074720
 20
155.318840580
  0
VERTEX
  8
1
 10
61.627074720
 20
153.318840580
  0
VERTEX
  8
1
 10
61.927074720
 20
155.318840580
  0
SEQEND
  8
1
  0
LINE
  8
1
 62
4
  6
CONTINUOUS
 10
99.394202899
 20
153.318840580
 11
59.627074720
 21
153.318840580
  0
ENDBLK
  8
0
  0
BLOCK
  8
0
  2
*D91
 70
65
 10
0.000000000
 20
0.000000000
  3
*D
  0
TEXT
  8
1
 62
4
  6
CONTINUOUS
 72
5
 10
194.689202899
 20
152.709240580
 40
2.800000000
  1
φ
 41
1.164760695
 50
90.000000000
 11
194.689202899
 21
155.789240580
  0
TEXT
  8
1
 62
4
  6
CONTINUOUS
 72
5
 10
194.689202899
 20
157.329240580
 40
2.800000000
  1
22.8
 41
1.008332661
 50
90.000000000
 11
194.689202899
 21
165.799240580
  0
TEXT
  8
1
 62
4
  6
CONTINUOUS
 72
5
 10
192.925202899
 20
166.569240580
 40
1.400000000
  1
 0
 41
2.138891265
 50
90.000000000
 11
192.925202899
 21
169.264240580
  0
TEXT
  8
1
 62
4
  6
CONTINUOUS
 72
5
 10
195.067202899
 20
166.569240580
 40
1.400000000
  1
-0.01
 41
1.567500627
 50
90.000000000
 11
195.067202899
 21
173.884240580
  0
LINE
  8
1
 62
4
  6
CONTINUOUS
 10
171.494202899
 20
173.718840580
 11
198.894202899
 21
173.718840580
  0
POLYLINE
  8
1
 62
4
  6
CONTINUOUS
 66
1
  0
VERTEX
  8
1
 10
197.194202899
 20
171.718840580
  0
VERTEX
  8
1
 10
196.894202899
 20
173.718840580
  0
VERTEX
  8
1
 10
196.594202899
 20
171.718840580
  0
SEQEND
  8
1
  0
LINE
  8
1
 62
4
  6
CONTINUOUS
 10
196.894202899
 20
173.718840580
 11
196.894202899
 21
150.918840580
  0
POLYLINE
  8
1
 62
4
  6
CONTINUOUS
 66
1
  0
VERTEX
  8
1
 10
196.594202899
 20
152.918840580
  0
VERTEX
  8
1
 10
196.894202899
 20
150.918840580
  0
VERTEX
  8
1
 10
197.194202899
 20
152.918840580
  0
SEQEND
  8
1
  0
LINE
  8
1
 62
4
  6
CONTINUOUS
 10
171.494202899
 20
150.918840580
 11
198.894202899
 21
150.918840580
  0
ENDBLK
  8
0
  0
ENDSEC
  0
SECTION
  2
ENTITIES
  0
ARC
  8
1
 62
7
  6
CONTINUOUS
 10
108.094202899
 20
151.818840580
 40
1.500000000
 50
0.000000000
 51
90.000000000
  0
LINE
  8
1
 62
7
  6
CONTINUOUS
 10
171.494202899
 20
150.918840580
 11
171.594202899
 21
151.018840580
  0
LINE
  8
1
 62
7
  6
CONTINUOUS
 10
184.894202899
 20
154.518840580
 11
184.894202899
 21
170.118840580
  0
LINE
  8
1
 62
7
  6
CONTINUOUS
 10
172.594202899
 20
153.768840580
 11
177.894202899
 21
153.768840580
  0
LINE
  8
1
 62
7
  6
CONTINUOUS
 10
171.594202899
 20
151.018840580
 11
171.594202899
 21
173.618840580
  0
LINE
  8
1
 62
1
  6
CENTER
 10
75.627074720
 20
162.318840580
 11
186.894202899
 21
162.318840580
  0
LINE
  8
1
 62
7
  6
CONTINUOUS
 10
110.094202899
 20
150.918840580
 11
171.494202899
 21
150.918840580
  0
LINE
  8
1
 62
7
  6
CONTINUOUS
 10
109.594202899
 20
173.218840580
 11
109.594202899
 21
151.418840580
  0
LINE
  8
1
 62
7
  6
CONTINUOUS
 10
99.394202899
 20
153.318840580
 11
108.094202899
 21
153.318840580
  0
LINE
  8
1
 62
7
  6
CONTINUOUS
 10
99.294202899
 20
171.218840580
 11
99.294202899
 21
153.418840580
  0
LINE
  8
1
 62
7
  6
CONTINUOUS
 10
99.094202899
 20
154.818840580
 11
99.294202899
 21
154.818840580
  0
LINE
  8
1
 62
7
  6
CONTINUOUS
 10
89.627074720
 20
164.226718983
 11
89.627074720
 21
160.410962177
  0
DIMENSION
  8
1
 62
4
  6
CONTINUOUS
  2
*D13
 70
0
 10
87.627074720
 20
122.918840580
 11
136.260638809
 21
122.918840580
 14
87.627074720
 24
159.718840580
 13
184.894202899
 23
154.518840580
 50
0.000000000
  0
LINE
  8
1
 62
1
  6
CONTINUOUS
 10
184.894202899
 20
154.518840580
 11
177.894202899
 21
154.518840580
  0
LINE
  8
1
 62
1
  6
CONTINUOUS
 10
177.894202899
 20
154.518840580
 11
176.595164793
 21
153.768840580
  0
LINE
  8
1
 62
7
  6
CONTINUOUS
 10
95.594202899
 20
158.218840579
 11
91.094202899
 21
158.218840579
  0
LINE
  8
1
 62
7
  6
CONTINUOUS
 10
172.594202899
 20
153.768840580
 11
172.594202899
 21
170.868840580
  0
LINE
  8
1
 62
7
  6
CONTINUOUS
 10
172.594202899
 20
153.918840580
 11
171.594202899
 21
153.918840580
  0
LINE
  8
1
 62
7
  6
CONTINUOUS
 10
99.294202899
 20
153.418840580
 11
99.394202899
 21
153.318840580
  0
LINE
  8
1
 62
7
  6
CONTINUOUS
 10
177.894202899
 20
153.768840580
 11
177.894202899
 21
170.868840580
  0
LINE
  8
1
 62
7
  6
CONTINUOUS
 10
98.994202899
 20
171.068840580
 11
95.794202899
 21
171.068840580
  0
LINE
  8
1
 62
7
  6
CONTINUOUS
 10
90.594202899
 20
165.918840580
 11
91.094202899
 21
166.418840580
  0
LINE
  8
1
 62
7
  6
CONTINUOUS
 10
177.894202899
 20
153.918840580
 11
184.294202899
 21
153.918840580
  0
LINE
  8
1
 62
7
  6
CONTINUOUS
 10
109.594202899
 20
151.418840580
 11
110.094202899
 21
150.918840580
  0
ARC
  8
1
 62
7
  6
CONTINUOUS
 10
77.927074720
 20
163.518840580
 40
0.300000000
 50
89.999999935
 51
180.000000000
  0
LINE
  8
1
 62
7
  6
CONTINUOUS
 10
108.094202899
 20
170.189901856
 11
108.094202899
 21
154.447779303
  0
ARC
  8
1
 62
7
  6
CONTINUOUS
 10
108.094202899
 20
172.818840580
 40
1.500000000
 50
270.000000000
 51
0.000000000
  0
LINE
  8
1
 62
7
  6
CONTINUOUS
 10
184.894202899
 20
154.518840580
 11
184.294202899
 21
153.918840580
  0
LINE
  8
1
 62
7
  6
CONTINUOUS
 10
171.494202899
 20
173.718840580
 11
171.594202899
 21
173.618840580
  0
LINE
  8
1
 62
7
  6
CONTINUOUS
 10
172.594202899
 20
170.868840580
 11
177.894202899
 21
170.868840580
  0
LINE
  8
1
 62
7
  6
CONTINUOUS
 10
110.094202899
 20
173.718840580
 11
171.494202899
 21
173.718840580
  0
LINE
  8
1
 62
7
  6
CONTINUOUS
 10
99.394202899
 20
171.318840580
 11
108.094202899
 21
171.318840580
  0
LINE
  8
1
 62
7
  6
CONTINUOUS
 10
99.094202899
 20
169.818840580
 11
99.294202899
 21
169.818840580
  0
LINE
  8
1
 62
1
  6
CONTINUOUS
 10
184.894202899
 20
170.118840580
 11
177.894202899
 21
170.118840580
  0
LINE
  8
1
 62
1
  6
CONTINUOUS
 10
177.894202899
 20
170.118840580
 11
176.595164793
 21
170.868840580
  0
LINE
  8
1
 62
4
  6
CONTINUOUS
 10
92.894202899
 20
164.534128371
 11
95.094202899
 21
160.103552788
  0
LINE
  8
1
 62
7
  6
CONTINUOUS
 10
172.594202899
 20
170.718840580
 11
171.594202899
 21
170.718840580
  0
LINE
  8
1
 62
7
  6
CONTINUOUS
 10
99.294202899
 20
171.218840580
 11
99.394202899
 21
171.318840580
  0
LINE
  8
1
 62
7
  6
CONTINUOUS
 10
95.594202899
 20
170.868840580
 11
95.794202899
 21
171.068840580
  0
LINE
  8
1
 62
7
  6
CONTINUOUS
 10
169.594202899
 20
167.792413453
 11
166.394202899
 21
167.792413453
  0
LINE
  8
1
 62
7
  6
CONTINUOUS
 10
177.894202899
 20
170.718840580
 11
184.294202899
 21
170.718840580
  0
LINE
  8
1
 62
7
  6
CONTINUOUS
 10
109.594202899
 20
173.218840580
 11
110.094202899
 21
173.718840580
  0
LINE
  8
1
 62
7
  6
CONTINUOUS
 10
99.094202899
 20
153.668840580
 11
99.094202899
 21
170.968840580
  0
LINE
  8
1
 62
7
  6
CONTINUOUS
 10
184.894202899
 20
170.118840580
 11
184.294202899
 21
170.718840580
  0
LINE
  8
1
 62
4
  6
CONTINUOUS
 10
95.094202899
 20
164.534128371
 11
92.894202899
 21
160.103552788
  0
ARC
  8
1
 62
7
  6
CONTINUOUS
 10
151.465404446
 20
162.318840580
 40
18.937088829
 50
343.199519417
 51
16.800480583
  0
LINE
  8
1
 62
7
  6
CONTINUOUS
 10
110.094202899
 20
150.918840580
 11
110.094202899
 21
173.718840580
  0
ARC
  8
1
 62
7
  6
CONTINUOUS
 10
184.523001351
 20
162.318840580
 40
18.937088829
 50
163.199519417
 51
196.800480583
  0
LINE
  8
1
 62
4
  6
CONTINUOUS
 10
166.394202899
 20
167.792413453
 11
169.594202899
 21
156.845267706
  0
LINE
  8
1
 62
4
  6
CONTINUOUS
 10
169.594202899
 20
167.792413453
 11
166.394202899
 21
156.845267706
  0
LINE
  8
1
 62
7
  6
CONTINUOUS
 10
169.594202899
 20
156.845267706
 11
166.394202899
 21
156.845267706
  0
LINE
  8
1
 62
7
  6
CONTINUOUS
 10
166.394202899
 20
167.792413453
 11
166.394202899
 21
156.845267706
  0
LINE
  8
1
 62
7
  6
CONTINUOUS
 10
169.594202899
 20
167.792413453
 11
169.594202899
 21
156.845267706
  0
LINE
  8
1
 62
7
  6
CONTINUOUS
 10
95.594202899
 20
170.868840580
 11
95.594202899
 21
153.768840580
  0
LINE
  8
1
 62
7
  6
CONTINUOUS
 10
98.994202899
 20
171.068840580
 11
99.094202899
 21
170.968840580
  0
LINE
  8
1
 62
7
  6
CONTINUOUS
 10
98.994202899
 20
153.568840580
 11
99.094202899
 21
153.668840580
  0
LINE
  8
1
 62
7
  6
CONTINUOUS
 10
98.994202899
 20
153.568840580
 11
95.794202899
 21
153.568840580
  0
LINE
  8
1
 62
7
  6
CONTINUOUS
 10
89.627074720
 20
160.410962177
 11
87.977074720
 21
160.410962177
  0
LINE
  8
1
 62
7
  6
CONTINUOUS
 10
95.094202899
 20
160.103552788
 11
92.894202899
 21
160.103552788
  0
LINE
  8
1
 62
7
  6
CONTINUOUS
 10
95.594202899
 20
166.418840580
 11
91.094202899
 21
166.418840580
  0
LINE
  8
1
 62
7
  6
CONTINUOUS
 10
95.094202899
 20
164.534128371
 11
95.094202899
 21
160.103552788
  0
LINE
  8
1
 62
7
  6
CONTINUOUS
 10
95.094202899
 20
164.534128371
 11
92.894202899
 21
164.534128371
  0
LINE
  8
1
 62
7
  6
CONTINUOUS
 10
92.894202899
 20
160.103552788
 11
92.894202899
 21
164.534128371
  0
LINE
  8
1
 62
7
  6
CONTINUOUS
 10
90.594202899
 20
165.918840580
 11
90.594202899
 21
158.718840580
  0
LINE
  8
1
 62
7
  6
CONTINUOUS
 10
90.594202899
 20
158.718840580
 11
91.094202899
 21
158.218840579
  0
LINE
  8
1
 62
7
  6
CONTINUOUS
 10
95.594202899
 20
153.768840580
 11
95.794202899
 21
153.568840580
  0
LINE
  8
1
 62
7
  6
CONTINUOUS
 10
87.977074720
 20
160.410962177
 11
87.627074720
 21
161.015959158
  0
LINE
  8
1
 62
7
  6
CONTINUOUS
 10
90.027074720
 20
159.368840580
 11
90.594202899
 21
159.468840579
  0
LINE
  8
1
 62
7
  6
CONTINUOUS
 10
87.627074720
 20
159.718840580
 11
87.627074720
 21
164.918840580
  0
LINE
  8
1
 62
7
  6
CONTINUOUS
 10
87.977074720
 20
159.368840580
 11
90.027074720
 21
159.368840580
  0
LINE
  8
1
 62
7
  6
CONTINUOUS
 10
90.027074720
 20
159.368840580
 11
90.027074720
 21
165.268840580
  0
LINE
  8
1
 62
7
  6
CONTINUOUS
 10
87.977074720
 20
160.410962177
 11
87.977074720
 21
159.368840580
  0
LINE
  8
1
 62
7
  6
CONTINUOUS
 10
87.977074720
 20
159.368840580
 11
87.627074720
 21
159.718840580
  0
LINE
  8
1
 62
7
  6
CONTINUOUS
 10
90.027074720
 20
165.268840580
 11
90.594202899
 21
165.168840580
  0
LINE
  8
1
 62
7
  6
CONTINUOUS
 10
87.977074720
 20
165.268840580
 11
90.027074720
 21
165.268840580
  0
LINE
  8
1
 62
7
  6
CONTINUOUS
 10
87.977074720
 20
165.268840580
 11
87.627074720
 21
164.918840580
  0
LINE
  8
1
 62
7
  6
CONTINUOUS
 10
89.627074720
 20
164.226718983
 11
87.977074720
 21
164.226718983
  0
LINE
  8
1
 62
7
  6
CONTINUOUS
 10
87.977074720
 20
164.226718983
 11
87.627074720
 21
163.621722002
  0
LINE
  8
1
 62
7
  6
CONTINUOUS
 10
87.977074720
 20
165.268840580
 11
87.977074720
 21
164.226718983
  0
LINE
  8
1
 62
7
  6
CONTINUOUS
 10
77.927074720
 20
163.818840580
 11
87.627074720
 21
163.818840580
  0
LINE
  8
1
 62
7
  6
CONTINUOUS
 10
87.627074720
 20
160.818840580
 11
77.927074720
 21
160.818840580
  0
LINE
  8
1
 62
7
  6
CONTINUOUS
 10
91.094202899
 20
166.418840580
 11
91.094202899
 21
158.218840579
  0
LINE
  8
1
 62
7
  6
CONTINUOUS
 10
77.627074720
 20
163.518840580
 11
77.627074720
 21
161.118840580
  0
ARC
  8
1
 62
7
  6
CONTINUOUS
 10
77.927074720
 20
161.118840580
 40
0.300000000
 50
180.000000000
 51
270.000000000
  0
DIMENSION
  8
1
 62
4
  6
CONTINUOUS
  2
*D85
 70
0
 10
95.594202899
 20
130.918840580
 11
91.610638809
 21
130.918840580
 14
95.594202899
 24
153.768840580
 13
87.627074720
 23
159.718840580
 50
0.000000000
  0
DIMENSION
  8
1
 62
4
  6
CONTINUOUS
  2
*D86
 70
0
 10
109.594202899
 20
130.918840580
 11
102.594202899
 21
130.918840580
 14
109.594202899
 24
151.418840580
 13
95.594202899
 23
153.768840580
 50
0.000000000
  0
DIMENSION
  8
1
 62
4
  6
CONTINUOUS
  2
*D87
 70
0
 10
171.594202899
 20
130.918840580
 11
140.594202899
 21
130.918840580
 14
171.594202899
 24
151.018840580
 13
109.594202899
 23
151.418840580
 50
0.000000000
  0
DIMENSION
  8
1
 62
4
  6
CONTINUOUS
  2
*D88
 70
0
 10
184.894202899
 20
130.918840580
 11
178.244202899
 21
130.918840580
 14
184.894202899
 24
154.518840580
 13
171.594202899
 23
151.018840580
 50
0.000000000
  0
DIMENSION
  8
1
 62
4
  6
CONTINUOUS
  2
*D89
 70
1
 10
69.627074720
 20
158.218840579
 11
69.627074720
 21
162.318840580
 14
91.094202899
 24
158.218840579
 13
91.094202899
 23
166.418840580
 50
90.000000000
  0
DIMENSION
  8
1
 62
4
  6
CONTINUOUS
  2
*D90
 70
1
 10
61.627074720
 20
153.318840580
 11
61.627074720
 21
162.318840580
 14
99.394202899
 24
153.318840580
 13
99.394202899
 23
171.318840580
 50
90.000000000
  0
DIMENSION
  8
1
 62
4
  6
CONTINUOUS
  2
*D91
 70
1
 10
196.894202899
 20
150.918840580
 11
196.894202899
 21
162.318840580
 14
171.494202899
 24
150.918840580
 13
171.494202899
 23
173.718840580
 50
90.000000000
  0
LINE
  8
1
 62
7
  6
CONTINUOUS
 10
184.294202899
 20
153.918840580
 11
184.294202899
 21
170.718840580
  0
TEXT
  8
1
 62
3
  6
CONTINUOUS
 72
5
 10
124.460638809
 20
108.934840580
 40
4.000000000
  1
ＮＲ－６０１
 41
0.835205345
 11
147.660638809
 21
108.934840580
  0
ENDSEC
  0
EOF
