  0
SECTION
  2
HEADER
  9
$ACADVER
  1
AC1009
  9
$INSBASE
 10
0.000000000
 20
0.000000000
  9
$EXTMIN
 10
-31.628015371
 20
-22.887826087
  9
$EXTMAX
 10
347.908169078
 20
251.766086957
  9
$LIMMIN
 10
-31.628015371
 20
-22.887826087
  9
$LIMMAX
 10
347.908169078
 20
251.766086957
  9
$SNAPBASE
 10
0.000000000
 20
0.000000000
  9
$SNAPANG
 50
0.000000000
  9
$SNAPSTYLE
 70
0
  9
$GRIDMODE
 70
0
  9
$GRIDUNIT
 10
0.000000000
 20
0.000000000
  9
$DIMEXO
 40
0.000000000
  9
$DIMDLI
 40
8.000000000
  9
$DIMDLE
 40
0.000000000
  9
$DIMEXE
 40
1.000000000
  9
$DIMTIH
 70
1
  9
$DIMTOH
 70
1
  9
$DIMTAD
 70
2
  9
$DIMZIN
 70
0
  9
$FILLETRAD
 40
1.000000000
  9
$CHAMFERA
 40
1.000000000
  9
$CHAMFERB
 40
1.000000000
  9
$TDCREATE
 40
2454152.701053241
  9
$TDUPDATE
 40
2454152.701053241
  9
$ANGBASE
 50
0.000000000
  9
$ANGDIR
 70
0
  0
ENDSEC
  0
SECTION
  2
TABLES
  0
TABLE
  2
LTYPE
 70
4
  0
LTYPE
  2
CENTER
 70
64
  3
___ _ ___ _ __
 72
65
 73
4
 40
13.000000000
 49
8.500000000
 49
-1.500000000
 49
1.500000000
 49
-1.500000000
  0
LTYPE
  2
CONTINUOUS
 70
64
  3
______________
 72
65
 73
0
 40
0.000000000
  0
LTYPE
  2
DIVIDE
 70
64
  3
___ . . ___ . 
 72
65
 73
6
 40
12.999999523
 49
5.199999809
 49
-2.599999905
 49
0.000000000
 49
-2.599999905
 49
0.000000000
 49
-2.599999905
  0
LTYPE
  2
HIDDEN
 70
64
  3
__ __ __ __ __
 72
65
 73
2
 40
3.000000000
 49
2.000000000
 49
-1.000000000
  0
ENDTAB
  0
TABLE
  2
LAYER
 70
3
  0
LAYER
  2
1
 70
0
 62
7
  6
CONTINUOUS
  0
LAYER
  2
2
 70
0
 62
7
  6
CONTINUOUS
  0
LAYER
  2
5
 70
0
 62
7
  6
CONTINUOUS
999
Comment
  0
LAYER
  2
_CONSTR
 70
0
 62
5
  6
CONTINUOUS
  0
ENDTAB
  0
TABLE
  2
STYLE
 70
1
  0
STYLE
  2
STANDARD
 70
64
 40
0.000000000
 41
1.000000000
 50
0.000000000
 71
0
 42
3.200000000
  3
TXT
  4
EXTFONT
  0
ENDTAB
  0
TABLE
  2
VIEW
 70
0
  0
ENDTAB
  0
ENDSEC
  0
SECTION
  2
BLOCKS
  0
BLOCK
  8
0
  2
*D21
 70
65
 10
0.000000000
 20
0.000000000
  3
*D
  0
TEXT
  8
1
 62
4
  6
CONTINUOUS
 72
5
 10
115.444507480
 20
182.995060870
 40
2.800000000
  1
φ
 41
1.270648030
 50
90.000000000
 11
115.444507480
 21
186.355060870
  0
TEXT
  8
1
 62
4
  6
CONTINUOUS
 72
5
 10
115.444507480
 20
188.035060870
 40
2.800000000
  1
22.8
 41
1.099999267
 50
90.000000000
 11
115.444507480
 21
197.275060870
  0
TEXT
  8
1
 62
4
  6
CONTINUOUS
 72
5
 10
113.680507480
 20
198.115060870
 40
1.400000000
  1
 0
 41
2.333335926
 50
90.000000000
 11
113.680507480
 21
201.055060870
  0
TEXT
  8
1
 62
4
  6
CONTINUOUS
 72
5
 10
115.822507480
 20
198.115060870
 40
1.400000000
  1
-0.01
 41
1.710000684
 50
90.000000000
 11
115.822507480
 21
206.095060870
  0
LINE
  8
1
 62
4
  6
CONTINUOUS
 10
127.749507480
 20
204.878260870
 11
115.649507480
 21
204.878260870
  0
POLYLINE
  8
1
 62
4
  6
CONTINUOUS
 66
1
  0
VERTEX
  8
1
 10
117.949507480
 20
202.878260870
  0
VERTEX
  8
1
 10
117.649507480
 20
204.878260870
  0
VERTEX
  8
1
 10
117.349507480
 20
202.878260870
  0
SEQEND
  8
1
  0
LINE
  8
1
 62
4
  6
CONTINUOUS
 10
117.649507480
 20
204.878260870
 11
117.649507480
 21
182.078260870
  0
POLYLINE
  8
1
 62
4
  6
CONTINUOUS
 66
1
  0
VERTEX
  8
1
 10
117.349507480
 20
184.078260870
  0
VERTEX
  8
1
 10
117.649507480
 20
182.078260870
  0
VERTEX
  8
1
 10
117.949507480
 20
184.078260870
  0
SEQEND
  8
1
  0
LINE
  8
1
 62
4
  6
CONTINUOUS
 10
127.749507480
 20
182.078260870
 11
115.649507480
 21
182.078260870
  0
ENDBLK
  8
0
  0
BLOCK
  8
0
  2
*D22
 70
65
 10
0.000000000
 20
0.000000000
  3
*D
  0
TEXT
  8
1
 62
4
  6
CONTINUOUS
 72
5
 10
184.821064565
 20
223.083260870
 40
2.800000000
  1
(
 41
1.800001800
 11
186.501064565
 21
223.083260870
  0
TEXT
  8
1
 62
4
  6
CONTINUOUS
 72
5
 10
187.341064565
 20
223.083260870
 40
2.800000000
  1
13.4
 41
1.237498917
 11
196.581064565
 21
223.083260870
  0
TEXT
  8
1
 62
4
  6
CONTINUOUS
 72
5
 10
197.421064565
 20
223.083260870
 40
2.800000000
  1
)
 41
1.800001800
 11
199.101064565
 21
223.083260870
  0
POLYLINE
  8
1
 62
4
  6
CONTINUOUS
 66
1
  0
VERTEX
  8
1
 10
187.999507480
 20
221.178260870
  0
VERTEX
  8
1
 10
185.999507480
 20
220.878260870
  0
VERTEX
  8
1
 10
187.999507480
 20
220.578260870
  0
SEQEND
  8
1
  0
LINE
  8
1
 62
4
  6
CONTINUOUS
 10
185.999507480
 20
220.878260870
 11
199.399507480
 21
220.878260870
  0
POLYLINE
  8
1
 62
4
  6
CONTINUOUS
 66
1
  0
VERTEX
  8
1
 10
197.399507480
 20
220.578260870
  0
VERTEX
  8
1
 10
199.399507480
 20
220.878260870
  0
VERTEX
  8
1
 10
197.399507480
 20
221.178260870
  0
SEQEND
  8
1
  0
LINE
  8
1
 62
4
  6
CONTINUOUS
 10
199.399507480
 20
204.478260870
 11
199.399507480
 21
222.878260870
  0
ENDBLK
  8
0
  0
BLOCK
  8
0
  2
*D23
 70
65
 10
0.000000000
 20
0.000000000
  3
*D
  0
TEXT
  8
1
 62
4
  6
CONTINUOUS
 72
5
 10
150.952907480
 20
223.083260870
 40
2.800000000
  1
58.35
 41
1.049999475
 11
162.712907480
 21
223.083260870
  0
LINE
  8
1
 62
4
  6
CONTINUOUS
 10
127.649507480
 20
204.778260870
 11
127.649507480
 21
222.878260870
  0
POLYLINE
  8
1
 62
4
  6
CONTINUOUS
 66
1
  0
VERTEX
  8
1
 10
129.649507480
 20
221.178260870
  0
VERTEX
  8
1
 10
127.649507480
 20
220.878260870
  0
VERTEX
  8
1
 10
129.649507480
 20
220.578260870
  0
SEQEND
  8
1
  0
LINE
  8
1
 62
4
  6
CONTINUOUS
 10
127.649507480
 20
220.878260870
 11
185.999507480
 21
220.878260870
  0
POLYLINE
  8
1
 62
4
  6
CONTINUOUS
 66
1
  0
VERTEX
  8
1
 10
183.999507480
 20
220.578260870
  0
VERTEX
  8
1
 10
185.999507480
 20
220.878260870
  0
VERTEX
  8
1
 10
183.999507480
 20
221.178260870
  0
SEQEND
  8
1
  0
LINE
  8
1
 62
4
  6
CONTINUOUS
 10
185.999507480
 20
204.378260870
 11
185.999507480
 21
222.878260870
  0
ENDBLK
  8
0
  0
BLOCK
  8
0
  2
*D40
 70
65
 10
0.000000000
 20
0.000000000
  3
*D
  0
TEXT
  8
1
 62
4
  6
CONTINUOUS
 72
5
 10
288.647866952
 20
127.412615503
 40
2.800000000
  1
5
 41
0.899996850
 50
11.999999995
 11
290.291154921
 21
127.761907143
  0
LINE
  8
1
 62
4
  6
CONTINUOUS
 10
290.285991869
 20
135.729954639
 11
292.780932158
 21
123.992183430
  0
POLYLINE
  8
1
 62
4
  6
CONTINUOUS
 66
1
  0
VERTEX
  8
1
 10
294.383777485
 20
126.070857733
  0
VERTEX
  8
1
 10
292.365108776
 20
125.948478632
  0
SEQEND
  8
1
  0
POLYLINE
  8
1
 62
4
  6
CONTINUOUS
 66
1
  0
VERTEX
  8
1
 10
295.299551579
 20
126.572213704
  0
VERTEX
  8
1
 10
292.365108776
 20
125.948478632
  0
VERTEX
  8
1
 10
294.259030471
 20
126.657746293
  0
SEQEND
  8
1
  0
LINE
  8
1
 62
4
  6
CONTINUOUS
 10
292.365108776
 20
125.948478632
 11
287.474370773
 21
124.908920178
  0
POLYLINE
  8
1
 62
4
  6
CONTINUOUS
 66
1
  0
VERTEX
  8
1
 10
285.455702065
 20
124.786541077
  0
VERTEX
  8
1
 10
287.474370773
 20
124.908920178
  0
SEQEND
  8
1
  0
POLYLINE
  8
1
 62
4
  6
CONTINUOUS
 66
1
  0
VERTEX
  8
1
 10
284.539927971
 20
124.285185106
  0
VERTEX
  8
1
 10
287.474370773
 20
124.908920178
  0
VERTEX
  8
1
 10
285.580449079
 20
124.199652516
  0
SEQEND
  8
1
  0
LINE
  8
1
 62
4
  6
CONTINUOUS
 10
275.664732968
 20
180.468897780
 11
287.890194155
 21
122.952624977
  0
ENDBLK
  8
0
  0
BLOCK
  8
0
  2
*D53
 70
65
 10
0.000000000
 20
0.000000000
  3
*D
  0
TEXT
  8
1
 62
4
  6
CONTINUOUS
 72
5
 10
155.132907480
 20
231.083260870
 40
2.800000000
  1
(
 41
1.800001800
 11
156.812907480
 21
231.083260870
  0
TEXT
  8
1
 62
4
  6
CONTINUOUS
 72
5
 10
157.652907480
 20
231.083260870
 40
2.800000000
  1
71.75
 41
1.145453817
 11
169.412907480
 21
231.083260870
  0
TEXT
  8
1
 62
4
  6
CONTINUOUS
 72
5
 10
170.252907480
 20
231.083260870
 40
2.800000000
  1
)
 41
1.800001800
 11
171.932907480
 21
231.083260870
  0
LINE
  8
1
 62
4
  6
CONTINUOUS
 10
127.649507480
 20
204.778260870
 11
127.649507480
 21
230.878260870
  0
POLYLINE
  8
1
 62
4
  6
CONTINUOUS
 66
1
  0
VERTEX
  8
1
 10
129.649507480
 20
229.178260870
  0
VERTEX
  8
1
 10
127.649507480
 20
228.878260870
  0
VERTEX
  8
1
 10
129.649507480
 20
228.578260870
  0
SEQEND
  8
1
  0
LINE
  8
1
 62
4
  6
CONTINUOUS
 10
127.649507480
 20
228.878260870
 11
199.399507480
 21
228.878260870
  0
POLYLINE
  8
1
 62
4
  6
CONTINUOUS
 66
1
  0
VERTEX
  8
1
 10
197.399507480
 20
228.578260870
  0
VERTEX
  8
1
 10
199.399507480
 20
228.878260870
  0
VERTEX
  8
1
 10
197.399507480
 20
229.178260870
  0
SEQEND
  8
1
  0
LINE
  8
1
 62
4
  6
CONTINUOUS
 10
199.399507480
 20
204.478260870
 11
199.399507480
 21
230.878260870
  0
ENDBLK
  8
0
  0
BLOCK
  8
0
  2
*D84
 70
65
 10
0.000000000
 20
0.000000000
  3
*D
  0
TEXT
  8
1
 62
4
  6
CONTINUOUS
 72
5
 10
255.524292918
 20
127.758414226
 40
2.800000000
  1
5
 41
0.899996850
 50
348.000000000
 11
257.167580887
 21
127.409122586
  0
LINE
  8
1
 62
4
  6
CONTINUOUS
 10
270.134281992
 20
180.468897780
 11
257.908820805
 21
122.952624977
  0
POLYLINE
  8
1
 62
4
  6
CONTINUOUS
 66
1
  0
VERTEX
  8
1
 10
260.218565881
 20
124.199652517
  0
VERTEX
  8
1
 10
258.324644186
 20
124.908920178
  0
SEQEND
  8
1
  0
POLYLINE
  8
1
 62
4
  6
CONTINUOUS
 66
1
  0
VERTEX
  8
1
 10
261.259086989
 20
124.285185106
  0
VERTEX
  8
1
 10
258.324644186
 20
124.908920178
  0
VERTEX
  8
1
 10
260.343312895
 20
124.786541077
  0
SEQEND
  8
1
  0
LINE
  8
1
 62
4
  6
CONTINUOUS
 10
258.324644186
 20
124.908920178
 11
253.433906183
 21
125.948478632
  0
POLYLINE
  8
1
 62
4
  6
CONTINUOUS
 66
1
  0
VERTEX
  8
1
 10
251.539984488
 20
126.657746293
  0
VERTEX
  8
1
 10
253.433906183
 20
125.948478632
  0
SEQEND
  8
1
  0
POLYLINE
  8
1
 62
4
  6
CONTINUOUS
 66
1
  0
VERTEX
  8
1
 10
250.499463380
 20
126.572213704
  0
VERTEX
  8
1
 10
253.433906183
 20
125.948478632
  0
VERTEX
  8
1
 10
251.415237474
 20
126.070857733
  0
SEQEND
  8
1
  0
LINE
  8
1
 62
4
  6
CONTINUOUS
 10
255.215963029
 20
134.332396927
 11
253.018082801
 21
123.992183430
  0
ENDBLK
  8
0
  0
BLOCK
  8
0
  2
*D85
 70
65
 10
0.000000000
 20
0.000000000
  3
*D
  0
TEXT
  8
1
 62
4
  6
CONTINUOUS
 72
5
 10
262.469180299
 20
126.304320515
 40
2.800000000
  1
12
 41
1.124997750
 50
354.000000000
 11
266.646172260
 21
125.865300970
  0
TEXT
  8
1
 62
4
  6
CONTINUOUS
 72
5
 10
267.481570652
 20
125.777497060
 40
2.800000000
  1
°
 41
1.270648030
 50
354.000000000
 11
270.823164220
 21
125.426281424
  0
POLYLINE
  8
1
 62
4
  6
CONTINUOUS
 66
1
  0
VERTEX
  8
1
 10
270.899507480
 20
123.077040318
  0
VERTEX
  8
1
 10
272.899507480
 20
123.377040318
  0
VERTEX
  8
1
 10
270.899507480
 20
123.677040318
  0
SEQEND
  8
1
  0
ARC
  8
1
 62
4
  6
CONTINUOUS
 10
272.899507480
 20
193.478260870
 40
70.101220552
 50
258.000000000
 51
270.000000000
  0
POLYLINE
  8
1
 62
4
  6
CONTINUOUS
 66
1
  0
VERTEX
  8
1
 10
260.343312895
 20
124.786541077
  0
VERTEX
  8
1
 10
258.324644186
 20
124.908920178
  0
VERTEX
  8
1
 10
260.218565880
 20
124.199652516
  0
SEQEND
  8
1
  0
LINE
  8
1
 62
4
  6
CONTINUOUS
 10
270.134281992
 20
180.468897780
 11
257.908820805
 21
122.952624977
  0
ENDBLK
  8
0
  0
BLOCK
  8
0
  2
*D86
 70
65
 10
0.000000000
 20
0.000000000
  3
*D
  0
TEXT
  8
1
 62
4
  6
CONTINUOUS
 72
5
 10
276.663355491
 20
125.603645320
 40
2.800000000
  1
12
 41
1.124997750
 50
6.000000000
 11
280.840347452
 21
126.042664866
  0
TEXT
  8
1
 62
4
  6
CONTINUOUS
 72
5
 10
281.675745844
 20
126.130468775
 40
2.800000000
  1
°
 41
1.270648030
 50
6.000000000
 11
285.017339413
 21
126.481684412
  0
LINE
  8
1
 62
4
  6
CONTINUOUS
 10
275.664732968
 20
180.468897780
 11
287.890194155
 21
122.952624977
  0
POLYLINE
  8
1
 62
4
  6
CONTINUOUS
 66
1
  0
VERTEX
  8
1
 10
285.580449079
 20
124.199652516
  0
VERTEX
  8
1
 10
287.474370773
 20
124.908920178
  0
VERTEX
  8
1
 10
285.455702064
 20
124.786541077
  0
SEQEND
  8
1
  0
ARC
  8
1
 62
4
  6
CONTINUOUS
 10
272.899507480
 20
193.478260870
 40
70.101220552
 50
270.000000000
 51
282.000000000
  0
POLYLINE
  8
1
 62
4
  6
CONTINUOUS
 66
1
  0
VERTEX
  8
1
 10
274.899507480
 20
123.677040318
  0
VERTEX
  8
1
 10
272.899507480
 20
123.377040318
  0
VERTEX
  8
1
 10
274.899507480
 20
123.077040318
  0
SEQEND
  8
1
  0
LINE
  8
1
 62
4
  6
CONTINUOUS
 10
272.899507480
 20
180.178260870
 11
272.899507480
 21
121.377040318
  0
ENDBLK
  8
0
  0
BLOCK
  8
0
  2
*D87
 70
65
 10
0.000000000
 20
0.000000000
  3
*D
  0
TEXT
  8
1
 62
4
  6
CONTINUOUS
 72
5
 10
232.294671711
 20
166.964491178
 40
2.800000000
  1
(
 41
1.800001800
 50
78.000000007
 11
232.643963351
 21
168.607779148
  0
TEXT
  8
1
 62
4
  6
CONTINUOUS
 72
5
 10
232.818609171
 20
169.429423132
 40
2.800000000
  1
60
 41
1.000000667
 50
78.000000007
 11
233.691838272
 21
173.537643055
  0
TEXT
  8
1
 62
4
  6
CONTINUOUS
 72
5
 10
233.866484092
 20
174.359287040
 40
2.800000000
  1
)
 41
1.800001800
 50
78.000000007
 11
234.215775733
 21
176.002575009
  0
LINE
  8
1
 62
4
  6
CONTINUOUS
 10
272.899507480
 20
193.478260870
 11
239.642489054
 21
200.547258353
  0
POLYLINE
  8
1
 62
4
  6
CONTINUOUS
 66
1
  0
VERTEX
  8
1
 10
241.476405154
 20
198.112766263
  0
VERTEX
  8
1
 10
241.598784256
 20
200.131434972
  0
VERTEX
  8
1
 10
240.889516594
 20
198.237513277
  0
SEQEND
  8
1
  0
LINE
  8
1
 62
4
  6
CONTINUOUS
 10
241.598784256
 20
200.131434972
 11
229.221801198
 21
141.902307777
  0
POLYLINE
  8
1
 62
4
  6
CONTINUOUS
 66
1
  0
VERTEX
  8
1
 10
229.344180299
 20
143.920976486
  0
VERTEX
  8
1
 10
229.221801198
 20
141.902307777
  0
VERTEX
  8
1
 10
229.931068860
 20
143.796229472
  0
SEQEND
  8
1
  0
LINE
  8
1
 62
4
  6
CONTINUOUS
 10
249.762900807
 20
137.536162273
 11
227.265505996
 21
142.318131159
  0
ENDBLK
  8
0
  0
BLOCK
  8
0
  2
*D88
 70
65
 10
0.000000000
 20
0.000000000
  3
*D
  0
TEXT
  8
1
 62
4
  6
CONTINUOUS
 72
5
 10
311.438202109
 20
176.684920984
 40
2.800000000
  1
(
 41
1.800001800
 50
281.999999995
 11
311.787493749
 21
175.041633014
  0
TEXT
  8
1
 62
4
  6
CONTINUOUS
 72
5
 10
311.962139569
 20
174.219989030
 40
2.800000000
  1
58
 41
0.899998740
 50
281.999999995
 11
312.835368671
 21
170.111769107
  0
TEXT
  8
1
 62
4
  6
CONTINUOUS
 72
5
 10
313.010014491
 20
169.290125122
 40
2.800000000
  1
)
 41
1.800001800
 50
281.999999995
 11
313.359306132
 21
167.646837153
  0
LINE
  8
1
 62
4
  6
CONTINUOUS
 10
272.899507480
 20
193.478260870
 11
306.156525905
 21
200.547258354
  0
POLYLINE
  8
1
 62
4
  6
CONTINUOUS
 66
1
  0
VERTEX
  8
1
 10
304.909498366
 20
198.237513279
  0
VERTEX
  8
1
 10
304.200230704
 20
200.131434973
  0
VERTEX
  8
1
 10
304.322609805
 20
198.112766264
  0
SEQEND
  8
1
  0
LINE
  8
1
 62
4
  6
CONTINUOUS
 10
304.200230704
 20
200.131434973
 11
316.280153708
 21
143.299865490
  0
POLYLINE
  8
1
 62
4
  6
CONTINUOUS
 66
1
  0
VERTEX
  8
1
 10
315.570886046
 20
145.193787184
  0
VERTEX
  8
1
 10
316.280153708
 20
143.299865490
  0
VERTEX
  8
1
 10
316.157774606
 20
145.318534199
  0
SEQEND
  8
1
  0
LINE
  8
1
 62
4
  6
CONTINUOUS
 10
295.724561048
 20
138.930639394
 11
318.236448909
 21
143.715688871
  0
ENDBLK
  8
0
  0
BLOCK
  8
0
  2
*D117
 70
65
 10
0.000000000
 20
0.000000000
  3
*D
  0
TEXT
  8
1
 62
4
  6
CONTINUOUS
 72
5
 10
236.785396978
 20
154.816206306
 40
2.800000000
  1
(
 41
1.650001650
 50
348.000000007
 11
238.291744283
 21
154.496022302
  0
TEXT
  8
1
 62
4
  6
CONTINUOUS
 72
5
 10
239.044917935
 20
154.335930300
 40
2.800000000
  1
φ
 41
1.164760695
 50
348.000000007
 11
242.057612546
 21
153.695562293
  0
TEXT
  8
1
 62
4
  6
CONTINUOUS
 72
5
 10
243.563959851
 20
153.375378289
 40
2.800000000
  1
14
 41
1.031247938
 50
348.000000007
 11
247.329828114
 21
152.574918280
  0
TEXT
  8
1
 62
4
  6
CONTINUOUS
 72
5
 10
248.083001766
 20
152.414826278
 40
2.800000000
  1
)
 41
1.650001650
 50
348.000000007
 11
249.589349072
 21
152.094642274
  0
LINE
  8
1
 62
4
  6
CONTINUOUS
 10
264.600162124
 20
144.813442122
 11
265.389429195
 21
148.526651750
  0
POLYLINE
  8
1
 62
4
  6
CONTINUOUS
 66
1
  0
VERTEX
  8
1
 10
262.954937104
 20
146.692735649
  0
VERTEX
  8
1
 10
264.973605813
 20
146.570356548
  0
VERTEX
  8
1
 10
263.079684119
 20
147.279624210
  0
SEQEND
  8
1
  0
LINE
  8
1
 62
4
  6
CONTINUOUS
 10
264.973605813
 20
146.570356548
 11
251.279539402
 21
149.481120218
  0
POLYLINE
  8
1
 62
4
  6
CONTINUOUS
 66
1
  0
VERTEX
  8
1
 10
253.298208111
 20
149.358741117
  0
VERTEX
  8
1
 10
251.279539402
 20
149.481120218
  0
VERTEX
  8
1
 10
253.173461097
 20
148.771852557
  0
SEQEND
  8
1
  0
LINE
  8
1
 62
4
  6
CONTINUOUS
 10
250.854965535
 20
147.483657216
 11
251.695362784
 21
151.437415420
  0
POLYLINE
  8
1
 62
4
  6
CONTINUOUS
 66
1
  0
VERTEX
  8
1
 10
264.973605813
 20
146.570356548
  0
VERTEX
  8
1
 10
234.370656498
 20
153.075214227
  0
SEQEND
  8
1
  0
ENDBLK
  8
0
  0
BLOCK
  8
0
  2
*D125
 70
65
 10
0.000000000
 20
0.000000000
  3
*D
  0
TEXT
  8
1
 62
4
  6
CONTINUOUS
 72
5
 10
295.044328291
 20
151.629636921
 40
2.800000000
  1
(
 41
1.650001650
 50
11.999999995
 11
296.550675596
 21
151.949820924
  0
TEXT
  8
1
 62
4
  6
CONTINUOUS
 72
5
 10
297.303849248
 20
152.109912926
 40
2.800000000
  1
φ
 41
1.164760695
 50
11.999999995
 11
300.316543859
 21
152.750280934
  0
TEXT
  8
1
 62
4
  6
CONTINUOUS
 72
5
 10
301.822891164
 20
153.070464937
 40
2.800000000
  1
12
 41
1.031247938
 50
11.999999995
 11
305.588759427
 21
153.870924947
  0
TEXT
  8
1
 62
4
  6
CONTINUOUS
 72
5
 10
306.341933079
 20
154.031016949
 40
2.800000000
  1
)
 41
1.650001650
 50
11.999999995
 11
307.848280385
 21
154.351200952
  0
LINE
  8
1
 62
4
  6
CONTINUOUS
 10
281.702378849
 20
147.183007831
 11
282.249080080
 21
144.610980755
  0
POLYLINE
  8
1
 62
4
  6
CONTINUOUS
 66
1
  0
VERTEX
  8
1
 10
283.727178393
 20
147.276543618
  0
VERTEX
  8
1
 10
281.833256699
 20
146.567275957
  0
VERTEX
  8
1
 10
283.851925408
 20
146.689655058
  0
SEQEND
  8
1
  0
LINE
  8
1
 62
4
  6
CONTINUOUS
 10
281.833256699
 20
146.567275957
 11
293.571027908
 21
149.062216245
  0
POLYLINE
  8
1
 62
4
  6
CONTINUOUS
 66
1
  0
VERTEX
  8
1
 10
291.677106214
 20
148.352948583
  0
VERTEX
  8
1
 10
293.571027908
 20
149.062216245
  0
VERTEX
  8
1
 10
291.552359199
 20
148.939837144
  0
SEQEND
  8
1
  0
LINE
  8
1
 62
4
  6
CONTINUOUS
 10
293.454917836
 20
149.608471185
 11
293.986851290
 21
147.105921044
  0
POLYLINE
  8
1
 62
4
  6
CONTINUOUS
 66
1
  0
VERTEX
  8
1
 10
293.571027908
 20
149.062216245
  0
VERTEX
  8
1
 10
310.247957391
 20
152.607007035
  0
SEQEND
  8
1
  0
ENDBLK
  8
0
  0
BLOCK
  8
0
  2
*D194
 70
65
 10
0.000000000
 20
0.000000000
  3
*D
  0
TEXT
  8
1
 62
4
  6
CONTINUOUS
 72
5
 10
209.194507480
 20
186.346660870
 40
2.800000000
  1
φ
 41
1.270648030
 50
90.000000000
 11
209.194507480
 21
189.706660870
  0
TEXT
  8
1
 62
4
  6
CONTINUOUS
 72
5
 10
209.194507480
 20
191.386660870
 40
2.800000000
  1
22.6
 41
1.099999267
 50
90.000000000
 11
209.194507480
 21
200.626660870
  0
LINE
  8
1
 62
4
  6
CONTINUOUS
 10
199.099507480
 20
204.778260870
 11
213.399507480
 21
204.778260870
  0
POLYLINE
  8
1
 62
4
  6
CONTINUOUS
 66
1
  0
VERTEX
  8
1
 10
211.699507480
 20
202.778260870
  0
VERTEX
  8
1
 10
211.399507480
 20
204.778260870
  0
VERTEX
  8
1
 10
211.099507480
 20
202.778260870
  0
SEQEND
  8
1
  0
LINE
  8
1
 62
4
  6
CONTINUOUS
 10
211.399507480
 20
204.778260870
 11
211.399507480
 21
182.178260870
  0
POLYLINE
  8
1
 62
4
  6
CONTINUOUS
 66
1
  0
VERTEX
  8
1
 10
211.099507480
 20
184.178260870
  0
VERTEX
  8
1
 10
211.399507480
 20
182.178260870
  0
VERTEX
  8
1
 10
211.699507480
 20
184.178260870
  0
SEQEND
  8
1
  0
LINE
  8
1
 62
4
  6
CONTINUOUS
 10
199.099507480
 20
182.178260870
 11
213.399507480
 21
182.178260870
  0
ENDBLK
  8
0
  0
ENDSEC
  0
SECTION
  2
ENTITIES
  0
LINE
  8
1
 62
1
  6
CENTER
 10
125.649507480
 20
193.478260870
 11
201.562743964
 21
193.478260870
  0
LINE
  8
1
 62
7
  6
CONTINUOUS
 10
185.999507480
 20
182.578260870
 11
185.999507480
 21
204.378260870
  0
LINE
  8
1
 62
7
  6
CONTINUOUS
 10
127.749507480
 20
204.878260870
 11
127.649507480
 21
204.778260870
  0
LINE
  8
1
 62
7
  6
CONTINUOUS
 10
127.649507480
 20
182.178260870
 11
127.649507480
 21
204.778260870
  0
LINE
  8
1
 62
7
  6
CONTINUOUS
 10
127.749507480
 20
182.078260870
 11
127.649507480
 21
182.178260870
  0
LINE
  8
1
 62
7
  6
CONTINUOUS
 10
127.749507480
 20
182.078260870
 11
185.499507480
 21
182.078260870
  0
LINE
  8
1
 62
7
  6
CONTINUOUS
 10
185.999507480
 20
182.578260870
 11
185.499507480
 21
182.078260870
  0
LINE
  8
1
 62
7
  6
CONTINUOUS
 10
127.749507480
 20
204.878260870
 11
185.499507480
 21
204.878260870
  0
LINE
  8
1
 62
7
  6
CONTINUOUS
 10
185.999507480
 20
204.378260870
 11
185.499507480
 21
204.878260870
  0
ARC
  8
1
 62
7
  6
CONTINUOUS
 10
185.674507480
 20
183.803260870
 40
0.425000000
 50
319.880833102
 51
0.000000000
  0
ARC
  8
1
 62
7
  6
CONTINUOUS
 10
185.674507480
 20
203.153260870
 40
0.425000000
 50
0.000000000
 51
40.119166898
  0
ARC
  8
1
 62
7
  6
CONTINUOUS
 10
121.020709027
 20
193.478260870
 40
18.937088829
 50
343.199519417
 51
16.800480583
  0
ARC
  8
1
 62
7
  6
CONTINUOUS
 10
154.078305932
 20
193.478260870
 40
18.937088829
 50
163.199519417
 51
196.800480583
  0
LINE
  8
1
 62
4
  6
CONTINUOUS
 10
135.949507480
 20
198.951833743
 11
139.149507480
 21
188.004687996
  0
LINE
  8
1
 62
4
  6
CONTINUOUS
 10
139.149507480
 20
198.951833743
 11
135.949507480
 21
188.004687996
  0
LINE
  8
1
 62
7
  6
CONTINUOUS
 10
135.949507480
 20
198.951833743
 11
139.149507480
 21
198.951833743
  0
LINE
  8
1
 62
7
  6
CONTINUOUS
 10
135.949507480
 20
188.004687996
 11
139.149507480
 21
188.004687996
  0
LINE
  8
1
 62
7
  6
CONTINUOUS
 10
135.949507480
 20
198.951833743
 11
135.949507480
 21
188.004687996
  0
LINE
  8
1
 62
7
  6
CONTINUOUS
 10
139.149507480
 20
198.951833743
 11
139.149507480
 21
188.004687996
  0
TEXT
  8
1
 62
3
  6
CONTINUOUS
 72
5
 10
141.074507480
 20
134.304692129
 40
4.000000000
  1
ＡＭ－３００ＬＡ
 41
0.834724541
 11
172.274507480
 21
134.304692129
  0
DIMENSION
  8
1
 62
4
  6
CONTINUOUS
  2
*D21
 70
1
 10
117.649507480
 20
182.078260870
 11
117.649507480
 21
193.478260870
 14
127.749507480
 24
182.078260870
 13
127.749507480
 23
204.878260870
 50
90.000000000
  0
DIMENSION
  8
1
 62
4
  6
CONTINUOUS
  2
*D22
 70
0
 10
199.399507480
 20
220.878260870
 11
191.952664565
 21
220.878260870
 14
199.399507480
 24
204.478260870
 13
185.999507480
 23
204.378260870
 50
0.000000000
  0
DIMENSION
  8
1
 62
4
  6
CONTINUOUS
  2
*D23
 70
0
 10
185.999507480
 20
220.878260870
 11
156.824507480
 21
220.878260870
 14
185.999507480
 24
204.378260870
 13
127.649507480
 23
204.778260870
 50
0.000000000
  0
LINE
  8
1
 62
7
  6
CONTINUOUS
 10
196.699507480
 20
188.029023280
 11
196.699507480
 21
182.178260870
  0
LINE
  8
1
 62
7
  6
CONTINUOUS
 10
189.099507480
 20
188.029023280
 11
196.699507480
 21
188.029023280
  0
LINE
  8
1
 62
7
  6
CONTINUOUS
 10
189.099507480
 20
182.178260870
 11
189.099507480
 21
188.029023280
  0
LINE
  8
5
 62
7
  6
CONTINUOUS
 10
191.399507480
 20
188.216132023
 11
188.199507480
 21
188.216132023
  0
LINE
  8
5
 62
7
  6
CONTINUOUS
 10
196.699507480
 20
182.178260870
 11
199.099507480
 21
182.178260870
  0
LINE
  8
1
 62
4
  6
CONTINUOUS
 10
188.199507480
 20
198.740389716
 11
191.399507480
 21
188.216132023
  0
LINE
  8
1
 62
4
  6
CONTINUOUS
 10
191.399507480
 20
198.740389716
 11
188.199507480
 21
188.216132023
  0
LINE
  8
1
 62
1
  6
HIDDEN
 10
282.899507480
 20
188.216132023
 11
282.899507480
 21
198.740389716
  0
LINE
  8
1
 62
1
  6
HIDDEN
 10
262.899507480
 20
198.740389716
 11
262.899507480
 21
188.216132023
  0
LINE
  8
1
 62
1
  6
CENTER
 10
286.199507480
 20
193.478260870
 11
259.599507480
 21
193.478260870
  0
LINE
  8
1
 62
1
  6
CENTER
 10
272.899507480
 20
206.778260870
 11
272.899507480
 21
180.178260870
  0
CIRCLE
  8
1
 62
7
  6
CONTINUOUS
 10
272.899507480
 20
193.478260870
 40
11.300000000
  0
LINE
  8
1
 62
1
  6
CENTER
 10
255.215963029
 20
134.332396927
 11
266.378418316
 21
186.847620167
  0
LINE
  8
1
 62
1
  6
CENTER
 10
270.134281992
 20
180.468897780
 11
272.899507480
 21
193.478260870
  0
LINE
  8
1
 62
1
  6
CENTER
 10
290.285991869
 20
135.729954639
 11
279.420596644
 21
186.847620167
  0
LINE
  8
1
 62
1
  6
CENTER
 10
275.664732968
 20
180.468897780
 11
272.899507480
 21
193.478260870
  0
DIMENSION
  8
1
 62
4
  6
CONTINUOUS
  2
*D40
 70
0
 10
287.474370768
 20
124.908920177
 11
289.919739775
 21
125.428699405
 14
275.664732968
 24
180.468897780
 13
290.285991869
 23
135.729954639
 50
11.999999995
  0
LINE
  8
5
 62
7
  6
CONTINUOUS
 10
186.199507480
 20
182.178260870
 11
189.099507480
 21
182.178260870
  0
LINE
  8
1
 62
1
  6
CENTER
 10
192.899507480
 20
190.029023280
 11
192.899507480
 21
134.288692129
  0
LINE
  8
5
 62
7
  6
CONTINUOUS
 10
188.199507480
 20
188.216132023
 11
188.199507480
 21
198.740389716
  0
LINE
  8
5
 62
7
  6
CONTINUOUS
 10
191.399507480
 20
198.740389716
 11
188.199507480
 21
198.740389716
  0
LINE
  8
5
 62
7
  6
CONTINUOUS
 10
191.399507480
 20
198.740389716
 11
191.399507480
 21
188.216132023
  0
LINE
  8
5
 62
7
  6
CONTINUOUS
 10
186.099507480
 20
182.278260870
 11
186.199507480
 21
182.178260870
  0
LINE
  8
5
 62
7
  6
CONTINUOUS
 10
199.099507480
 20
204.778260870
 11
199.399507480
 21
204.478260870
  0
LINE
  8
5
 62
7
  6
CONTINUOUS
 10
186.099507480
 20
204.678260870
 11
186.199507480
 21
204.778260870
  0
LINE
  8
5
 62
7
  6
CONTINUOUS
 10
199.399507480
 20
204.478260870
 11
199.399507480
 21
182.478260870
  0
LINE
  8
5
 62
7
  6
CONTINUOUS
 10
199.099507480
 20
182.178260870
 11
199.399507480
 21
182.478260870
  0
LINE
  8
5
 62
7
  6
CONTINUOUS
 10
186.099507480
 20
182.278260870
 11
186.099507480
 21
204.678260870
  0
LINE
  8
5
 62
7
  6
CONTINUOUS
 10
186.199507480
 20
204.778260870
 11
199.099507480
 21
204.778260870
  0
DIMENSION
  8
1
 62
4
  6
CONTINUOUS
  2
*D53
 70
0
 10
199.399507480
 20
228.878260870
 11
163.524507480
 21
228.878260870
 14
199.399507480
 24
204.478260870
 13
127.649507480
 23
204.778260870
 50
0.000000000
  0
LINE
  8
1
 62
7
  6
CONTINUOUS
 10
198.899507481
 20
136.288692129
 11
198.899507481
 21
137.288692129
  0
LINE
  8
1
 62
7
  6
CONTINUOUS
 10
186.899507481
 20
137.288692129
 11
186.899507481
 21
136.288692129
  0
LINE
  8
1
 62
7
  6
CONTINUOUS
 10
199.149507481
 20
165.288692667
 11
200.899507481
 21
164.288692667
  0
LINE
  8
1
 62
7
  6
CONTINUOUS
 10
186.899507481
 20
136.288692129
 11
198.899507481
 21
136.288692129
  0
LINE
  8
1
 62
7
  6
CONTINUOUS
 10
186.649507481
 20
165.288692667
 11
184.899507481
 21
164.288692667
  0
LINE
  8
1
 62
7
  6
CONTINUOUS
 10
200.899507481
 20
164.288692667
 11
200.899507481
 21
155.288692667
  0
LINE
  8
1
 62
7
  6
CONTINUOUS
 10
197.399507481
 20
139.288692129
 11
197.399507481
 21
137.288692129
  0
LINE
  8
1
 62
7
  6
CONTINUOUS
 10
198.899507481
 20
137.288692129
 11
186.899507481
 21
137.288692129
  0
LINE
  8
1
 62
7
  6
CONTINUOUS
 10
184.899507481
 20
155.312499220
 11
185.899587342
 21
154.133992129
  0
LINE
  8
1
 62
7
  6
CONTINUOUS
 10
200.899507481
 20
155.288692667
 11
199.899507481
 21
154.133992129
  0
ARC
  8
1
 62
7
  6
CONTINUOUS
 10
186.756156078
 20
155.984294046
 40
1.850301917
 50
220.317900462
 51
332.642077288
  0
LINE
  8
1
 62
7
  6
CONTINUOUS
 10
188.399507481
 20
155.133992129
 11
188.399507481
 21
164.288692667
  0
LINE
  8
1
 62
7
  6
CONTINUOUS
 10
186.649507481
 20
165.288692667
 11
199.149507481
 21
165.288692667
  0
LINE
  8
1
 62
7
  6
CONTINUOUS
 10
184.899507481
 20
164.288692667
 11
184.899507481
 21
155.312499220
  0
LINE
  8
1
 62
7
  6
CONTINUOUS
 10
185.499507480
 20
182.078260870
 11
185.499507480
 21
204.878260870
  0
LINE
  8
1
 62
7
  6
CONTINUOUS
 10
197.688572762
 20
165.288692667
 11
197.779702796
 21
168.188497353
  0
LINE
  8
1
 62
7
  6
CONTINUOUS
 10
188.110442200
 20
165.288692667
 11
188.019312167
 21
168.188497353
  0
LINE
  8
1
 62
7
  6
CONTINUOUS
 10
196.649507481
 20
188.029023280
 11
196.649507481
 21
173.818692667
  0
LINE
  8
2
 62
7
  6
CONTINUOUS
 10
188.649507481
 20
168.818692667
 11
197.149507481
 21
168.818692667
  0
LINE
  8
1
 62
7
  6
CONTINUOUS
 10
194.899507481
 20
173.818692667
 11
194.899507481
 21
168.818692667
  0
LINE
  8
2
 62
7
  6
CONTINUOUS
 10
188.019312167
 20
168.188497353
 11
197.779702796
 21
168.188497353
  0
LINE
  8
1
 62
7
  6
CONTINUOUS
 10
197.779702796
 20
168.188497353
 11
197.149507481
 21
168.818692667
  0
LINE
  8
1
 62
7
  6
CONTINUOUS
 10
188.649507481
 20
168.818692667
 11
188.019312167
 21
168.188497353
  0
LINE
  8
1
 62
1
  6
CONTINUOUS
 10
197.181767057
 20
165.288692667
 11
197.288338826
 21
168.679861323
  0
LINE
  8
1
 62
7
  6
CONTINUOUS
 10
189.149507481
 20
188.029023280
 11
189.149507481
 21
173.818692667
  0
LINE
  8
1
 62
1
  6
CONTINUOUS
 10
188.617247905
 20
165.288692667
 11
188.510676137
 21
168.679861323
  0
LINE
  8
1
 62
7
  6
CONTINUOUS
 10
190.899507481
 20
173.818692667
 11
190.899507481
 21
168.818692667
  0
LINE
  8
1
 62
7
  6
CONTINUOUS
 10
197.149507481
 20
173.818692667
 11
197.149507481
 21
168.818692667
  0
LINE
  8
1
 62
7
  6
CONTINUOUS
 10
188.649507481
 20
173.818692667
 11
188.649507481
 21
168.818692667
  0
LINE
  8
1
 62
7
  6
CONTINUOUS
 10
197.149507481
 20
173.818692667
 11
188.649507481
 21
173.818692667
  0
DIMENSION
  8
1
 62
4
  6
CONTINUOUS
  2
*D84
 70
0
 10
253.433906184
 20
125.948478631
 11
255.879275185
 21
125.428699405
 14
255.215963029
 24
134.332396927
 13
270.134281992
 23
180.468897780
 50
348.000000007
  0
DIMENSION
  8
1
 62
4
  6
CONTINUOUS
  2
*D85
 70
5
 10
258.324644186
 20
124.908920178
 11
265.571934622
 21
123.761062139
 13
270.134281992
 23
180.468897780
 14
272.899507480
 24
180.178260870
 15
272.899507480
 25
193.478260870
  0
DIMENSION
  8
1
 62
4
  6
CONTINUOUS
  2
*D86
 70
5
 10
272.899507480
 20
123.377040318
 11
280.227080337
 21
123.761062139
 13
272.899507480
 23
180.178260870
 14
275.664732968
 24
180.468897780
 15
272.899507480
 25
193.478260870
  0
DIMENSION
  8
1
 62
4
  6
CONTINUOUS
  2
*D87
 70
0
 10
229.221801198
 20
141.902307777
 11
235.410292723
 21
171.016871376
 14
249.762900807
 24
137.536162273
 13
272.899507480
 23
193.478260870
 50
78.000000007
  0
DIMENSION
  8
1
 62
4
  6
CONTINUOUS
  2
*D88
 70
0
 10
316.280153707
 20
143.299865492
 11
310.240192202
 21
171.715650230
 14
295.724561048
 24
138.930639394
 13
272.899507480
 23
193.478260870
 50
102.000000000
  0
LINE
  8
1
 62
7
  6
CONTINUOUS
 10
253.628133061
 20
165.340119002
 11
251.761877504
 21
156.560076918
  0
LINE
  8
1
 62
7
  6
CONTINUOUS
 10
255.547803053
 20
165.954421144
 11
267.774648062
 21
163.355525009
  0
LINE
  8
1
 62
7
  6
CONTINUOUS
 10
255.148280395
 20
155.657779717
 11
257.051649663
 21
164.612428084
  0
ARC
  8
1
 62
7
  6
CONTINUOUS
 10
253.717627872
 20
156.831172466
 40
1.850301917
 50
208.317900462
 51
320.642077288
  0
LINE
  8
1
 62
7
  6
CONTINUOUS
 10
267.407289455
 20
153.210203542
 11
266.189066113
 21
152.288647672
  0
LINE
  8
1
 62
7
  6
CONTINUOUS
 10
251.761877504
 20
156.560076918
 11
252.495077819
 21
155.199394740
  0
LINE
  8
1
 62
7
  6
CONTINUOUS
 10
261.708583707
 20
136.019369584
 11
249.970812498
 21
138.514309874
  0
LINE
  8
1
 62
7
  6
CONTINUOUS
 10
260.657185687
 20
138.287532322
 11
260.241362306
 21
136.331237121
  0
LINE
  8
1
 62
7
  6
CONTINUOUS
 10
269.278494672
 20
162.013531949
 11
267.407289455
 21
153.210203542
  0
LINE
  8
1
 62
7
  6
CONTINUOUS
 10
255.547803053
 20
165.954421144
 11
253.628133061
 21
165.340119002
  0
LINE
  8
1
 62
7
  6
CONTINUOUS
 10
249.762900807
 20
137.536162273
 11
261.500672016
 21
135.041221984
  0
LINE
  8
1
 62
7
  6
CONTINUOUS
 10
267.774648062
 20
163.355525009
 11
269.278494672
 21
162.013531949
  0
LINE
  8
1
 62
7
  6
CONTINUOUS
 10
249.970812498
 20
138.514309874
 11
249.762900807
 21
137.536162273
  0
LINE
  8
1
 62
7
  6
CONTINUOUS
 10
261.500672016
 20
135.041221984
 11
261.708583707
 21
136.019369584
  0
LINE
  8
1
 62
7
  6
CONTINUOUS
 10
263.951608802
 20
153.786574500
 11
265.854978070
 21
162.741222867
  0
ARC
  8
1
 62
7
  6
CONTINUOUS
 10
255.125482431
 20
163.967558830
 40
2.031250000
 50
18.510237406
 51
78.000000000
  0
LINE
  8
1
 62
7
  6
CONTINUOUS
 10
266.189066113
 20
152.288647672
 11
263.206510535
 21
138.256826895
  0
LINE
  8
1
 62
7
  6
CONTINUOUS
 10
262.613480889
 20
137.871708940
 11
249.897562079
 21
140.574560921
  0
LINE
  8
1
 62
7
  6
CONTINUOUS
 10
252.496716893
 20
155.207490091
 11
249.512444124
 21
141.167590567
  0
ARC
  8
1
 62
7
  6
CONTINUOUS
 10
261.551094623
 20
164.136847766
 40
10.625000000
 50
232.942384582
 51
283.057615418
  0
ARC
  8
1
 62
7
  6
CONTINUOUS
 10
267.352327440
 20
161.368662695
 40
2.031250000
 50
78.000000000
 51
137.489762594
  0
LINE
  8
1
 62
7
  6
CONTINUOUS
 10
266.189066113
 20
152.288647672
 11
252.495077819
 21
155.199394740
  0
ARC
  8
1
 62
7
  6
CONTINUOUS
 10
265.744380844
 20
154.285699283
 40
1.860955976
 50
195.557708232
 51
307.106605351
  0
ARC
  8
1
 62
7
  6
CONTINUOUS
 10
259.452163842
 20
154.262154819
 40
10.625000000
 50
52.942384582
 51
103.057615418
  0
LINE
  8
1
 62
7
  6
CONTINUOUS
 10
251.438033899
 20
138.202442338
 11
251.853857281
 21
140.158737539
  0
LINE
  8
1
 62
7
  6
CONTINUOUS
 10
249.512444124
 20
141.167590567
 11
249.897562079
 21
140.574560921
  0
LINE
  8
1
 62
7
  6
CONTINUOUS
 10
262.613480889
 20
137.871708940
 11
263.206510535
 21
138.256826895
  0
LINE
  8
1
 62
7
  6
CONTINUOUS
 10
263.206510535
 20
138.256826895
 11
249.512444124
 21
141.167590567
  0
DIMENSION
  8
1
 62
4
  6
CONTINUOUS
  2
*D117
 70
0
 10
251.279539402
 20
149.481120218
 11
242.721396010
 21
151.300209750
 14
250.854965535
 24
147.483657216
 13
264.600162124
 23
144.813442122
 50
348.000000005
  0
LINE
  8
1
 62
7
  6
CONTINUOUS
 10
267.591839583
 20
172.114947425
 11
259.277584977
 21
173.882196797
  0
LINE
  8
1
 62
7
  6
CONTINUOUS
 10
259.277584977
 20
173.882196797
 11
258.238026523
 21
168.991458793
  0
LINE
  8
1
 62
7
  6
CONTINUOUS
 10
267.591839583
 20
172.114947425
 11
266.552281129
 21
167.224209421
  0
LINE
  8
1
 62
7
  6
CONTINUOUS
 10
261.478417078
 20
173.414395492
 11
260.438858624
 21
168.523657489
  0
LINE
  8
1
 62
1
  6
CONTINUOUS
 10
257.472543627
 20
165.545304905
 11
258.073364317
 21
168.884525906
  0
LINE
  8
1
 62
7
  6
CONTINUOUS
 10
262.854074691
 20
188.303390818
 11
259.766658778
 21
173.778240951
  0
LINE
  8
1
 62
1
  6
CONTINUOUS
 10
265.849907487
 20
163.764641247
 11
266.659214016
 21
167.059547215
  0
DIMENSION
  8
1
 62
4
  6
CONTINUOUS
  2
*D125
 70
0
 10
293.571027908
 20
149.062216245
 11
301.897217879
 21
150.832002557
 14
293.454917836
 24
149.608471185
 13
281.702378849
 23
147.183007831
 50
191.999999993
  0
LINE
  8
1
 62
7
  6
CONTINUOUS
 10
278.024681442
 20
163.282780201
 11
290.251526451
 21
165.881676337
  0
ARC
  8
1
 62
7
  6
CONTINUOUS
 10
290.673847073
 20
163.894814023
 40
2.031250000
 50
102.000000000
 51
161.489762594
  0
LINE
  8
1
 62
7
  6
CONTINUOUS
 10
278.387090388
 20
153.160745058
 11
280.588489107
 21
152.423831160
  0
LINE
  8
1
 62
7
  6
CONTINUOUS
 10
294.042401660
 20
156.464045788
 11
292.326182200
 21
154.918754845
  0
ARC
  8
1
 62
7
  6
CONTINUOUS
 10
279.921553469
 20
154.358698947
 40
2.031250000
 50
288.451825822
 51
341.489762594
  0
LINE
  8
1
 62
7
  6
CONTINUOUS
 10
295.516649357
 20
139.908786995
 11
283.778878148
 21
137.413846705
  0
LINE
  8
1
 62
7
  6
CONTINUOUS
 10
293.633604574
 20
141.553214660
 11
294.049427956
 21
139.596919458
  0
LINE
  8
1
 62
7
  6
CONTINUOUS
 10
283.986789839
 20
136.435699104
 11
295.724561048
 21
138.930639394
  0
LINE
  8
1
 62
7
  6
CONTINUOUS
 10
290.651049108
 20
155.585034910
 11
288.747679840
 21
164.539683277
  0
LINE
  8
1
 62
7
  6
CONTINUOUS
 10
283.778878148
 20
137.413846705
 11
283.986789839
 21
136.435699104
  0
LINE
  8
1
 62
7
  6
CONTINUOUS
 10
295.724561048
 20
138.930639394
 11
295.516649357
 21
139.908786995
  0
LINE
  8
1
 62
7
  6
CONTINUOUS
 10
278.192027535
 20
172.114947422
 11
279.231585989
 21
167.224209419
  0
LINE
  8
1
 62
7
  6
CONTINUOUS
 10
292.326182200
 20
154.918754845
 11
294.996870130
 21
142.354155996
  0
LINE
  8
1
 62
7
  6
CONTINUOUS
 10
294.611752175
 20
141.761126351
 11
283.852128567
 21
139.474097752
  0
LINE
  8
1
 62
7
  6
CONTINUOUS
 10
280.586693801
 20
152.431893303
 11
283.259098921
 21
139.859215707
  0
LINE
  8
1
 62
7
  6
CONTINUOUS
 10
292.326182200
 20
154.918754845
 11
280.588489107
 21
152.423831160
  0
LINE
  8
1
 62
7
  6
CONTINUOUS
 10
278.024681442
 20
163.282780201
 11
276.520834831
 21
161.940787142
  0
LINE
  8
1
 62
7
  6
CONTINUOUS
 10
290.251526451
 20
165.881676337
 11
292.171196443
 21
165.267374195
  0
LINE
  8
1
 62
7
  6
CONTINUOUS
 10
276.520834831
 20
161.940787142
 11
278.387090388
 21
153.160745058
  0
LINE
  8
1
 62
7
  6
CONTINUOUS
 10
285.246099549
 20
137.725714241
 11
284.830276168
 21
139.682009442
  0
LINE
  8
1
 62
7
  6
CONTINUOUS
 10
283.259098921
 20
139.859215707
 11
283.852128567
 21
139.474097752
  0
LINE
  8
1
 62
7
  6
CONTINUOUS
 10
294.611752175
 20
141.761126351
 11
294.996870130
 21
142.354155996
  0
LINE
  8
1
 62
7
  6
CONTINUOUS
 10
294.996870130
 20
142.354155996
 11
283.259098921
 21
139.859215707
  0
LINE
  8
1
 62
7
  6
CONTINUOUS
 10
281.847720702
 20
153.713829693
 11
279.944351434
 21
162.668478060
  0
LINE
  8
1
 62
7
  6
CONTINUOUS
 10
292.171196443
 20
165.267374195
 11
294.042401660
 21
156.464045788
  0
ARC
  8
1
 62
7
  6
CONTINUOUS
 10
278.447002064
 20
161.295917887
 40
2.031250000
 50
42.510237406
 51
102.000000000
  0
ARC
  8
1
 62
7
  6
CONTINUOUS
 10
284.248234881
 20
164.064102958
 40
10.625000000
 50
256.942384582
 51
307.057615418
  0
ARC
  8
1
 62
7
  6
CONTINUOUS
 10
292.148398478
 20
156.957595082
 40
2.031250000
 50
222.510237406
 51
275.560735571
  0
ARC
  8
1
 62
7
  6
CONTINUOUS
 10
286.347165661
 20
154.189410011
 40
10.625000000
 50
76.942384582
 51
127.057615418
  0
LINE
  8
1
 62
7
  6
CONTINUOUS
 10
288.283534652
 20
168.512394669
 11
287.545840595
 21
168.991458791
  0
LINE
  8
1
 62
7
  6
CONTINUOUS
 10
279.231585989
 20
167.224209419
 11
278.746186927
 21
166.476760410
  0
LINE
  8
1
 62
7
  6
CONTINUOUS
 10
279.231585989
 20
167.224209419
 11
279.495625247
 21
167.280332696
  0
LINE
  8
1
 62
7
  6
CONTINUOUS
 10
258.238026523
 20
168.991458793
 11
257.490577515
 21
168.506059731
  0
LINE
  8
1
 62
7
  6
CONTINUOUS
 10
267.037680191
 20
166.476760413
 11
266.552281129
 21
167.224209421
  0
LINE
  8
2
 62
7
  6
CONTINUOUS
 10
257.490577515
 20
168.506059731
 11
267.037680191
 21
166.476760413
  0
LINE
  8
1
 62
7
  6
CONTINUOUS
 10
265.391007481
 20
172.582748729
 11
264.351449027
 21
167.692010725
  0
LINE
  8
2
 62
7
  6
CONTINUOUS
 10
258.238026523
 20
168.991458793
 11
266.552281129
 21
167.224209421
  0
LINE
  8
1
 62
7
  6
CONTINUOUS
 10
269.341839545
 20
182.752917106
 11
267.102765783
 21
172.218903270
  0
LINE
  8
1
 62
7
  6
CONTINUOUS
 10
280.392859636
 20
172.582748727
 11
281.432418090
 21
167.692010723
  0
LINE
  8
1
 62
7
  6
CONTINUOUS
 10
276.681257280
 20
182.829863410
 11
278.925638235
 21
172.270881190
  0
LINE
  8
1
 62
7
  6
CONTINUOUS
 10
278.192027535
 20
172.114947422
 11
286.506282141
 21
173.882196794
  0
LINE
  8
1
 62
7
  6
CONTINUOUS
 10
288.820230563
 20
165.577445004
 11
288.293289603
 21
168.506059729
  0
LINE
  8
1
 62
7
  6
CONTINUOUS
 10
256.976812843
 20
165.650675736
 11
257.490577515
 21
168.506059731
  0
LINE
  8
1
 62
7
  6
CONTINUOUS
 10
266.345638271
 20
163.659270416
 11
267.037680191
 21
166.476760413
  0
LINE
  8
1
 62
7
  6
CONTINUOUS
 10
279.455977329
 20
163.587011534
 11
278.746186927
 21
166.476760410
  0
LINE
  8
1
 62
7
  6
CONTINUOUS
 10
199.899507481
 20
139.788692129
 11
185.899507481
 21
139.788692129
  0
LINE
  8
2
 62
7
  6
CONTINUOUS
 10
279.231585989
 20
167.224209419
 11
287.545840595
 21
168.991458791
  0
LINE
  8
1
 62
7
  6
CONTINUOUS
 10
278.746186927
 20
166.476760410
 11
288.293289603
 21
168.506059729
  0
LINE
  8
1
 62
1
  6
CONTINUOUS
 10
288.324499779
 20
165.472074173
 11
287.710502801
 21
168.884525904
  0
LINE
  8
1
 62
1
  6
CONTINUOUS
 10
279.951708114
 20
163.692382365
 11
279.124653102
 21
167.059547212
  0
LINE
  8
1
 62
7
  6
CONTINUOUS
 10
286.506282141
 20
173.882196794
 11
287.545840595
 21
168.991458791
  0
LINE
  8
1
 62
7
  6
CONTINUOUS
 10
282.750848486
 20
187.942822281
 11
285.772671440
 21
173.726263026
  0
LINE
  8
1
 62
7
  6
CONTINUOUS
 10
284.305450039
 20
173.414395490
 11
285.345008493
 21
168.523657486
  0
LINE
  8
1
 62
7
  6
CONTINUOUS
 10
199.399507481
 20
139.288692129
 11
199.899507481
 21
139.788692129
  0
TEXT
  8
1
 62
4
  6
CONTINUOUS
 72
5
 10
231.845801198
 20
130.367478632
 40
3.200000000
  1
（排気）
 41
0.722783070
 11
242.356570429
 21
130.367478632
  0
TEXT
  8
1
 62
4
  6
CONTINUOUS
 72
5
 10
302.904153708
 20
130.367478632
 40
3.200000000
  1
（給気）
 41
0.722783070
 11
313.414922938
 21
130.367478632
  0
LINE
  8
1
 62
7
  6
CONTINUOUS
 10
185.899507481
 20
139.788692129
 11
186.399507481
 21
139.288692129
  0
LINE
  8
1
 62
7
  6
CONTINUOUS
 10
188.399507481
 20
137.288692129
 11
188.399507481
 21
139.288692129
  0
ARC
  8
1
 62
7
  6
CONTINUOUS
 10
192.899507481
 20
154.663692667
 40
10.625000000
 50
64.942384582
 51
115.057615418
  0
ARC
  8
1
 62
7
  6
CONTINUOUS
 10
199.049329275
 20
155.994948105
 40
1.860955976
 50
207.557708232
 51
319.106605351
  0
LINE
  8
1
 62
7
  6
CONTINUOUS
 10
199.899507481
 20
154.133992129
 11
185.899587342
 21
154.133992129
  0
ARC
  8
1
 62
7
  6
CONTINUOUS
 10
199.149507481
 20
163.257442667
 40
2.031250000
 50
90.000000000
 51
149.489762594
  0
ARC
  8
1
 62
7
  6
CONTINUOUS
 10
192.899507481
 20
164.758992129
 40
10.625000000
 50
244.942384582
 51
295.057615418
  0
LINE
  8
1
 62
7
  6
CONTINUOUS
 10
185.899507481
 20
154.142251360
 11
185.899507481
 21
139.788692129
  0
LINE
  8
1
 62
7
  6
CONTINUOUS
 10
199.399507481
 20
139.288692129
 11
186.399507481
 21
139.288692129
  0
LINE
  8
1
 62
7
  6
CONTINUOUS
 10
199.899507481
 20
154.133992129
 11
199.899507481
 21
139.788692129
  0
ARC
  8
1
 62
7
  6
CONTINUOUS
 10
186.649507481
 20
163.257442667
 40
2.031250000
 50
30.510237406
 51
90.000000000
  0
LINE
  8
1
 62
7
  6
CONTINUOUS
 10
197.399507481
 20
155.133992129
 11
197.399507481
 21
164.288692667
  0
DIMENSION
  8
1
 62
4
  6
CONTINUOUS
  2
*D194
 70
1
 10
211.399507480
 20
182.178260870
 11
211.399507480
 21
193.478260870
 14
199.099507480
 24
182.178260870
 13
199.099507480
 23
204.778260870
 50
90.000000000
  0
ENDSEC
  0
EOF
