  0
SECTION
  2
HEADER
  9
$ACADVER
  1
AC1009
  9
$INSBASE
 10
0.000000000
 20
0.000000000
  9
$EXTMIN
 10
-29.925122826
 20
-21.402318841
  9
$EXTMAX
 10
329.176351084
 20
235.425507246
  9
$LIMMIN
 10
-29.925122826
 20
-21.402318841
  9
$LIMMAX
 10
329.176351084
 20
235.425507246
  9
$SNAPBASE
 10
0.000000000
 20
0.000000000
  9
$SNAPANG
 50
0.000000000
  9
$SNAPSTYLE
 70
0
  9
$GRIDMODE
 70
0
  9
$GRIDUNIT
 10
0.000000000
 20
0.000000000
  9
$DIMEXO
 40
0.000000000
  9
$DIMDLI
 40
8.000000000
  9
$DIMDLE
 40
0.000000000
  9
$DIMEXE
 40
1.000000000
  9
$DIMTIH
 70
1
  9
$DIMTOH
 70
1
  9
$DIMTAD
 70
2
  9
$DIMZIN
 70
0
  9
$FILLETRAD
 40
1.000000000
  9
$CHAMFERA
 40
1.000000000
  9
$CHAMFERB
 40
1.000000000
  9
$TDCREATE
 40
2454152.701053241
  9
$TDUPDATE
 40
2454152.701053241
  9
$ANGBASE
 50
0.000000000
  9
$ANGDIR
 70
0
  0
ENDSEC
  0
SECTION
  2
TABLES
  0
TABLE
  2
LTYPE
 70
4
  0
LTYPE
  2
CENTER
 70
64
  3
___ _ ___ _ __
 72
65
 73
4
 40
13.000000000
 49
8.500000000
 49
-1.500000000
 49
1.500000000
 49
-1.500000000
  0
LTYPE
  2
CONTINUOUS
 70
64
  3
______________
 72
65
 73
0
 40
0.000000000
  0
LTYPE
  2
DIVIDE
 70
64
  3
___ . . ___ . 
 72
65
 73
6
 40
12.999999523
 49
5.199999809
 49
-2.599999905
 49
0.000000000
 49
-2.599999905
 49
0.000000000
 49
-2.599999905
  0
LTYPE
  2
HIDDEN
 70
64
  3
__ __ __ __ __
 72
65
 73
2
 40
3.000000000
 49
2.000000000
 49
-1.000000000
  0
ENDTAB
  0
TABLE
  2
LAYER
 70
3
  0
LAYER
  2
1
 70
0
 62
7
  6
CONTINUOUS
  0
LAYER
  2
2
 70
0
 62
7
  6
CONTINUOUS
  0
LAYER
  2
5
 70
0
 62
7
  6
CONTINUOUS
999
Comment
  0
LAYER
  2
_CONSTR
 70
0
 62
5
  6
CONTINUOUS
  0
ENDTAB
  0
TABLE
  2
STYLE
 70
1
  0
STYLE
  2
STANDARD
 70
64
 40
0.000000000
 41
1.000000000
 50
0.000000000
 71
0
 42
3.200000000
  3
TXT
  4
EXTFONT
  0
ENDTAB
  0
TABLE
  2
VIEW
 70
0
  0
ENDTAB
  0
ENDSEC
  0
SECTION
  2
BLOCKS
  0
BLOCK
  8
0
  2
*D55
 70
65
 10
0.000000000
 20
0.000000000
  3
*D
  0
TEXT
  8
1
 62
4
  6
CONTINUOUS
 72
5
 10
278.029895885
 20
136.774564457
 40
2.800000000
  1
(
 41
1.650001650
 50
11.999999995
 11
279.536243190
 21
137.094748461
  0
TEXT
  8
1
 62
4
  6
CONTINUOUS
 72
5
 10
280.289416843
 20
137.254840463
 40
2.800000000
  1
φ
 41
1.164760695
 50
11.999999995
 11
283.302111453
 21
137.895208470
  0
TEXT
  8
1
 62
4
  6
CONTINUOUS
 72
5
 10
284.808458758
 20
138.215392474
 40
2.800000000
  1
12
 41
1.031247938
 50
11.999999995
 11
288.574327021
 21
139.015852483
  0
TEXT
  8
1
 62
4
  6
CONTINUOUS
 72
5
 10
289.327500674
 20
139.175944485
 40
2.800000000
  1
)
 41
1.650001650
 50
11.999999995
 11
290.833847979
 21
139.496128489
  0
LINE
  8
1
 62
4
  6
CONTINUOUS
 10
264.687946443
 20
132.327935367
 11
265.234647675
 21
129.755908292
  0
POLYLINE
  8
1
 62
4
  6
CONTINUOUS
 66
1
  0
VERTEX
  8
1
 10
266.712745988
 20
132.421471155
  0
VERTEX
  8
1
 10
264.818824293
 20
131.712203493
  0
VERTEX
  8
1
 10
266.837493002
 20
131.834582594
  0
SEQEND
  8
1
  0
LINE
  8
1
 62
4
  6
CONTINUOUS
 10
264.818824293
 20
131.712203493
 11
276.556595502
 21
134.207143781
  0
POLYLINE
  8
1
 62
4
  6
CONTINUOUS
 66
1
  0
VERTEX
  8
1
 10
274.662673808
 20
133.497876120
  0
VERTEX
  8
1
 10
276.556595502
 20
134.207143781
  0
VERTEX
  8
1
 10
274.537926794
 20
134.084764680
  0
SEQEND
  8
1
  0
LINE
  8
1
 62
4
  6
CONTINUOUS
 10
276.440485431
 20
134.753398721
 11
276.972418884
 21
132.250848580
  0
POLYLINE
  8
1
 62
4
  6
CONTINUOUS
 66
1
  0
VERTEX
  8
1
 10
276.556595502
 20
134.207143781
  0
VERTEX
  8
1
 10
293.233524985
 20
137.751934571
  0
SEQEND
  8
1
  0
ENDBLK
  8
0
  0
BLOCK
  8
0
  2
*D67
 70
65
 10
0.000000000
 20
0.000000000
  3
*D
  0
TEXT
  8
1
 62
4
  6
CONTINUOUS
 72
5
 10
219.755816727
 20
139.961133842
 40
2.800000000
  1
(
 41
1.650001650
 50
348.000000007
 11
221.262164032
 21
139.640949838
  0
TEXT
  8
1
 62
4
  6
CONTINUOUS
 72
5
 10
222.015337685
 20
139.480857836
 40
2.800000000
  1
φ
 41
1.164760695
 50
348.000000007
 11
225.028032295
 21
138.840489829
  0
TEXT
  8
1
 62
4
  6
CONTINUOUS
 72
5
 10
226.534379600
 20
138.520305825
 40
2.800000000
  1
14
 41
1.031247938
 50
348.000000007
 11
230.300247863
 21
137.719845816
  0
TEXT
  8
1
 62
4
  6
CONTINUOUS
 72
5
 10
231.053421516
 20
137.559753814
 40
2.800000000
  1
)
 41
1.650001650
 50
348.000000007
 11
232.559768821
 21
137.239569811
  0
LINE
  8
1
 62
4
  6
CONTINUOUS
 10
247.570581873
 20
129.958369659
 11
248.359848944
 21
133.671579286
  0
POLYLINE
  8
1
 62
4
  6
CONTINUOUS
 66
1
  0
VERTEX
  8
1
 10
245.925356854
 20
131.837663186
  0
VERTEX
  8
1
 10
247.944025562
 20
131.715284084
  0
VERTEX
  8
1
 10
246.050103868
 20
132.424551746
  0
SEQEND
  8
1
  0
LINE
  8
1
 62
4
  6
CONTINUOUS
 10
247.944025562
 20
131.715284084
 11
234.249959152
 21
134.626047755
  0
POLYLINE
  8
1
 62
4
  6
CONTINUOUS
 66
1
  0
VERTEX
  8
1
 10
236.268627860
 20
134.503668653
  0
VERTEX
  8
1
 10
234.249959152
 20
134.626047755
  0
VERTEX
  8
1
 10
236.143880846
 20
133.916780093
  0
SEQEND
  8
1
  0
LINE
  8
1
 62
4
  6
CONTINUOUS
 10
233.825385284
 20
132.628584752
 11
234.665782533
 21
136.582342956
  0
POLYLINE
  8
1
 62
4
  6
CONTINUOUS
 66
1
  0
VERTEX
  8
1
 10
247.944025562
 20
131.715284084
  0
VERTEX
  8
1
 10
217.341076247
 20
138.220141764
  0
SEQEND
  8
1
  0
ENDBLK
  8
0
  0
BLOCK
  8
0
  2
*D68
 70
65
 10
0.000000000
 20
0.000000000
  3
*D
  0
TEXT
  8
1
 62
4
  6
CONTINUOUS
 72
5
 10
192.164927231
 20
171.491588406
 40
2.800000000
  1
φ
 41
1.270648030
 50
90.000000000
 11
192.164927231
 21
174.851588406
  0
TEXT
  8
1
 62
4
  6
CONTINUOUS
 72
5
 10
192.164927231
 20
176.531588406
 40
2.800000000
  1
22.6
 41
1.099999267
 50
90.000000000
 11
192.164927231
 21
185.771588406
  0
LINE
  8
1
 62
4
  6
CONTINUOUS
 10
182.069927231
 20
189.923188406
 11
196.369927231
 21
189.923188406
  0
POLYLINE
  8
1
 62
4
  6
CONTINUOUS
 66
1
  0
VERTEX
  8
1
 10
194.669927231
 20
187.923188406
  0
VERTEX
  8
1
 10
194.369927231
 20
189.923188406
  0
VERTEX
  8
1
 10
194.069927231
 20
187.923188406
  0
SEQEND
  8
1
  0
LINE
  8
1
 62
4
  6
CONTINUOUS
 10
194.369927231
 20
189.923188406
 11
194.369927231
 21
167.323188406
  0
POLYLINE
  8
1
 62
4
  6
CONTINUOUS
 66
1
  0
VERTEX
  8
1
 10
194.069927231
 20
169.323188406
  0
VERTEX
  8
1
 10
194.369927231
 20
167.323188406
  0
VERTEX
  8
1
 10
194.669927231
 20
169.323188406
  0
SEQEND
  8
1
  0
LINE
  8
1
 62
4
  6
CONTINUOUS
 10
182.069927231
 20
167.323188406
 11
196.369927231
 21
167.323188406
  0
ENDBLK
  8
0
  0
BLOCK
  8
0
  2
*D98
 70
65
 10
0.000000000
 20
0.000000000
  3
*D
  0
TEXT
  8
1
 62
4
  6
CONTINUOUS
 72
5
 10
136.758327231
 20
216.228188406
 40
2.800000000
  1
(
 41
1.800001800
 11
138.438327231
 21
216.228188406
  0
TEXT
  8
1
 62
4
  6
CONTINUOUS
 72
5
 10
139.278327231
 20
216.228188406
 40
2.800000000
  1
82
 41
0.899998740
 11
143.478327231
 21
216.228188406
  0
TEXT
  8
1
 62
4
  6
CONTINUOUS
 72
5
 10
144.318327231
 20
216.228188406
 40
2.800000000
  1
)
 41
1.800001800
 11
145.998327231
 21
216.228188406
  0
LINE
  8
1
 62
4
  6
CONTINUOUS
 10
100.369927231
 20
189.923188406
 11
100.369927231
 21
216.023188406
  0
POLYLINE
  8
1
 62
4
  6
CONTINUOUS
 66
1
  0
VERTEX
  8
1
 10
102.369927231
 20
214.323188406
  0
VERTEX
  8
1
 10
100.369927231
 20
214.023188406
  0
VERTEX
  8
1
 10
102.369927231
 20
213.723188406
  0
SEQEND
  8
1
  0
LINE
  8
1
 62
4
  6
CONTINUOUS
 10
100.369927231
 20
214.023188406
 11
182.369927231
 21
214.023188406
  0
POLYLINE
  8
1
 62
4
  6
CONTINUOUS
 66
1
  0
VERTEX
  8
1
 10
180.369927231
 20
213.723188406
  0
VERTEX
  8
1
 10
182.369927231
 20
214.023188406
  0
VERTEX
  8
1
 10
180.369927231
 20
214.323188406
  0
SEQEND
  8
1
  0
LINE
  8
1
 62
4
  6
CONTINUOUS
 10
182.369927231
 20
189.623188406
 11
182.369927231
 21
216.023188406
  0
ENDBLK
  8
0
  0
BLOCK
  8
0
  2
*D165
 70
65
 10
0.000000000
 20
0.000000000
  3
*D
  0
TEXT
  8
1
 62
4
  6
CONTINUOUS
 72
5
 10
259.634104446
 20
110.745440696
 40
2.800000000
  1
12
 41
1.124997750
 50
6.000000000
 11
263.811096406
 21
111.184460241
  0
TEXT
  8
1
 62
4
  6
CONTINUOUS
 72
5
 10
264.646494798
 20
111.272264151
 40
2.800000000
  1
°
 41
1.270648030
 50
6.000000000
 11
267.988088367
 21
111.623479787
  0
LINE
  8
1
 62
4
  6
CONTINUOUS
 10
258.635152719
 20
165.613825316
 11
270.861268705
 21
108.094471921
  0
POLYLINE
  8
1
 62
4
  6
CONTINUOUS
 66
1
  0
VERTEX
  8
1
 10
268.551523630
 20
109.341499461
  0
VERTEX
  8
1
 10
270.445445324
 20
110.050767123
  0
VERTEX
  8
1
 10
268.426776615
 20
109.928388021
  0
SEQEND
  8
1
  0
ARC
  8
1
 62
4
  6
CONTINUOUS
 10
255.869927231
 20
178.623188406
 40
70.104369966
 50
270.000000000
 51
282.000000000
  0
POLYLINE
  8
1
 62
4
  6
CONTINUOUS
 66
1
  0
VERTEX
  8
1
 10
257.869927231
 20
108.818818440
  0
VERTEX
  8
1
 10
255.869927231
 20
108.518818440
  0
VERTEX
  8
1
 10
257.869927231
 20
108.218818440
  0
SEQEND
  8
1
  0
LINE
  8
1
 62
4
  6
CONTINUOUS
 10
255.869927231
 20
165.323188406
 11
255.869927231
 21
106.518818440
  0
ENDBLK
  8
0
  0
BLOCK
  8
0
  2
*D173
 70
65
 10
0.000000000
 20
0.000000000
  3
*D
  0
TEXT
  8
1
 62
4
  6
CONTINUOUS
 72
5
 10
271.618941503
 20
112.554462447
 40
2.800000000
  1
5
 41
0.899996850
 50
11.999999995
 11
273.262229472
 21
112.903754088
  0
LINE
  8
1
 62
4
  6
CONTINUOUS
 10
273.257066420
 20
120.871801584
 11
275.752006709
 21
109.134030375
  0
POLYLINE
  8
1
 62
4
  6
CONTINUOUS
 66
1
  0
VERTEX
  8
1
 10
277.354852036
 20
111.212704678
  0
VERTEX
  8
1
 10
275.336183327
 20
111.090325576
  0
SEQEND
  8
1
  0
POLYLINE
  8
1
 62
4
  6
CONTINUOUS
 66
1
  0
VERTEX
  8
1
 10
278.270626129
 20
111.714060649
  0
VERTEX
  8
1
 10
275.336183327
 20
111.090325576
  0
VERTEX
  8
1
 10
277.230105021
 20
111.799593238
  0
SEQEND
  8
1
  0
LINE
  8
1
 62
4
  6
CONTINUOUS
 10
275.336183327
 20
111.090325576
 11
270.445445319
 21
110.050767122
  0
POLYLINE
  8
1
 62
4
  6
CONTINUOUS
 66
1
  0
VERTEX
  8
1
 10
268.426776610
 20
109.928388021
  0
VERTEX
  8
1
 10
270.445445319
 20
110.050767122
  0
SEQEND
  8
1
  0
POLYLINE
  8
1
 62
4
  6
CONTINUOUS
 66
1
  0
VERTEX
  8
1
 10
267.511002517
 20
109.427032050
  0
VERTEX
  8
1
 10
270.445445319
 20
110.050767122
  0
VERTEX
  8
1
 10
268.551523625
 20
109.341499460
  0
SEQEND
  8
1
  0
LINE
  8
1
 62
4
  6
CONTINUOUS
 10
258.635152719
 20
165.613825316
 11
270.861268701
 21
108.094471920
  0
ENDBLK
  8
0
  0
BLOCK
  8
0
  2
*D176
 70
65
 10
0.000000000
 20
0.000000000
  3
*D
  0
TEXT
  8
1
 62
4
  6
CONTINUOUS
 72
5
 10
294.408949259
 20
161.828308224
 40
2.800000000
  1
(
 41
1.800001800
 50
281.999999995
 11
294.758240900
 21
160.185020255
  0
TEXT
  8
1
 62
4
  6
CONTINUOUS
 72
5
 10
294.932886720
 20
159.363376270
 40
2.800000000
  1
58
 41
0.899998740
 50
281.999999995
 11
295.806115821
 21
155.255156347
  0
TEXT
  8
1
 62
4
  6
CONTINUOUS
 72
5
 10
295.980761642
 20
154.433512363
 40
2.800000000
  1
)
 41
1.800001800
 50
281.999999995
 11
296.330053282
 21
152.790224393
  0
LINE
  8
1
 62
4
  6
CONTINUOUS
 10
255.869927231
 20
178.623188406
 11
289.126945656
 21
185.692185891
  0
POLYLINE
  8
1
 62
4
  6
CONTINUOUS
 66
1
  0
VERTEX
  8
1
 10
287.879918117
 20
183.382440815
  0
VERTEX
  8
1
 10
287.170650455
 20
185.276362509
  0
VERTEX
  8
1
 10
287.293029556
 20
183.257693801
  0
SEQEND
  8
1
  0
LINE
  8
1
 62
4
  6
CONTINUOUS
 10
287.170650455
 20
185.276362509
 11
299.251228258
 21
128.441712435
  0
POLYLINE
  8
1
 62
4
  6
CONTINUOUS
 66
1
  0
VERTEX
  8
1
 10
298.541960596
 20
130.335634129
  0
VERTEX
  8
1
 10
299.251228258
 20
128.441712435
  0
VERTEX
  8
1
 10
299.128849157
 20
130.460381143
  0
SEQEND
  8
1
  0
LINE
  8
1
 62
4
  6
CONTINUOUS
 10
278.710128642
 20
124.075566930
 11
301.207523460
 21
128.857535816
  0
ENDBLK
  8
0
  0
BLOCK
  8
0
  2
*D182
 70
65
 10
0.000000000
 20
0.000000000
  3
*D
  0
TEXT
  8
1
 62
4
  6
CONTINUOUS
 72
5
 10
215.265091461
 20
152.109418714
 40
2.800000000
  1
(
 41
1.800001800
 50
78.000000007
 11
215.614383102
 21
153.752706684
  0
TEXT
  8
1
 62
4
  6
CONTINUOUS
 72
5
 10
215.789028922
 20
154.574350668
 40
2.800000000
  1
60
 41
1.000000667
 50
78.000000007
 11
216.662258023
 21
158.682570591
  0
TEXT
  8
1
 62
4
  6
CONTINUOUS
 72
5
 10
216.836903843
 20
159.504214576
 40
2.800000000
  1
)
 41
1.800001800
 50
78.000000007
 11
217.186195483
 21
161.147502545
  0
LINE
  8
1
 62
4
  6
CONTINUOUS
 10
255.869927231
 20
178.623188406
 11
222.612908805
 21
185.692185889
  0
POLYLINE
  8
1
 62
4
  6
CONTINUOUS
 66
1
  0
VERTEX
  8
1
 10
224.446824905
 20
183.257693799
  0
VERTEX
  8
1
 10
224.569204006
 20
185.276362508
  0
VERTEX
  8
1
 10
223.859936345
 20
183.382440814
  0
SEQEND
  8
1
  0
LINE
  8
1
 62
4
  6
CONTINUOUS
 10
224.569204006
 20
185.276362508
 11
212.192220949
 21
127.047235313
  0
POLYLINE
  8
1
 62
4
  6
CONTINUOUS
 66
1
  0
VERTEX
  8
1
 10
212.314600050
 20
129.065904022
  0
VERTEX
  8
1
 10
212.192220949
 20
127.047235313
  0
VERTEX
  8
1
 10
212.901488610
 20
128.941157008
  0
SEQEND
  8
1
  0
LINE
  8
1
 62
4
  6
CONTINUOUS
 10
232.733320557
 20
122.681089810
 11
210.235925747
 21
127.463058695
  0
ENDBLK
  8
0
  0
BLOCK
  8
0
  2
*D183
 70
65
 10
0.000000000
 20
0.000000000
  3
*D
  0
TEXT
  8
1
 62
4
  6
CONTINUOUS
 72
5
 10
238.494057869
 20
112.900261171
 40
2.800000000
  1
5
 41
0.899996850
 50
348.000000000
 11
240.137345838
 21
112.550969531
  0
LINE
  8
1
 62
4
  6
CONTINUOUS
 10
253.104701743
 20
165.613825316
 11
240.878585756
 21
108.094471921
  0
POLYLINE
  8
1
 62
4
  6
CONTINUOUS
 66
1
  0
VERTEX
  8
1
 10
243.188330832
 20
109.341499461
  0
VERTEX
  8
1
 10
241.294409137
 20
110.050767123
  0
SEQEND
  8
1
  0
POLYLINE
  8
1
 62
4
  6
CONTINUOUS
 66
1
  0
VERTEX
  8
1
 10
244.228851940
 20
109.427032051
  0
VERTEX
  8
1
 10
241.294409137
 20
110.050767123
  0
VERTEX
  8
1
 10
243.313077846
 20
109.928388022
  0
SEQEND
  8
1
  0
LINE
  8
1
 62
4
  6
CONTINUOUS
 10
241.294409137
 20
110.050767123
 11
236.403671134
 21
111.090325576
  0
POLYLINE
  8
1
 62
4
  6
CONTINUOUS
 66
1
  0
VERTEX
  8
1
 10
234.509749439
 20
111.799593238
  0
VERTEX
  8
1
 10
236.403671134
 20
111.090325576
  0
SEQEND
  8
1
  0
POLYLINE
  8
1
 62
4
  6
CONTINUOUS
 66
1
  0
VERTEX
  8
1
 10
233.469228331
 20
111.714060648
  0
VERTEX
  8
1
 10
236.403671134
 20
111.090325576
  0
VERTEX
  8
1
 10
234.385002425
 20
111.212704677
  0
SEQEND
  8
1
  0
LINE
  8
1
 62
4
  6
CONTINUOUS
 10
238.186382780
 20
119.477324463
 11
235.987847752
 21
109.134030375
  0
ENDBLK
  8
0
  0
BLOCK
  8
0
  2
*D185
 70
65
 10
0.000000000
 20
0.000000000
  3
*D
  0
TEXT
  8
1
 62
4
  6
CONTINUOUS
 72
5
 10
245.439270847
 20
111.446115891
 40
2.800000000
  1
12
 41
1.124997750
 50
354.000000000
 11
249.616262807
 21
111.007096345
  0
TEXT
  8
1
 62
4
  6
CONTINUOUS
 72
5
 10
250.451661199
 20
110.919292436
 40
2.800000000
  1
°
 41
1.270648030
 50
354.000000000
 11
253.793254768
 21
110.568076799
  0
POLYLINE
  8
1
 62
4
  6
CONTINUOUS
 66
1
  0
VERTEX
  8
1
 10
253.869927231
 20
108.218818440
  0
VERTEX
  8
1
 10
255.869927231
 20
108.518818440
  0
VERTEX
  8
1
 10
253.869927231
 20
108.818818440
  0
SEQEND
  8
1
  0
ARC
  8
1
 62
4
  6
CONTINUOUS
 10
255.869927231
 20
178.623188406
 40
70.104369966
 50
258.000000000
 51
270.000000000
  0
POLYLINE
  8
1
 62
4
  6
CONTINUOUS
 66
1
  0
VERTEX
  8
1
 10
243.313077846
 20
109.928388021
  0
VERTEX
  8
1
 10
241.294409137
 20
110.050767123
  0
VERTEX
  8
1
 10
243.188330831
 20
109.341499461
  0
SEQEND
  8
1
  0
LINE
  8
1
 62
4
  6
CONTINUOUS
 10
253.104701743
 20
165.613825316
 11
240.878585755
 21
108.094471921
  0
ENDBLK
  8
0
  0
BLOCK
  8
0
  2
*D189
 70
65
 10
0.000000000
 20
0.000000000
  3
*D
  0
TEXT
  8
1
 62
4
  6
CONTINUOUS
 72
5
 10
130.008327231
 20
208.228188406
 40
2.800000000
  1
68.5
 41
1.099999267
 11
139.248327231
 21
208.228188406
  0
LINE
  8
1
 62
4
  6
CONTINUOUS
 10
100.369927231
 20
189.923188406
 11
100.369927231
 21
208.023188406
  0
POLYLINE
  8
1
 62
4
  6
CONTINUOUS
 66
1
  0
VERTEX
  8
1
 10
102.369927231
 20
206.323188406
  0
VERTEX
  8
1
 10
100.369927231
 20
206.023188406
  0
VERTEX
  8
1
 10
102.369927231
 20
205.723188406
  0
SEQEND
  8
1
  0
LINE
  8
1
 62
4
  6
CONTINUOUS
 10
100.369927231
 20
206.023188406
 11
168.869927231
 21
206.023188406
  0
POLYLINE
  8
1
 62
4
  6
CONTINUOUS
 66
1
  0
VERTEX
  8
1
 10
166.869927231
 20
205.723188406
  0
VERTEX
  8
1
 10
168.869927231
 20
206.023188406
  0
VERTEX
  8
1
 10
166.869927231
 20
206.323188406
  0
SEQEND
  8
1
  0
LINE
  8
1
 62
4
  6
CONTINUOUS
 10
168.869927231
 20
189.923188406
 11
168.869927231
 21
208.023188406
  0
ENDBLK
  8
0
  0
BLOCK
  8
0
  2
*D190
 70
65
 10
0.000000000
 20
0.000000000
  3
*D
  0
TEXT
  8
1
 62
4
  6
CONTINUOUS
 72
5
 10
168.726043872
 20
208.228188406
 40
2.800000000
  1
(
 41
1.650001650
 11
170.266043872
 21
208.228188406
  0
TEXT
  8
1
 62
4
  6
CONTINUOUS
 72
5
 10
171.036043872
 20
208.228188406
 40
2.800000000
  1
13.5
 41
1.134374007
 11
179.506043872
 21
208.228188406
  0
TEXT
  8
1
 62
4
  6
CONTINUOUS
 72
5
 10
180.276043872
 20
208.228188406
 40
2.800000000
  1
)
 41
1.650001650
 11
181.816043872
 21
208.228188406
  0
POLYLINE
  8
1
 62
4
  6
CONTINUOUS
 66
1
  0
VERTEX
  8
1
 10
170.869927231
 20
206.323188406
  0
VERTEX
  8
1
 10
168.869927231
 20
206.023188406
  0
VERTEX
  8
1
 10
170.869927231
 20
205.723188406
  0
SEQEND
  8
1
  0
LINE
  8
1
 62
4
  6
CONTINUOUS
 10
168.869927231
 20
206.023188406
 11
182.369927231
 21
206.023188406
  0
POLYLINE
  8
1
 62
4
  6
CONTINUOUS
 66
1
  0
VERTEX
  8
1
 10
180.369927231
 20
205.723188406
  0
VERTEX
  8
1
 10
182.369927231
 20
206.023188406
  0
VERTEX
  8
1
 10
180.369927231
 20
206.323188406
  0
SEQEND
  8
1
  0
LINE
  8
1
 62
4
  6
CONTINUOUS
 10
182.369927231
 20
189.623188406
 11
182.369927231
 21
208.023188406
  0
ENDBLK
  8
0
  0
BLOCK
  8
0
  2
*D191
 70
65
 10
0.000000000
 20
0.000000000
  3
*D
  0
TEXT
  8
1
 62
4
  6
CONTINUOUS
 72
5
 10
88.164927231
 20
168.139988406
 40
2.800000000
  1
φ
 41
1.270648030
 50
90.000000000
 11
88.164927231
 21
171.499988406
  0
TEXT
  8
1
 62
4
  6
CONTINUOUS
 72
5
 10
88.164927231
 20
173.179988406
 40
2.800000000
  1
22.8
 41
1.099999267
 50
90.000000000
 11
88.164927231
 21
182.419988406
  0
TEXT
  8
1
 62
4
  6
CONTINUOUS
 72
5
 10
86.400927231
 20
183.259988406
 40
1.400000000
  1
-0.01
 41
1.710000684
 50
90.000000000
 11
86.400927231
 21
191.239988406
  0
TEXT
  8
1
 62
4
  6
CONTINUOUS
 72
5
 10
88.542927231
 20
183.259988406
 40
1.400000000
  1
-0.02
 41
1.554544889
 50
90.000000000
 11
88.542927231
 21
191.239988406
  0
LINE
  8
1
 62
4
  6
CONTINUOUS
 10
100.469927231
 20
190.023188406
 11
88.369927231
 21
190.023188406
  0
POLYLINE
  8
1
 62
4
  6
CONTINUOUS
 66
1
  0
VERTEX
  8
1
 10
90.669927231
 20
188.023188406
  0
VERTEX
  8
1
 10
90.369927231
 20
190.023188406
  0
VERTEX
  8
1
 10
90.069927231
 20
188.023188406
  0
SEQEND
  8
1
  0
LINE
  8
1
 62
4
  6
CONTINUOUS
 10
90.369927231
 20
190.023188406
 11
90.369927231
 21
167.223188406
  0
POLYLINE
  8
1
 62
4
  6
CONTINUOUS
 66
1
  0
VERTEX
  8
1
 10
90.069927231
 20
169.223188406
  0
VERTEX
  8
1
 10
90.369927231
 20
167.223188406
  0
VERTEX
  8
1
 10
90.669927231
 20
169.223188406
  0
SEQEND
  8
1
  0
LINE
  8
1
 62
4
  6
CONTINUOUS
 10
100.469927231
 20
167.223188406
 11
88.369927231
 21
167.223188406
  0
ENDBLK
  8
0
  0
ENDSEC
  0
SECTION
  2
ENTITIES
  0
LINE
  8
1
 62
7
  6
CONTINUOUS
 10
259.665759569
 20
167.979802814
 11
261.911205830
 21
157.415808727
  0
LINE
  8
1
 62
7
  6
CONTINUOUS
 10
263.378427231
 20
157.727676265
 11
264.417985685
 21
152.836938262
  0
LINE
  8
1
 62
7
  6
CONTINUOUS
 10
111.869927231
 20
184.096761279
 11
111.869927231
 21
173.149615532
  0
LINE
  8
1
 62
7
  6
CONTINUOUS
 10
108.669927231
 20
184.096761279
 11
111.869927231
 21
184.096761279
  0
LINE
  8
1
 62
7
  6
CONTINUOUS
 10
108.669927231
 20
184.096761279
 11
108.669927231
 21
173.149615532
  0
LINE
  8
1
 62
7
  6
CONTINUOUS
 10
100.469927231
 20
190.023188406
 11
168.769927231
 21
190.023188406
  0
ARC
  8
1
 62
7
  6
CONTINUOUS
 10
93.741128778
 20
178.623188406
 40
18.937088829
 50
343.199519417
 51
16.800480583
  0
LINE
  8
1
 62
7
  6
CONTINUOUS
 10
252.312259294
 20
167.897844642
 11
250.073185532
 21
157.363830806
  0
LINE
  8
1
 62
7
  6
CONTINUOUS
 10
100.369927231
 20
189.923188406
 11
100.469927231
 21
190.023188406
  0
LINE
  8
1
 62
7
  6
CONTINUOUS
 10
168.769927231
 20
190.023188406
 11
168.869927231
 21
189.923188406
  0
LINE
  8
2
 62
7
  6
CONTINUOUS
 10
241.208446272
 20
154.136386327
 11
249.522700878
 21
152.369136955
  0
LINE
  8
1
 62
7
  6
CONTINUOUS
 10
248.361427231
 20
157.727676263
 11
247.321868776
 21
152.836938259
  0
LINE
  8
2
 62
7
  6
CONTINUOUS
 10
240.460997264
 20
153.650987265
 11
250.008099940
 21
151.621687947
  0
LINE
  8
1
 62
7
  6
CONTINUOUS
 10
250.008099940
 20
151.621687947
 11
249.522700878
 21
152.369136955
  0
LINE
  8
1
 62
7
  6
CONTINUOUS
 10
241.208446272
 20
154.136386327
 11
240.460997264
 21
153.650987265
  0
LINE
  8
1
 62
7
  6
CONTINUOUS
 10
262.217153583
 20
152.369136957
 11
262.481192842
 21
152.425260232
  0
LINE
  8
1
 62
7
  6
CONTINUOUS
 10
262.217153583
 20
152.369136957
 11
261.731754521
 21
151.621687949
  0
LINE
  8
1
 62
7
  6
CONTINUOUS
 10
271.269102246
 20
153.657322205
 11
270.531408189
 21
154.136386329
  0
ARC
  8
1
 62
7
  6
CONTINUOUS
 10
269.332733255
 20
139.334337547
 40
10.625000000
 50
76.942384582
 51
127.057615418
  0
ARC
  8
1
 62
7
  6
CONTINUOUS
 10
275.133966073
 20
142.102522618
 40
2.031250000
 50
222.510237406
 51
275.560735571
  0
ARC
  8
1
 62
7
  6
CONTINUOUS
 10
267.233802475
 20
149.209030495
 40
10.625000000
 50
256.942384582
 51
307.057615418
  0
ARC
  8
1
 62
7
  6
CONTINUOUS
 10
261.432569658
 20
146.440845424
 40
2.031250000
 50
42.510237406
 51
102.000000000
  0
LINE
  8
1
 62
7
  6
CONTINUOUS
 10
275.156764037
 20
150.412301731
 11
277.027969254
 21
141.608973324
  0
LINE
  8
1
 62
7
  6
CONTINUOUS
 10
264.833288296
 20
138.858757229
 11
262.929919028
 21
147.813405596
  0
LINE
  8
1
 62
7
  6
CONTINUOUS
 10
277.982437724
 20
127.499083533
 11
266.244666516
 21
125.004143243
  0
LINE
  8
1
 62
7
  6
CONTINUOUS
 10
277.597319770
 20
126.906053887
 11
277.982437724
 21
127.499083533
  0
LINE
  8
1
 62
7
  6
CONTINUOUS
 10
266.244666516
 20
125.004143243
 11
266.837696161
 21
124.619025288
  0
LINE
  8
1
 62
7
  6
CONTINUOUS
 10
268.231667144
 20
122.870641777
 11
267.815843762
 21
124.826936979
  0
LINE
  8
1
 62
7
  6
CONTINUOUS
 10
259.506402425
 20
147.085714678
 11
261.372657982
 21
138.305672594
  0
LINE
  8
1
 62
7
  6
CONTINUOUS
 10
273.237094045
 20
151.026603873
 11
275.156764037
 21
150.412301731
  0
LINE
  8
1
 62
7
  6
CONTINUOUS
 10
100.369927231
 20
189.923188406
 11
100.369927231
 21
167.323188406
  0
LINE
  8
1
 62
7
  6
CONTINUOUS
 10
261.010249036
 20
148.427707738
 11
259.506402425
 21
147.085714678
  0
LINE
  8
1
 62
7
  6
CONTINUOUS
 10
275.311749794
 20
140.063682382
 11
263.574056701
 21
137.568758696
  0
LINE
  8
1
 62
4
  6
CONTINUOUS
 10
108.669927231
 20
184.096761279
 11
111.869927231
 21
173.149615532
  0
LINE
  8
1
 62
4
  6
CONTINUOUS
 10
111.869927231
 20
184.096761279
 11
108.669927231
 21
173.149615532
  0
LINE
  8
1
 62
7
  6
CONTINUOUS
 10
100.469927231
 20
167.223188406
 11
168.769927231
 21
167.223188406
  0
LINE
  8
1
 62
7
  6
CONTINUOUS
 10
168.869927231
 20
167.323188406
 11
168.869927231
 21
189.923188406
  0
LINE
  8
1
 62
7
  6
CONTINUOUS
 10
100.369927231
 20
167.323188406
 11
100.469927231
 21
167.223188406
  0
LINE
  8
1
 62
7
  6
CONTINUOUS
 10
168.769927231
 20
167.223188406
 11
168.869927231
 21
167.323188406
  0
LINE
  8
1
 62
7
  6
CONTINUOUS
 10
263.572261395
 20
137.576820839
 11
266.244666516
 21
125.004143243
  0
LINE
  8
1
 62
7
  6
CONTINUOUS
 10
277.597319770
 20
126.906053887
 11
266.837696161
 21
124.619025288
  0
LINE
  8
1
 62
7
  6
CONTINUOUS
 10
275.311749794
 20
140.063682382
 11
277.982437724
 21
127.499083533
  0
LINE
  8
1
 62
7
  6
CONTINUOUS
 10
261.177595129
 20
157.259874961
 11
262.217153583
 21
152.369136957
  0
LINE
  8
1
 62
7
  6
CONTINUOUS
 10
278.710128642
 20
124.075566930
 11
278.502216952
 21
125.053714531
  0
LINE
  8
1
 62
7
  6
CONTINUOUS
 10
266.764445743
 20
122.558774241
 11
266.972357434
 21
121.580626640
  0
LINE
  8
1
 62
7
  6
CONTINUOUS
 10
273.636616702
 20
140.729962446
 11
271.733247435
 21
149.684610813
  0
LINE
  8
1
 62
7
  6
CONTINUOUS
 10
266.972357434
 20
121.580626640
 11
278.710128642
 21
124.075566930
  0
LINE
  8
1
 62
7
  6
CONTINUOUS
 10
276.619172169
 20
126.698142196
 11
277.034995550
 21
124.741846995
  0
LINE
  8
1
 62
7
  6
CONTINUOUS
 10
278.502216952
 20
125.053714531
 11
266.764445743
 21
122.558774241
  0
ARC
  8
1
 62
7
  6
CONTINUOUS
 10
262.907121063
 20
139.503626483
 40
2.031250000
 50
288.451825822
 51
341.489762594
  0
LINE
  8
1
 62
7
  6
CONTINUOUS
 10
277.027969254
 20
141.608973324
 11
275.311749794
 21
140.063682382
  0
LINE
  8
1
 62
7
  6
CONTINUOUS
 10
261.372657982
 20
138.305672594
 11
263.574056701
 21
137.568758696
  0
ARC
  8
1
 62
7
  6
CONTINUOUS
 10
273.659414667
 20
149.039741559
 40
2.031250000
 50
102.000000000
 51
161.489762594
  0
LINE
  8
1
 62
7
  6
CONTINUOUS
 10
261.010249036
 20
148.427707738
 11
273.237094045
 21
151.026603873
  0
DIMENSION
  8
1
 62
4
  6
CONTINUOUS
  2
*D55
 70
0
 10
276.556595502
 20
134.207143781
 11
284.882785473
 21
135.976930093
 14
276.440485431
 24
134.753398721
 13
264.687946443
 23
132.327935367
 50
191.999999993
  0
LINE
  8
1
 62
1
  6
CONTINUOUS
 10
248.820327237
 20
148.909568784
 11
249.629633765
 21
152.204474749
  0
LINE
  8
1
 62
7
  6
CONTINUOUS
 10
245.824494440
 20
173.448318354
 11
242.737078527
 21
158.923168487
  0
ARC
  8
1
 62
7
  6
CONTINUOUS
 10
126.798725683
 20
178.623188406
 40
18.937088829
 50
163.199519417
 51
196.800480583
  0
LINE
  8
1
 62
1
  6
CONTINUOUS
 10
240.442963376
 20
150.690232442
 11
241.043784066
 21
154.029453440
  0
ARC
  8
1
 62
7
  6
CONTINUOUS
 10
168.494927231
 20
168.898188406
 40
0.575000000
 50
310.705706831
 51
0.000000000
  0
LINE
  8
1
 62
7
  6
CONTINUOUS
 10
244.448836828
 20
158.559323026
 11
243.409278374
 21
153.668585022
  0
LINE
  8
1
 62
7
  6
CONTINUOUS
 10
250.562259332
 20
157.259874958
 11
249.522700878
 21
152.369136955
  0
LINE
  8
1
 62
1
  6
CENTER
 10
98.369927231
 20
178.623188406
 11
184.369927231
 21
178.623188406
  0
LINE
  8
1
 62
7
  6
CONTINUOUS
 10
108.669927231
 20
173.149615532
 11
111.869927231
 21
173.149615532
  0
LINE
  8
1
 62
7
  6
CONTINUOUS
 10
242.248004726
 20
159.027124330
 11
241.208446272
 21
154.136386327
  0
LINE
  8
1
 62
7
  6
CONTINUOUS
 10
250.562259332
 20
157.259874958
 11
242.248004726
 21
159.027124330
  0
DIMENSION
  8
1
 62
4
  6
CONTINUOUS
  2
*D67
 70
0
 10
234.249959152
 20
134.626047755
 11
225.691815759
 21
136.445137287
 14
233.825385284
 24
132.628584752
 13
247.570581873
 23
129.958369659
 50
348.000000005
  0
DIMENSION
  8
1
 62
4
  6
CONTINUOUS
  2
*D68
 70
1
 10
194.369927231
 20
167.323188406
 11
194.369927231
 21
178.623188406
 14
182.069927231
 24
167.323188406
 13
182.069927231
 23
189.923188406
 50
90.000000000
  0
ARC
  8
1
 62
7
  6
CONTINUOUS
 10
168.494927231
 20
188.348188406
 40
0.575000000
 50
0.000000000
 51
49.294293169
  0
LINE
  8
1
 62
7
  6
CONTINUOUS
 10
246.176930284
 20
123.401754432
 11
232.482863874
 21
126.312518103
  0
LINE
  8
1
 62
7
  6
CONTINUOUS
 10
245.583900638
 20
123.016636477
 11
246.176930284
 21
123.401754432
  0
LINE
  8
1
 62
7
  6
CONTINUOUS
 10
232.482863874
 20
126.312518103
 11
232.867981829
 21
125.719488457
  0
LINE
  8
1
 62
7
  6
CONTINUOUS
 10
234.408453648
 20
123.347369874
 11
234.824277030
 21
125.303665076
  0
ARC
  8
1
 62
7
  6
CONTINUOUS
 10
242.422583592
 20
139.407082355
 40
10.625000000
 50
52.942384582
 51
103.057615418
  0
ARC
  8
1
 62
7
  6
CONTINUOUS
 10
248.714800593
 20
139.430626820
 40
1.860955976
 50
195.557708232
 51
307.106605351
  0
LINE
  8
1
 62
7
  6
CONTINUOUS
 10
249.159485862
 20
137.433575208
 11
235.465497568
 21
140.344322276
  0
ARC
  8
1
 62
7
  6
CONTINUOUS
 10
250.322747189
 20
146.513590231
 40
2.031250000
 50
78.000000000
 51
137.489762594
  0
ARC
  8
1
 62
7
  6
CONTINUOUS
 10
244.521514372
 20
149.281775302
 40
10.625000000
 50
232.942384582
 51
283.057615418
  0
LINE
  8
1
 62
7
  6
CONTINUOUS
 10
235.467136643
 20
140.352417627
 11
232.482863874
 21
126.312518103
  0
LINE
  8
1
 62
7
  6
CONTINUOUS
 10
245.583900638
 20
123.016636477
 11
232.867981829
 21
125.719488457
  0
LINE
  8
1
 62
7
  6
CONTINUOUS
 10
249.159485862
 20
137.433575208
 11
246.176930284
 21
123.401754432
  0
ARC
  8
1
 62
7
  6
CONTINUOUS
 10
238.095902180
 20
149.112486366
 40
2.031250000
 50
18.510237406
 51
78.000000000
  0
LINE
  8
1
 62
7
  6
CONTINUOUS
 10
246.922028551
 20
138.931502036
 11
248.825397819
 21
147.886150403
  0
LINE
  8
1
 62
7
  6
CONTINUOUS
 10
244.471091765
 20
120.186149520
 11
244.679003456
 21
121.164297121
  0
LINE
  8
1
 62
7
  6
CONTINUOUS
 10
232.941232247
 20
123.659237410
 11
232.733320557
 21
122.681089810
  0
LINE
  8
1
 62
7
  6
CONTINUOUS
 10
250.745067811
 20
148.500452545
 11
252.248914422
 21
147.158459485
  0
LINE
  8
1
 62
7
  6
CONTINUOUS
 10
232.733320557
 20
122.681089810
 11
244.471091765
 21
120.186149520
  0
LINE
  8
1
 62
7
  6
CONTINUOUS
 10
238.518222802
 20
151.099348680
 11
236.598552810
 21
150.485046538
  0
LINE
  8
1
 62
7
  6
CONTINUOUS
 10
252.248914422
 20
147.158459485
 11
250.377709204
 21
138.355131079
  0
LINE
  8
1
 62
7
  6
CONTINUOUS
 10
243.627605437
 20
123.432459858
 11
243.211782055
 21
121.476164657
  0
LINE
  8
1
 62
7
  6
CONTINUOUS
 10
244.679003456
 20
121.164297121
 11
232.941232247
 21
123.659237410
  0
LINE
  8
1
 62
7
  6
CONTINUOUS
 10
234.732297253
 20
141.705004454
 11
235.465497568
 21
140.344322276
  0
LINE
  8
1
 62
7
  6
CONTINUOUS
 10
250.377709204
 20
138.355131079
 11
249.159485862
 21
137.433575208
  0
ARC
  8
1
 62
7
  6
CONTINUOUS
 10
236.688047622
 20
141.976100003
 40
1.850301917
 50
208.317900462
 51
320.642077288
  0
LINE
  8
1
 62
7
  6
CONTINUOUS
 10
238.118700145
 20
140.802707253
 11
240.022069412
 21
149.757355621
  0
LINE
  8
1
 62
7
  6
CONTINUOUS
 10
238.518222802
 20
151.099348680
 11
250.745067811
 21
148.500452545
  0
LINE
  8
1
 62
7
  6
CONTINUOUS
 10
236.598552810
 20
150.485046538
 11
234.732297253
 21
141.705004454
  0
DIMENSION
  8
1
 62
4
  6
CONTINUOUS
  2
*D98
 70
0
 10
182.369927231
 20
214.023188406
 11
141.369927231
 21
214.023188406
 14
182.369927231
 24
189.623188406
 13
100.369927231
 23
189.923188406
 50
0.000000000
  0
LINE
  8
1
 62
4
  6
CONTINUOUS
 10
174.369927231
 20
183.885317253
 11
171.169927231
 21
173.361059559
  0
LINE
  8
1
 62
4
  6
CONTINUOUS
 10
171.169927231
 20
183.885317253
 11
174.369927231
 21
173.361059559
  0
LINE
  8
1
 62
1
  6
CENTER
 10
175.869927231
 20
175.173950816
 11
175.869927231
 21
119.433619665
  0
LINE
  8
1
 62
7
  6
CONTINUOUS
 10
172.069927231
 20
167.323188406
 11
172.069927231
 21
173.173950816
  0
LINE
  8
1
 62
7
  6
CONTINUOUS
 10
172.069927231
 20
173.173950816
 11
179.669927231
 21
173.173950816
  0
LINE
  8
5
 62
7
  6
CONTINUOUS
 10
182.069927231
 20
189.923188406
 11
182.369927231
 21
189.623188406
  0
LINE
  8
5
 62
7
  6
CONTINUOUS
 10
169.069927231
 20
189.823188406
 11
169.169927231
 21
189.923188406
  0
LINE
  8
5
 62
7
  6
CONTINUOUS
 10
182.369927231
 20
189.623188406
 11
182.369927231
 21
167.623188406
  0
LINE
  8
1
 62
7
  6
CONTINUOUS
 10
179.669927231
 20
173.173950816
 11
179.669927231
 21
167.323188406
  0
LINE
  8
5
 62
7
  6
CONTINUOUS
 10
169.069927231
 20
167.423188406
 11
169.069927231
 21
189.823188406
  0
LINE
  8
5
 62
7
  6
CONTINUOUS
 10
169.169927231
 20
189.923188406
 11
182.069927231
 21
189.923188406
  0
LINE
  8
5
 62
7
  6
CONTINUOUS
 10
179.669927231
 20
167.323188406
 11
182.069927231
 21
167.323188406
  0
LINE
  8
5
 62
7
  6
CONTINUOUS
 10
169.169927231
 20
167.323188406
 11
172.069927231
 21
167.323188406
  0
LINE
  8
5
 62
7
  6
CONTINUOUS
 10
169.069927231
 20
167.423188406
 11
169.169927231
 21
167.323188406
  0
LINE
  8
5
 62
7
  6
CONTINUOUS
 10
182.069927231
 20
167.323188406
 11
182.369927231
 21
167.623188406
  0
LINE
  8
1
 62
7
  6
CONTINUOUS
 10
171.169927231
 20
173.361059559
 11
174.369927231
 21
173.361059559
  0
LINE
  8
1
 62
7
  6
CONTINUOUS
 10
174.369927231
 20
173.361059559
 11
174.369927231
 21
183.885317253
  0
LINE
  8
1
 62
7
  6
CONTINUOUS
 10
174.369927231
 20
183.885317253
 11
171.169927231
 21
183.885317253
  0
LINE
  8
1
 62
7
  6
CONTINUOUS
 10
171.169927231
 20
183.885317253
 11
171.169927231
 21
173.361059559
  0
LINE
  8
1
 62
7
  6
CONTINUOUS
 10
180.658992511
 20
150.433620203
 11
180.750122545
 21
153.333424886
  0
LINE
  8
1
 62
7
  6
CONTINUOUS
 10
171.080861949
 20
150.433620203
 11
170.989731916
 21
153.333424886
  0
LINE
  8
1
 62
7
  6
CONTINUOUS
 10
167.869927230
 20
149.433620203
 11
167.869927230
 21
140.457426756
  0
LINE
  8
1
 62
7
  6
CONTINUOUS
 10
169.619927230
 20
150.433620203
 11
182.119927230
 21
150.433620203
  0
LINE
  8
1
 62
7
  6
CONTINUOUS
 10
171.369927230
 20
140.278919665
 11
171.369927230
 21
149.433620203
  0
ARC
  8
1
 62
7
  6
CONTINUOUS
 10
169.726575827
 20
141.129221582
 40
1.850301917
 50
220.317900462
 51
332.642077288
  0
LINE
  8
1
 62
7
  6
CONTINUOUS
 10
183.869927230
 20
140.433620203
 11
182.869927230
 21
139.278919665
  0
LINE
  8
1
 62
7
  6
CONTINUOUS
 10
167.869927230
 20
140.457426756
 11
168.870007091
 21
139.278919665
  0
LINE
  8
1
 62
7
  6
CONTINUOUS
 10
181.869927230
 20
122.433619665
 11
169.869927230
 21
122.433619665
  0
LINE
  8
1
 62
7
  6
CONTINUOUS
 10
180.369927230
 20
124.433619665
 11
180.369927230
 21
122.433619665
  0
LINE
  8
1
 62
7
  6
CONTINUOUS
 10
183.869927230
 20
149.433620203
 11
183.869927230
 21
140.433620203
  0
LINE
  8
1
 62
7
  6
CONTINUOUS
 10
169.619927230
 20
150.433620203
 11
167.869927230
 21
149.433620203
  0
LINE
  8
1
 62
7
  6
CONTINUOUS
 10
169.869927230
 20
121.433619665
 11
181.869927230
 21
121.433619665
  0
LINE
  8
1
 62
7
  6
CONTINUOUS
 10
182.119927230
 20
150.433620203
 11
183.869927230
 21
149.433620203
  0
LINE
  8
1
 62
7
  6
CONTINUOUS
 10
169.869927230
 20
122.433619665
 11
169.869927230
 21
121.433619665
  0
LINE
  8
1
 62
7
  6
CONTINUOUS
 10
181.869927230
 20
121.433619665
 11
181.869927230
 21
122.433619665
  0
LINE
  8
1
 62
7
  6
CONTINUOUS
 10
180.369927230
 20
140.278919665
 11
180.369927230
 21
149.433620203
  0
ARC
  8
1
 62
7
  6
CONTINUOUS
 10
169.619927230
 20
148.402370203
 40
2.031250000
 50
30.510237406
 51
90.000000000
  0
LINE
  8
1
 62
7
  6
CONTINUOUS
 10
182.869927230
 20
139.278919665
 11
182.869927230
 21
124.933619665
  0
LINE
  8
1
 62
7
  6
CONTINUOUS
 10
182.369927230
 20
124.433619665
 11
169.369927230
 21
124.433619665
  0
LINE
  8
1
 62
7
  6
CONTINUOUS
 10
168.869927230
 20
139.287178896
 11
168.869927230
 21
124.933619665
  0
ARC
  8
1
 62
7
  6
CONTINUOUS
 10
175.869927230
 20
149.903919665
 40
10.625000000
 50
244.942384582
 51
295.057615418
  0
ARC
  8
1
 62
7
  6
CONTINUOUS
 10
182.119927230
 20
148.402370203
 40
2.031250000
 50
90.000000000
 51
149.489762594
  0
LINE
  8
1
 62
7
  6
CONTINUOUS
 10
182.869927230
 20
139.278919665
 11
168.870007091
 21
139.278919665
  0
ARC
  8
1
 62
7
  6
CONTINUOUS
 10
182.019749024
 20
141.139875641
 40
1.860955976
 50
207.557708232
 51
319.106605351
  0
ARC
  8
1
 62
7
  6
CONTINUOUS
 10
175.869927230
 20
139.808620203
 40
10.625000000
 50
64.942384582
 51
115.057615418
  0
LINE
  8
1
 62
7
  6
CONTINUOUS
 10
171.369927230
 20
122.433619665
 11
171.369927230
 21
124.433619665
  0
LINE
  8
1
 62
7
  6
CONTINUOUS
 10
168.869927230
 20
124.933619665
 11
169.369927230
 21
124.433619665
  0
LINE
  8
1
 62
7
  6
CONTINUOUS
 10
182.369927230
 20
124.433619665
 11
182.869927230
 21
124.933619665
  0
LINE
  8
1
 62
7
  6
CONTINUOUS
 10
182.869927230
 20
124.933619665
 11
168.869927230
 21
124.933619665
  0
LINE
  8
1
 62
7
  6
CONTINUOUS
 10
180.119927231
 20
158.963620201
 11
171.619927231
 21
158.963620201
  0
LINE
  8
1
 62
7
  6
CONTINUOUS
 10
171.619927231
 20
158.963620201
 11
171.619927231
 21
153.963620201
  0
LINE
  8
1
 62
7
  6
CONTINUOUS
 10
180.119927231
 20
158.963620201
 11
180.119927231
 21
153.963620201
  0
LINE
  8
1
 62
7
  6
CONTINUOUS
 10
173.869927231
 20
158.963620201
 11
173.869927231
 21
153.963620201
  0
LINE
  8
1
 62
1
  6
CONTINUOUS
 10
171.587667654
 20
150.433620203
 11
171.481095886
 21
153.824788856
  0
LINE
  8
1
 62
7
  6
CONTINUOUS
 10
172.119927231
 20
173.173950816
 11
172.119927231
 21
158.963620203
  0
LINE
  8
1
 62
1
  6
CONTINUOUS
 10
180.152186806
 20
150.433620203
 11
180.258758575
 21
153.824788856
  0
LINE
  8
1
 62
7
  6
CONTINUOUS
 10
261.177595129
 20
157.259874961
 11
269.491849735
 21
159.027124333
  0
LINE
  8
1
 62
7
  6
CONTINUOUS
 10
171.619927231
 20
153.963620201
 11
170.989731916
 21
153.333424886
  0
LINE
  8
2
 62
7
  6
CONTINUOUS
 10
170.989731916
 20
153.333424886
 11
180.750122545
 21
153.333424886
  0
LINE
  8
1
 62
7
  6
CONTINUOUS
 10
177.869927231
 20
158.963620201
 11
177.869927231
 21
153.963620201
  0
LINE
  8
2
 62
7
  6
CONTINUOUS
 10
171.619927231
 20
153.963620201
 11
180.119927231
 21
153.963620201
  0
LINE
  8
1
 62
7
  6
CONTINUOUS
 10
179.619927231
 20
173.173950816
 11
179.619927231
 21
158.963620203
  0
LINE
  8
1
 62
7
  6
CONTINUOUS
 10
271.805798157
 20
150.722372540
 11
271.278857197
 21
153.650987268
  0
LINE
  8
1
 62
7
  6
CONTINUOUS
 10
239.947232592
 20
150.795603273
 11
240.460997264
 21
153.650987265
  0
LINE
  8
1
 62
7
  6
CONTINUOUS
 10
249.316058021
 20
148.804197953
 11
250.008099940
 21
151.621687947
  0
LINE
  8
1
 62
7
  6
CONTINUOUS
 10
262.441544924
 20
148.731939070
 11
261.731754521
 21
151.621687949
  0
DIMENSION
  8
1
 62
4
  6
CONTINUOUS
  2
*D165
 70
5
 10
255.869927231
 20
108.518818440
 11
263.197829292
 21
108.902857514
 13
255.869927231
 23
165.323188406
 14
258.635152719
 24
165.613825316
 15
255.869927231
 25
178.623188406
  0
LINE
  8
2
 62
7
  6
CONTINUOUS
 10
262.217153583
 20
152.369136957
 11
270.531408189
 21
154.136386329
  0
LINE
  8
1
 62
7
  6
CONTINUOUS
 10
261.731754521
 20
151.621687949
 11
271.278857197
 21
153.650987268
  0
LINE
  8
1
 62
1
  6
CONTINUOUS
 10
271.310067373
 20
150.617001709
 11
270.696070395
 21
154.029453442
  0
LINE
  8
1
 62
1
  6
CONTINUOUS
 10
262.937275708
 20
148.837309901
 11
262.110220696
 21
152.204474751
  0
LINE
  8
1
 62
7
  6
CONTINUOUS
 10
269.491849735
 20
159.027124333
 11
270.531408189
 21
154.136386329
  0
LINE
  8
1
 62
7
  6
CONTINUOUS
 10
265.732251575
 20
173.107342276
 11
268.758239035
 21
158.871190562
  0
LINE
  8
1
 62
7
  6
CONTINUOUS
 10
267.291017634
 20
158.559323029
 11
268.330576088
 21
153.668585025
  0
DIMENSION
  8
1
 62
4
  6
CONTINUOUS
  2
*D173
 70
0
 10
270.445445319
 20
110.050767122
 11
272.890814326
 21
110.570546350
 14
258.635152719
 24
165.613825316
 13
273.257066420
 23
120.871801584
 50
11.999999995
  0
TEXT
  8
1
 62
4
  6
CONTINUOUS
 72
5
 10
214.816220941
 20
115.509325576
 40
3.200000000
  1
（排気）
 41
0.722783070
 11
225.326990172
 21
115.509325576
  0
TEXT
  8
1
 62
4
  6
CONTINUOUS
 72
5
 10
285.875228251
 20
115.509325576
 40
3.200000000
  1
（給気）
 41
0.722783070
 11
296.385997482
 21
115.509325576
  0
DIMENSION
  8
1
 62
4
  6
CONTINUOUS
  2
*D176
 70
0
 10
299.251228258
 20
128.441712437
 11
293.210939353
 21
156.859037470
 14
278.710128642
 24
124.075566930
 13
255.869927231
 23
178.623188406
 50
102.000000000
  0
CIRCLE
  8
1
 62
7
  6
CONTINUOUS
 10
255.869927231
 20
178.623188406
 40
11.300000000
  0
LINE
  8
1
 62
1
  6
CENTER
 10
255.869927231
 20
191.923188406
 11
255.869927231
 21
165.323188406
  0
LINE
  8
1
 62
1
  6
CENTER
 10
269.169927231
 20
178.623188406
 11
242.569927231
 21
178.623188406
  0
LINE
  8
1
 62
1
  6
HIDDEN
 10
245.869927231
 20
183.885317253
 11
245.869927231
 21
173.361059559
  0
LINE
  8
1
 62
1
  6
HIDDEN
 10
265.869927231
 20
173.361059559
 11
265.869927231
 21
183.885317253
  0
DIMENSION
  8
1
 62
4
  6
CONTINUOUS
  2
*D182
 70
0
 10
212.192220948
 20
127.047235312
 11
218.380712474
 21
156.161798912
 14
232.733320557
 24
122.681089810
 13
255.869927231
 23
178.623188406
 50
78.000000007
  0
DIMENSION
  8
1
 62
4
  6
CONTINUOUS
  2
*D183
 70
0
 10
236.403671135
 20
111.090325576
 11
238.849040135
 21
110.570546350
 14
238.186382780
 24
119.477324463
 13
253.104701743
 23
165.613825316
 50
348.000000007
  0
LINE
  8
1
 62
1
  6
CENTER
 10
258.635152719
 20
165.613825316
 11
255.869927231
 21
178.623188406
  0
DIMENSION
  8
1
 62
4
  6
CONTINUOUS
  2
*D185
 70
5
 10
241.294409137
 20
110.050767123
 11
248.542025170
 21
108.902857514
 13
253.104701743
 23
165.613825316
 14
255.869927231
 24
165.323188406
 15
255.869927231
 25
178.623188406
  0
LINE
  8
1
 62
1
  6
CENTER
 10
253.104701743
 20
165.613825316
 11
255.869927231
 21
178.623188406
  0
LINE
  8
1
 62
1
  6
CENTER
 10
273.257066420
 20
120.871801584
 11
262.391016394
 21
171.992547704
  0
LINE
  8
1
 62
1
  6
CENTER
 10
238.186382780
 20
119.477324463
 11
249.348838067
 21
171.992547704
  0
DIMENSION
  8
1
 62
4
  6
CONTINUOUS
  2
*D189
 70
1
 10
168.869927231
 20
206.023188406
 11
134.619927231
 21
206.023188406
 14
168.869927231
 24
189.923188406
 13
100.369927231
 23
189.923188406
 50
0.000000000
  0
DIMENSION
  8
1
 62
4
  6
CONTINUOUS
  2
*D190
 70
0
 10
182.369927231
 20
206.023188406
 11
175.263343872
 21
206.023188406
 14
182.369927231
 24
189.623188406
 13
168.869927231
 23
189.923188406
 50
0.000000000
  0
DIMENSION
  8
1
 62
4
  6
CONTINUOUS
  2
*D191
 70
1
 10
90.369927231
 20
167.223188406
 11
90.369927231
 21
178.623188406
 14
100.469927231
 24
167.223188406
 13
100.469927231
 23
190.023188406
 50
90.000000000
  0
TEXT
  8
1
 62
3
  6
CONTINUOUS
 72
5
 10
118.819927231
 20
119.449619665
 40
4.000000000
  1
ＡＭ－３１０ＬＡ
 41
0.834724541
 11
150.019927231
 21
119.449619665
  0
LINE
  8
1
 62
7
  6
CONTINUOUS
 10
180.750122545
 20
153.333424886
 11
180.119927231
 21
153.963620201
  0
ENDSEC
  0
EOF
