  0
SECTION
  2
HEADER
  9
$ACADVER
  1
AC1009
  9
$INSBASE
 10
0.000000000
 20
0.000000000
  9
$EXTMIN
 10
-25.412675685
 20
-20.092608696
  9
$EXTMAX
 10
279.539432532
 20
221.018695652
  9
$LIMMIN
 10
-25.412675685
 20
-20.092608696
  9
$LIMMAX
 10
279.539432532
 20
221.018695652
  9
$SNAPBASE
 10
0.000000000
 20
0.000000000
  9
$SNAPANG
 50
0.000000000
  9
$SNAPSTYLE
 70
0
  9
$GRIDMODE
 70
0
  9
$GRIDUNIT
 10
0.000000000
 20
0.000000000
  9
$DIMEXO
 40
0.000000000
  9
$DIMDLI
 40
8.000000000
  9
$DIMDLE
 40
0.000000000
  9
$DIMEXE
 40
1.000000000
  9
$DIMTIH
 70
1
  9
$DIMTOH
 70
1
  9
$DIMTAD
 70
2
  9
$DIMZIN
 70
0
  9
$FILLETRAD
 40
1.000000000
  9
$CHAMFERA
 40
1.000000000
  9
$CHAMFERB
 40
1.000000000
  9
$TDCREATE
 40
2454152.700034722
  9
$TDUPDATE
 40
2454152.700034722
  9
$ANGBASE
 50
0.000000000
  9
$ANGDIR
 70
0
  0
ENDSEC
  0
SECTION
  2
TABLES
  0
TABLE
  2
LTYPE
 70
3
  0
LTYPE
  2
CENTER
 70
64
  3
___ _ ___ _ __
 72
65
 73
4
 40
13.000000000
 49
8.500000000
 49
-1.500000000
 49
1.500000000
 49
-1.500000000
  0
LTYPE
  2
CONTINUOUS
 70
64
  3
______________
 72
65
 73
0
 40
0.000000000
  0
LTYPE
  2
DIVIDE
 70
64
  3
___ . . ___ . 
 72
65
 73
6
 40
12.999999523
 49
5.199999809
 49
-2.599999905
 49
0.000000000
 49
-2.599999905
 49
0.000000000
 49
-2.599999905
  0
ENDTAB
  0
TABLE
  2
LAYER
 70
1
  0
LAYER
  2
1
 70
0
 62
7
  6
CONTINUOUS
  0
LAYER
  2
_CONSTR
 70
0
 62
5
  6
CONTINUOUS
  0
ENDTAB
  0
TABLE
  2
STYLE
 70
1
  0
STYLE
  2
STANDARD
 70
64
 40
0.000000000
 41
1.000000000
 50
0.000000000
 71
0
 42
3.200000000
  3
TXT
  4
EXTFONT
  0
ENDTAB
  0
TABLE
  2
VIEW
 70
0
  0
ENDTAB
  0
ENDSEC
  0
SECTION
  2
BLOCKS
  0
BLOCK
  8
0
  2
*D100
 70
65
 10
0.000000000
 20
0.000000000
  3
*D
  0
TEXT
  8
1
 62
4
  6
CONTINUOUS
 72
5
 10
158.831652597
 20
128.809434992
 40
2.800000000
  1
φ
 41
1.270648030
 11
162.191652597
 21
128.809434992
  0
TEXT
  8
1
 62
4
  6
CONTINUOUS
 72
5
 10
163.871652597
 20
128.809434992
 40
2.800000000
  1
9
 41
0.899996850
 11
165.551652597
 21
128.809434992
  0
LINE
  8
1
 62
4
  6
CONTINUOUS
 10
148.760869565
 20
148.326086957
 11
148.760869565
 21
124.604434992
  0
POLYLINE
  8
1
 62
4
  6
CONTINUOUS
 66
1
  0
VERTEX
  8
1
 10
146.760869565
 20
126.904434992
  0
VERTEX
  8
1
 10
148.760869565
 20
126.604434992
  0
SEQEND
  8
1
  0
POLYLINE
  8
1
 62
4
  6
CONTINUOUS
 66
1
  0
VERTEX
  8
1
 10
145.760869565
 20
126.604434992
  0
VERTEX
  8
1
 10
148.760869565
 20
126.604434992
  0
VERTEX
  8
1
 10
146.760869565
 20
126.304434992
  0
SEQEND
  8
1
  0
LINE
  8
1
 62
4
  6
CONTINUOUS
 10
148.760869565
 20
126.604434992
 11
157.760869565
 21
126.604434992
  0
POLYLINE
  8
1
 62
4
  6
CONTINUOUS
 66
1
  0
VERTEX
  8
1
 10
159.760869565
 20
126.304434992
  0
VERTEX
  8
1
 10
157.760869565
 20
126.604434992
  0
SEQEND
  8
1
  0
POLYLINE
  8
1
 62
4
  6
CONTINUOUS
 66
1
  0
VERTEX
  8
1
 10
160.760869565
 20
126.604434992
  0
VERTEX
  8
1
 10
157.760869565
 20
126.604434992
  0
VERTEX
  8
1
 10
159.760869565
 20
126.904434992
  0
SEQEND
  8
1
  0
LINE
  8
1
 62
4
  6
CONTINUOUS
 10
157.760869565
 20
148.326086957
 11
157.760869565
 21
124.604434992
  0
POLYLINE
  8
1
 62
4
  6
CONTINUOUS
 66
1
  0
VERTEX
  8
1
 10
157.760869565
 20
126.604434992
  0
VERTEX
  8
1
 10
167.534852597
 20
126.604434992
  0
SEQEND
  8
1
  0
ENDBLK
  8
0
  0
BLOCK
  8
0
  2
*D101
 70
65
 10
0.000000000
 20
0.000000000
  3
*D
  0
TEXT
  8
1
 62
4
  6
CONTINUOUS
 72
5
 10
186.169269565
 20
120.809434992
 40
2.800000000
  1
70
 41
1.000000667
 11
190.369269565
 21
120.809434992
  0
LINE
  8
1
 62
4
  6
CONTINUOUS
 10
153.260869565
 20
132.604434992
 11
153.260869565
 21
116.604434992
  0
POLYLINE
  8
1
 62
4
  6
CONTINUOUS
 66
1
  0
VERTEX
  8
1
 10
155.260869565
 20
118.904434992
  0
VERTEX
  8
1
 10
153.260869565
 20
118.604434992
  0
VERTEX
  8
1
 10
155.260869565
 20
118.304434992
  0
SEQEND
  8
1
  0
LINE
  8
1
 62
4
  6
CONTINUOUS
 10
153.260869565
 20
118.604434992
 11
223.260869565
 21
118.604434992
  0
POLYLINE
  8
1
 62
4
  6
CONTINUOUS
 66
1
  0
VERTEX
  8
1
 10
221.260869565
 20
118.304434992
  0
VERTEX
  8
1
 10
223.260869565
 20
118.604434992
  0
VERTEX
  8
1
 10
221.260869565
 20
118.904434992
  0
SEQEND
  8
1
  0
LINE
  8
1
 62
4
  6
CONTINUOUS
 10
223.260869565
 20
161.526086957
 11
223.260869565
 21
116.604434992
  0
ENDBLK
  8
0
  0
BLOCK
  8
0
  2
*D102
 70
65
 10
0.000000000
 20
0.000000000
  3
*D
  0
TEXT
  8
1
 62
4
  6
CONTINUOUS
 72
5
 10
223.967869565
 20
120.809434992
 40
2.800000000
  1
(
 41
1.500001500
 11
225.367869565
 21
120.809434992
  0
TEXT
  8
1
 62
4
  6
CONTINUOUS
 72
5
 10
226.067869565
 20
120.809434992
 40
2.800000000
  1
13.3
 41
1.031249098
 11
233.767869565
 21
120.809434992
  0
TEXT
  8
1
 62
4
  6
CONTINUOUS
 72
5
 10
234.467869565
 20
120.809434992
 40
2.800000000
  1
)
 41
1.500001500
 11
235.867869565
 21
120.809434992
  0
POLYLINE
  8
1
 62
4
  6
CONTINUOUS
 66
1
  0
VERTEX
  8
1
 10
225.260869565
 20
118.904434992
  0
VERTEX
  8
1
 10
223.260869565
 20
118.604434992
  0
VERTEX
  8
1
 10
225.260869565
 20
118.304434992
  0
SEQEND
  8
1
  0
LINE
  8
1
 62
4
  6
CONTINUOUS
 10
223.260869565
 20
118.604434992
 11
236.560869565
 21
118.604434992
  0
POLYLINE
  8
1
 62
4
  6
CONTINUOUS
 66
1
  0
VERTEX
  8
1
 10
234.560869565
 20
118.304434992
  0
VERTEX
  8
1
 10
236.560869565
 20
118.604434992
  0
VERTEX
  8
1
 10
234.560869565
 20
118.904434992
  0
SEQEND
  8
1
  0
LINE
  8
1
 62
4
  6
CONTINUOUS
 10
236.560869565
 20
165.026086957
 11
236.560869565
 21
116.604434992
  0
ENDBLK
  8
0
  0
BLOCK
  8
0
  2
*D104
 70
65
 10
0.000000000
 20
0.000000000
  3
*D
  0
TEXT
  8
1
 62
4
  6
CONTINUOUS
 72
5
 10
190.299269565
 20
112.809434992
 40
2.800000000
  1
83.3
 41
1.099999267
 11
199.539269565
 21
112.809434992
  0
LINE
  8
1
 62
4
  6
CONTINUOUS
 10
153.260869565
 20
132.604434992
 11
153.260869565
 21
108.604434992
  0
POLYLINE
  8
1
 62
4
  6
CONTINUOUS
 66
1
  0
VERTEX
  8
1
 10
155.260869565
 20
110.904434992
  0
VERTEX
  8
1
 10
153.260869565
 20
110.604434992
  0
VERTEX
  8
1
 10
155.260869565
 20
110.304434992
  0
SEQEND
  8
1
  0
LINE
  8
1
 62
4
  6
CONTINUOUS
 10
153.260869565
 20
110.604434992
 11
236.560869565
 21
110.604434992
  0
POLYLINE
  8
1
 62
4
  6
CONTINUOUS
 66
1
  0
VERTEX
  8
1
 10
234.560869565
 20
110.304434992
  0
VERTEX
  8
1
 10
236.560869565
 20
110.604434992
  0
VERTEX
  8
1
 10
234.560869565
 20
110.904434992
  0
SEQEND
  8
1
  0
LINE
  8
1
 62
4
  6
CONTINUOUS
 10
236.560869565
 20
165.026086957
 11
236.560869565
 21
108.604434992
  0
ENDBLK
  8
0
  0
BLOCK
  8
0
  2
*D105
 70
65
 10
0.000000000
 20
0.000000000
  3
*D
  0
TEXT
  8
1
 62
4
  6
CONTINUOUS
 72
5
 10
191.329269565
 20
128.809434992
 40
2.800000000
  1
(
 41
1.800001800
 11
193.009269565
 21
128.809434992
  0
TEXT
  8
1
 62
4
  6
CONTINUOUS
 72
5
 10
193.849269565
 20
128.809434992
 40
2.800000000
  1
49.6
 41
1.099999267
 11
203.089269565
 21
128.809434992
  0
TEXT
  8
1
 62
4
  6
CONTINUOUS
 72
5
 10
203.929269565
 20
128.809434992
 40
2.800000000
  1
)
 41
1.800001800
 11
205.609269565
 21
128.809434992
  0
LINE
  8
1
 62
4
  6
CONTINUOUS
 10
173.660869565
 20
161.426086957
 11
173.660869565
 21
124.604434992
  0
POLYLINE
  8
1
 62
4
  6
CONTINUOUS
 66
1
  0
VERTEX
  8
1
 10
175.660869565
 20
126.904434992
  0
VERTEX
  8
1
 10
173.660869565
 20
126.604434992
  0
VERTEX
  8
1
 10
175.660869565
 20
126.304434992
  0
SEQEND
  8
1
  0
LINE
  8
1
 62
4
  6
CONTINUOUS
 10
173.660869565
 20
126.604434992
 11
223.260869565
 21
126.604434992
  0
POLYLINE
  8
1
 62
4
  6
CONTINUOUS
 66
1
  0
VERTEX
  8
1
 10
221.260869565
 20
126.304434992
  0
VERTEX
  8
1
 10
223.260869565
 20
126.604434992
  0
VERTEX
  8
1
 10
221.260869565
 20
126.904434992
  0
SEQEND
  8
1
  0
LINE
  8
1
 62
4
  6
CONTINUOUS
 10
223.260869565
 20
161.526086957
 11
223.260869565
 21
124.604434992
  0
ENDBLK
  8
0
  0
BLOCK
  8
0
  2
*D106
 70
65
 10
0.000000000
 20
0.000000000
  3
*D
  0
TEXT
  8
1
 62
4
  6
CONTINUOUS
 72
5
 10
246.355869565
 20
163.216486957
 40
2.800000000
  1
φ
 41
1.164760695
 50
90.000000000
 11
246.355869565
 21
166.296486957
  0
TEXT
  8
1
 62
4
  6
CONTINUOUS
 72
5
 10
246.355869565
 20
167.836486957
 40
2.800000000
  1
22.8
 41
1.008332661
 50
90.000000000
 11
246.355869565
 21
176.306486957
  0
TEXT
  8
1
 62
4
  6
CONTINUOUS
 72
5
 10
244.591869565
 20
177.076486957
 40
1.400000000
  1
 0
 41
2.138891265
 50
90.000000000
 11
244.591869565
 21
179.771486957
  0
TEXT
  8
1
 62
4
  6
CONTINUOUS
 72
5
 10
246.733869565
 20
177.076486957
 40
1.400000000
  1
-0.01
 41
1.567500627
 50
90.000000000
 11
246.733869565
 21
184.391486957
  0
LINE
  8
1
 62
4
  6
CONTINUOUS
 10
223.160869565
 20
184.226086957
 11
250.560869565
 21
184.226086957
  0
POLYLINE
  8
1
 62
4
  6
CONTINUOUS
 66
1
  0
VERTEX
  8
1
 10
248.860869565
 20
182.226086957
  0
VERTEX
  8
1
 10
248.560869565
 20
184.226086957
  0
VERTEX
  8
1
 10
248.260869565
 20
182.226086957
  0
SEQEND
  8
1
  0
LINE
  8
1
 62
4
  6
CONTINUOUS
 10
248.560869565
 20
184.226086957
 11
248.560869565
 21
161.426086957
  0
POLYLINE
  8
1
 62
4
  6
CONTINUOUS
 66
1
  0
VERTEX
  8
1
 10
248.260869565
 20
163.426086957
  0
VERTEX
  8
1
 10
248.560869565
 20
161.426086957
  0
VERTEX
  8
1
 10
248.860869565
 20
163.426086957
  0
SEQEND
  8
1
  0
LINE
  8
1
 62
4
  6
CONTINUOUS
 10
223.160869565
 20
161.426086957
 11
250.560869565
 21
161.426086957
  0
ENDBLK
  8
0
  0
BLOCK
  8
0
  2
*D107
 70
65
 10
0.000000000
 20
0.000000000
  3
*D
  0
TEXT
  8
1
 62
4
  6
CONTINUOUS
 72
5
 10
146.129269565
 20
203.131086957
 40
2.800000000
  1
φ
 41
1.270648030
 11
149.489269565
 21
203.131086957
  0
TEXT
  8
1
 62
4
  6
CONTINUOUS
 72
5
 10
151.169269565
 20
203.131086957
 40
2.800000000
  1
22.8
 41
1.099999267
 11
160.409269565
 21
203.131086957
  0
LINE
  8
1
 62
4
  6
CONTINUOUS
 10
141.860869565
 20
191.826086957
 11
141.860869565
 21
202.926086957
  0
POLYLINE
  8
1
 62
4
  6
CONTINUOUS
 66
1
  0
VERTEX
  8
1
 10
143.860869565
 20
201.226086957
  0
VERTEX
  8
1
 10
141.860869565
 20
200.926086957
  0
VERTEX
  8
1
 10
143.860869565
 20
200.626086957
  0
SEQEND
  8
1
  0
LINE
  8
1
 62
4
  6
CONTINUOUS
 10
141.860869565
 20
200.926086957
 11
164.660869565
 21
200.926086957
  0
POLYLINE
  8
1
 62
4
  6
CONTINUOUS
 66
1
  0
VERTEX
  8
1
 10
162.660869565
 20
200.626086957
  0
VERTEX
  8
1
 10
164.660869565
 20
200.926086957
  0
VERTEX
  8
1
 10
162.660869565
 20
201.226086957
  0
SEQEND
  8
1
  0
LINE
  8
1
 62
4
  6
CONTINUOUS
 10
164.660869565
 20
191.826086957
 11
164.660869565
 21
202.926086957
  0
ENDBLK
  8
0
  0
BLOCK
  8
0
  2
*D108
 70
65
 10
0.000000000
 20
0.000000000
  3
*D
  0
TEXT
  8
1
 62
4
  6
CONTINUOUS
 72
5
 10
121.655869565
 20
161.633660974
 40
2.800000000
  1
(
 41
1.800001800
 50
90.000000000
 11
121.655869565
 21
163.313660974
  0
TEXT
  8
1
 62
4
  6
CONTINUOUS
 72
5
 10
121.655869565
 20
164.153660974
 40
2.800000000
  1
48.3
 41
1.099999267
 50
90.000000000
 11
121.655869565
 21
173.393660974
  0
TEXT
  8
1
 62
4
  6
CONTINUOUS
 72
5
 10
121.655869565
 20
174.233660974
 40
2.800000000
  1
)
 41
1.800001800
 50
90.000000000
 11
121.655869565
 21
175.913660974
  0
LINE
  8
1
 62
4
  6
CONTINUOUS
 10
150.160869565
 20
144.604434992
 11
121.860869565
 21
144.604434992
  0
POLYLINE
  8
1
 62
4
  6
CONTINUOUS
 66
1
  0
VERTEX
  8
1
 10
123.560869565
 20
146.604434992
  0
VERTEX
  8
1
 10
123.860869565
 20
144.604434992
  0
VERTEX
  8
1
 10
124.160869565
 20
146.604434992
  0
SEQEND
  8
1
  0
LINE
  8
1
 62
4
  6
CONTINUOUS
 10
123.860869565
 20
144.604434992
 11
123.860869565
 21
192.926086957
  0
POLYLINE
  8
1
 62
4
  6
CONTINUOUS
 66
1
  0
VERTEX
  8
1
 10
124.160869565
 20
190.926086957
  0
VERTEX
  8
1
 10
123.860869565
 20
192.926086957
  0
VERTEX
  8
1
 10
123.560869565
 20
190.926086957
  0
SEQEND
  8
1
  0
LINE
  8
1
 62
4
  6
CONTINUOUS
 10
143.010869565
 20
192.926086957
 11
121.860869565
 21
192.926086957
  0
ENDBLK
  8
0
  0
BLOCK
  8
0
  2
*D109
 70
65
 10
0.000000000
 20
0.000000000
  3
*D
  0
TEXT
  8
1
 62
4
  6
CONTINUOUS
 72
5
 10
129.655869565
 20
131.682846577
 40
2.800000000
  1
(
 41
1.800001800
 50
90.000000000
 11
129.655869565
 21
133.362846577
  0
TEXT
  8
1
 62
4
  6
CONTINUOUS
 72
5
 10
129.655869565
 20
134.202846577
 40
2.800000000
  1
8.2
 41
1.199998800
 50
90.000000000
 11
129.655869565
 21
140.922846577
  0
TEXT
  8
1
 62
4
  6
CONTINUOUS
 72
5
 10
129.655869565
 20
141.762846577
 40
2.800000000
  1
)
 41
1.800001800
 50
90.000000000
 11
129.655869565
 21
143.442846577
  0
LINE
  8
1
 62
4
  6
CONTINUOUS
 10
150.160869565
 20
144.604434992
 11
129.860869565
 21
144.604434992
  0
POLYLINE
  8
1
 62
4
  6
CONTINUOUS
 66
1
  0
VERTEX
  8
1
 10
131.560869565
 20
142.604434992
  0
VERTEX
  8
1
 10
131.860869565
 20
144.604434992
  0
SEQEND
  8
1
  0
POLYLINE
  8
1
 62
4
  6
CONTINUOUS
 66
1
  0
VERTEX
  8
1
 10
131.860869565
 20
141.604434992
  0
VERTEX
  8
1
 10
131.860869565
 20
144.604434992
  0
VERTEX
  8
1
 10
132.160869565
 20
142.604434992
  0
SEQEND
  8
1
  0
LINE
  8
1
 62
4
  6
CONTINUOUS
 10
131.860869565
 20
144.604434992
 11
131.860869565
 21
152.826086957
  0
POLYLINE
  8
1
 62
4
  6
CONTINUOUS
 66
1
  0
VERTEX
  8
1
 10
132.160869565
 20
154.826086957
  0
VERTEX
  8
1
 10
131.860869565
 20
152.826086957
  0
SEQEND
  8
1
  0
POLYLINE
  8
1
 62
4
  6
CONTINUOUS
 66
1
  0
VERTEX
  8
1
 10
131.860869565
 20
155.826086957
  0
VERTEX
  8
1
 10
131.860869565
 20
152.826086957
  0
VERTEX
  8
1
 10
131.560869565
 20
154.826086957
  0
SEQEND
  8
1
  0
LINE
  8
1
 62
4
  6
CONTINUOUS
 10
143.060869565
 20
152.826086957
 11
129.860869565
 21
152.826086957
  0
POLYLINE
  8
1
 62
4
  6
CONTINUOUS
 66
1
  0
VERTEX
  8
1
 10
131.860869565
 20
144.604434992
  0
VERTEX
  8
1
 10
131.860869565
 20
129.682846577
  0
SEQEND
  8
1
  0
ENDBLK
  8
0
  0
BLOCK
  8
0
  2
*D110
 70
65
 10
0.000000000
 20
0.000000000
  3
*D
  0
TEXT
  8
1
 62
4
  6
CONTINUOUS
 72
5
 10
129.655869565
 20
158.214486957
 40
2.800000000
  1
(
 41
1.800001800
 50
90.000000000
 11
129.655869565
 21
159.894486957
  0
TEXT
  8
1
 62
4
  6
CONTINUOUS
 72
5
 10
129.655869565
 20
160.734486957
 40
2.800000000
  1
20
 41
1.000000667
 50
90.000000000
 11
129.655869565
 21
164.934486957
  0
TEXT
  8
1
 62
4
  6
CONTINUOUS
 72
5
 10
129.655869565
 20
165.774486957
 40
2.800000000
  1
)
 41
1.800001800
 50
90.000000000
 11
129.655869565
 21
167.454486957
  0
POLYLINE
  8
1
 62
4
  6
CONTINUOUS
 66
1
  0
VERTEX
  8
1
 10
131.560869565
 20
154.826086957
  0
VERTEX
  8
1
 10
131.860869565
 20
152.826086957
  0
VERTEX
  8
1
 10
132.160869565
 20
154.826086957
  0
SEQEND
  8
1
  0
LINE
  8
1
 62
4
  6
CONTINUOUS
 10
131.860869565
 20
152.826086957
 11
131.860869565
 21
172.826086957
  0
POLYLINE
  8
1
 62
4
  6
CONTINUOUS
 66
1
  0
VERTEX
  8
1
 10
132.160869565
 20
170.826086957
  0
VERTEX
  8
1
 10
131.860869565
 20
172.826086957
  0
VERTEX
  8
1
 10
131.560869565
 20
170.826086957
  0
SEQEND
  8
1
  0
LINE
  8
1
 62
4
  6
CONTINUOUS
 10
139.860869565
 20
172.826086957
 11
129.860869565
 21
172.826086957
  0
ENDBLK
  8
0
  0
BLOCK
  8
0
  2
*D111
 70
65
 10
0.000000000
 20
0.000000000
  3
*D
  0
TEXT
  8
1
 62
4
  6
CONTINUOUS
 72
5
 10
129.655869565
 20
175.744486957
 40
2.800000000
  1
(
 41
1.800001800
 50
90.000000000
 11
129.655869565
 21
177.424486957
  0
TEXT
  8
1
 62
4
  6
CONTINUOUS
 72
5
 10
129.655869565
 20
178.264486957
 40
2.800000000
  1
20.1
 41
1.320000528
 50
90.000000000
 11
129.655869565
 21
187.504486957
  0
TEXT
  8
1
 62
4
  6
CONTINUOUS
 72
5
 10
129.655869565
 20
188.344486957
 40
2.800000000
  1
)
 41
1.800001800
 50
90.000000000
 11
129.655869565
 21
190.024486957
  0
POLYLINE
  8
1
 62
4
  6
CONTINUOUS
 66
1
  0
VERTEX
  8
1
 10
131.560869565
 20
174.826086957
  0
VERTEX
  8
1
 10
131.860869565
 20
172.826086957
  0
VERTEX
  8
1
 10
132.160869565
 20
174.826086957
  0
SEQEND
  8
1
  0
LINE
  8
1
 62
4
  6
CONTINUOUS
 10
131.860869565
 20
172.826086957
 11
131.860869565
 21
192.926086957
  0
POLYLINE
  8
1
 62
4
  6
CONTINUOUS
 66
1
  0
VERTEX
  8
1
 10
132.160869565
 20
190.926086957
  0
VERTEX
  8
1
 10
131.860869565
 20
192.926086957
  0
VERTEX
  8
1
 10
131.560869565
 20
190.926086957
  0
SEQEND
  8
1
  0
LINE
  8
1
 62
4
  6
CONTINUOUS
 10
143.010869565
 20
192.926086957
 11
129.860869565
 21
192.926086957
  0
ENDBLK
  8
0
  0
ENDSEC
  0
SECTION
  2
ENTITIES
  0
LINE
  8
1
 62
7
  6
CONTINUOUS
 10
142.860869565
 20
192.826086957
 11
163.660869565
 21
192.826086957
  0
LINE
  8
1
 62
7
  6
CONTINUOUS
 10
141.860869565
 20
155.026086957
 11
141.860869565
 21
191.826086957
  0
LINE
  8
1
 62
7
  6
CONTINUOUS
 10
164.660869565
 20
162.926086957
 11
164.660869565
 21
155.026086957
  0
LINE
  8
1
 62
7
  6
CONTINUOUS
 10
164.460869565
 20
154.826086957
 11
142.060869565
 21
154.826086957
  0
LINE
  8
1
 62
7
  6
CONTINUOUS
 10
164.660869565
 20
191.826086957
 11
164.660869565
 21
182.726086957
  0
LINE
  8
1
 62
7
  6
CONTINUOUS
 10
164.660869565
 20
182.726086957
 11
172.260869565
 21
182.726086957
  0
LINE
  8
1
 62
7
  6
CONTINUOUS
 10
172.260869565
 20
182.726086957
 11
172.260869565
 21
162.926086957
  0
LINE
  8
1
 62
7
  6
CONTINUOUS
 10
172.260869565
 20
162.926086957
 11
164.660869565
 21
162.926086957
  0
LINE
  8
1
 62
7
  6
CONTINUOUS
 10
141.860869565
 20
191.826086957
 11
142.860869565
 21
192.826086957
  0
LINE
  8
1
 62
7
  6
CONTINUOUS
 10
163.660869565
 20
192.826086957
 11
164.660869565
 21
191.826086957
  0
LINE
  8
1
 62
7
  6
CONTINUOUS
 10
164.660869565
 20
155.026086957
 11
164.460869565
 21
154.826086957
  0
LINE
  8
1
 62
7
  6
CONTINUOUS
 10
142.060869565
 20
154.826086957
 11
141.860869565
 21
155.026086957
  0
LINE
  8
1
 62
7
  6
CONTINUOUS
 10
153.260869565
 20
147.826086957
 11
157.260869565
 21
147.826086957
  0
LINE
  8
1
 62
7
  6
CONTINUOUS
 10
154.760869565
 20
144.604434992
 11
154.760869565
 21
134.804434992
  0
LINE
  8
1
 62
1
  6
CENTER
 10
139.860869565
 20
172.826086957
 11
238.560869565
 21
172.826086957
  0
LINE
  8
1
 62
1
  6
CENTER
 10
153.260869565
 20
194.926086957
 11
153.260869565
 21
132.604434992
  0
ARC
  8
1
 62
7
  6
CONTINUOUS
 10
170.313302670
 20
172.826086957
 40
11.400000000
 50
119.724329147
 51
240.275670853
  0
LINE
  8
1
 62
7
  6
CONTINUOUS
 10
141.860869565
 20
191.826086957
 11
164.660869565
 21
191.826086957
  0
LINE
  8
1
 62
7
  6
CONTINUOUS
 10
153.260869565
 20
147.826086957
 11
149.260869565
 21
147.826086957
  0
LINE
  8
1
 62
7
  6
CONTINUOUS
 10
148.760869565
 20
148.326086957
 11
148.760869565
 21
152.826086957
  0
LINE
  8
1
 62
7
  6
CONTINUOUS
 10
148.760869565
 20
148.326086957
 11
149.260869565
 21
147.826086957
  0
LINE
  8
1
 62
7
  6
CONTINUOUS
 10
151.199316752
 20
152.326086957
 11
151.199316752
 21
149.826086957
  0
LINE
  8
1
 62
7
  6
CONTINUOUS
 10
155.322422378
 20
149.826086957
 11
151.199316752
 21
149.826086957
  0
LINE
  8
1
 62
7
  6
CONTINUOUS
 10
151.261494663
 20
144.904434992
 11
151.626964717
 21
144.604434992
  0
LINE
  8
1
 62
7
  6
CONTINUOUS
 10
151.199316752
 20
152.326086957
 11
155.322422378
 21
152.326086957
  0
LINE
  8
1
 62
7
  6
CONTINUOUS
 10
151.960869565
 20
134.604434992
 11
154.560869565
 21
134.604434992
  0
LINE
  8
1
 62
7
  6
CONTINUOUS
 10
157.260869565
 20
147.826086957
 11
157.760869565
 21
148.326086957
  0
LINE
  8
1
 62
7
  6
CONTINUOUS
 10
143.010869565
 20
192.926086957
 11
143.010869565
 21
192.826086957
  0
LINE
  8
1
 62
7
  6
CONTINUOUS
 10
149.260869565
 20
147.826086957
 11
148.760869565
 21
148.326086957
  0
LINE
  8
1
 62
1
  6
CONTINUOUS
 10
143.610869565
 20
154.826086957
 11
143.610869565
 21
154.626086957
  0
LINE
  8
1
 62
1
  6
CONTINUOUS
 10
162.910869565
 20
154.826086957
 11
162.910869565
 21
154.626086957
  0
LINE
  8
1
 62
4
  6
CONTINUOUS
 10
151.261494663
 20
146.604434992
 11
154.894774414
 21
144.604434992
  0
LINE
  8
1
 62
4
  6
CONTINUOUS
 10
155.260244468
 20
146.604434992
 11
151.626964717
 21
144.604434992
  0
LINE
  8
1
 62
7
  6
CONTINUOUS
 10
149.860869565
 20
144.904434992
 11
149.860869565
 21
146.604434992
  0
LINE
  8
1
 62
7
  6
CONTINUOUS
 10
223.160869565
 20
184.226086957
 11
223.260869565
 21
184.126086957
  0
LINE
  8
1
 62
7
  6
CONTINUOUS
 10
223.260869565
 20
161.526086957
 11
223.160869565
 21
161.426086957
  0
LINE
  8
1
 62
7
  6
CONTINUOUS
 10
223.260869565
 20
181.226086957
 11
224.260869565
 21
181.226086957
  0
LINE
  8
1
 62
7
  6
CONTINUOUS
 10
224.260869565
 20
164.276086957
 11
224.260869565
 21
181.376086957
  0
LINE
  8
1
 62
7
  6
CONTINUOUS
 10
224.260869565
 20
164.426086957
 11
223.260869565
 21
164.426086957
  0
LINE
  8
1
 62
4
  6
CONTINUOUS
 10
155.322422378
 20
152.326086957
 11
151.199316752
 21
149.826086957
  0
LINE
  8
1
 62
7
  6
CONTINUOUS
 10
156.660869565
 20
146.604434992
 11
156.510869565
 21
147.826086957
  0
LINE
  8
1
 62
4
  6
CONTINUOUS
 10
151.199316752
 20
152.326086957
 11
155.322422378
 21
149.826086957
  0
LINE
  8
1
 62
7
  6
CONTINUOUS
 10
173.660869565
 20
184.226086957
 11
173.660869565
 21
161.426086957
  0
LINE
  8
1
 62
7
  6
CONTINUOUS
 10
229.560869565
 20
181.376086957
 11
229.560869565
 21
164.276086957
  0
LINE
  8
1
 62
7
  6
CONTINUOUS
 10
217.060869565
 20
178.299659830
 11
220.260869565
 21
178.299659830
  0
LINE
  8
1
 62
7
  6
CONTINUOUS
 10
157.760869565
 20
148.326086957
 11
157.760869565
 21
152.826086957
  0
LINE
  8
1
 62
1
  6
CONTINUOUS
 10
228.261831460
 20
181.376086957
 11
229.560869565
 21
180.626086957
  0
LINE
  8
1
 62
1
  6
CONTINUOUS
 10
229.560869565
 20
180.626086957
 11
236.560869565
 21
180.626086957
  0
LINE
  8
1
 62
1
  6
CONTINUOUS
 10
236.560869565
 20
165.026086957
 11
229.560869565
 21
165.026086957
  0
LINE
  8
1
 62
1
  6
CONTINUOUS
 10
229.560869565
 20
165.026086957
 11
228.261831460
 21
164.276086957
  0
LINE
  8
1
 62
7
  6
CONTINUOUS
 10
172.260869565
 20
182.826086957
 11
173.660869565
 21
184.226086957
  0
LINE
  8
1
 62
7
  6
CONTINUOUS
 10
172.260869565
 20
162.826086957
 11
173.660869565
 21
161.426086957
  0
LINE
  8
1
 62
7
  6
CONTINUOUS
 10
217.060869565
 20
167.352514083
 11
220.260869565
 21
167.352514083
  0
LINE
  8
1
 62
7
  6
CONTINUOUS
 10
217.060869565
 20
178.299659830
 11
217.060869565
 21
167.352514083
  0
LINE
  8
1
 62
7
  6
CONTINUOUS
 10
220.260869565
 20
178.299659830
 11
220.260869565
 21
167.352514083
  0
LINE
  8
1
 62
7
  6
CONTINUOUS
 10
173.660869565
 20
184.226086957
 11
223.160869565
 21
184.226086957
  0
LINE
  8
1
 62
7
  6
CONTINUOUS
 10
223.160869565
 20
161.426086957
 11
173.660869565
 21
161.426086957
  0
LINE
  8
1
 62
4
  6
CONTINUOUS
 10
220.260869565
 20
178.299659830
 11
217.060869565
 21
167.352514083
  0
LINE
  8
1
 62
4
  6
CONTINUOUS
 10
217.060869565
 20
178.299659830
 11
220.260869565
 21
167.352514083
  0
ARC
  8
1
 62
7
  6
CONTINUOUS
 10
235.189668018
 20
172.826086957
 40
18.937088829
 50
163.199519417
 51
196.800480583
  0
ARC
  8
1
 62
7
  6
CONTINUOUS
 10
202.132071113
 20
172.826086957
 40
18.937088829
 50
343.199519417
 51
16.800480583
  0
LINE
  8
1
 62
7
  6
CONTINUOUS
 10
236.560869565
 20
165.026086957
 11
235.960869565
 21
164.426086957
  0
LINE
  8
1
 62
7
  6
CONTINUOUS
 10
235.960869565
 20
181.226086957
 11
236.560869565
 21
180.626086957
  0
LINE
  8
1
 62
7
  6
CONTINUOUS
 10
229.560869565
 20
164.276086957
 11
224.260869565
 21
164.276086957
  0
LINE
  8
1
 62
7
  6
CONTINUOUS
 10
235.960869565
 20
164.426086957
 11
229.560869565
 21
164.426086957
  0
LINE
  8
1
 62
7
  6
CONTINUOUS
 10
236.560869565
 20
180.626086957
 11
236.560869565
 21
165.026086957
  0
LINE
  8
1
 62
7
  6
CONTINUOUS
 10
143.310869565
 20
154.826086957
 11
143.310869565
 21
154.626086957
  0
LINE
  8
1
 62
7
  6
CONTINUOUS
 10
229.560869565
 20
181.226086957
 11
235.960869565
 21
181.226086957
  0
LINE
  8
1
 62
7
  6
CONTINUOUS
 10
224.260869565
 20
181.376086957
 11
229.560869565
 21
181.376086957
  0
LINE
  8
1
 62
7
  6
CONTINUOUS
 10
223.260869565
 20
184.126086957
 11
223.260869565
 21
161.526086957
  0
LINE
  8
1
 62
7
  6
CONTINUOUS
 10
143.010869565
 20
192.926086957
 11
163.510869565
 21
192.926086957
  0
LINE
  8
1
 62
7
  6
CONTINUOUS
 10
148.760869565
 20
148.326086957
 11
157.760869565
 21
148.326086957
  0
ARC
  8
1
 62
7
  6
CONTINUOUS
 10
154.560869565
 20
134.804434992
 40
0.200000000
 50
270.000000000
 51
0.000000000
  0
ARC
  8
1
 62
7
  6
CONTINUOUS
 10
151.960869565
 20
134.804434992
 40
0.200000000
 50
180.000000000
 51
270.000000000
  0
LINE
  8
1
 62
7
  6
CONTINUOUS
 10
151.760869565
 20
134.804434992
 11
151.760869565
 21
144.604434992
  0
LINE
  8
1
 62
7
  6
CONTINUOUS
 10
163.510869565
 20
192.826086957
 11
163.510869565
 21
192.926086957
  0
LINE
  8
1
 62
7
  6
CONTINUOUS
 10
150.160869565
 20
144.604434992
 11
149.860869565
 21
144.904434992
  0
LINE
  8
1
 62
7
  6
CONTINUOUS
 10
151.261494663
 20
146.604434992
 11
151.261494663
 21
144.904434992
  0
LINE
  8
1
 62
7
  6
CONTINUOUS
 10
155.322422378
 20
152.326086957
 11
155.322422378
 21
149.826086957
  0
LINE
  8
1
 62
7
  6
CONTINUOUS
 10
151.261494663
 20
144.904434992
 11
149.860869565
 21
144.904434992
  0
LINE
  8
1
 62
7
  6
CONTINUOUS
 10
149.860869565
 20
146.604434992
 11
150.010869565
 21
147.826086957
  0
LINE
  8
1
 62
7
  6
CONTINUOUS
 10
155.260244468
 20
144.904434992
 11
156.660869565
 21
144.904434992
  0
LINE
  8
1
 62
7
  6
CONTINUOUS
 10
172.260869565
 20
182.826086957
 11
172.260869565
 21
162.826086957
  0
LINE
  8
1
 62
7
  6
CONTINUOUS
 10
163.210869565
 20
154.826086957
 11
163.210869565
 21
154.626086957
  0
LINE
  8
1
 62
7
  6
CONTINUOUS
 10
157.760869565
 20
148.326086957
 11
157.260869565
 21
147.826086957
  0
LINE
  8
1
 62
7
  6
CONTINUOUS
 10
156.660869565
 20
144.904434992
 11
156.660869565
 21
146.604434992
  0
LINE
  8
1
 62
7
  6
CONTINUOUS
 10
150.160869565
 20
144.604434992
 11
156.360869565
 21
144.604434992
  0
LINE
  8
1
 62
7
  6
CONTINUOUS
 10
155.260244468
 20
144.904434992
 11
154.894774414
 21
144.604434992
  0
LINE
  8
1
 62
7
  6
CONTINUOUS
 10
149.860869565
 20
146.604434992
 11
155.260244468
 21
146.604434992
  0
LINE
  8
1
 62
7
  6
CONTINUOUS
 10
155.260244468
 20
146.604434992
 11
155.260244468
 21
144.904434992
  0
LINE
  8
1
 62
7
  6
CONTINUOUS
 10
156.660869565
 20
146.604434992
 11
149.860869565
 21
146.604434992
  0
LINE
  8
1
 62
7
  6
CONTINUOUS
 10
156.360869565
 20
144.604434992
 11
156.660869565
 21
144.904434992
  0
LINE
  8
1
 62
7
  6
CONTINUOUS
 10
142.260869565
 20
153.626086957
 11
143.060869565
 21
152.826086957
  0
LINE
  8
1
 62
7
  6
CONTINUOUS
 10
142.260869565
 20
154.626086957
 11
142.260869565
 21
153.626086957
  0
LINE
  8
1
 62
7
  6
CONTINUOUS
 10
143.060869565
 20
152.826086957
 11
163.460869565
 21
152.826086957
  0
LINE
  8
1
 62
7
  6
CONTINUOUS
 10
164.260869565
 20
153.626086957
 11
164.260869565
 21
154.626086957
  0
LINE
  8
1
 62
7
  6
CONTINUOUS
 10
164.260869565
 20
154.626086957
 11
142.260869565
 21
154.626086957
  0
LINE
  8
1
 62
7
  6
CONTINUOUS
 10
163.460869565
 20
152.826086957
 11
164.260869565
 21
153.626086957
  0
LINE
  8
1
 62
7
  6
CONTINUOUS
 10
142.260869565
 20
153.626086957
 11
164.260869565
 21
153.626086957
  0
DIMENSION
  8
1
 62
4
  6
CONTINUOUS
  2
*D100
 70
1
 10
157.760869565
 20
126.604434992
 11
162.183252597
 21
126.604434992
 14
157.760869565
 24
148.326086957
 13
148.760869565
 23
148.326086957
 50
0.000000000
  0
DIMENSION
  8
1
 62
4
  6
CONTINUOUS
  2
*D101
 70
0
 10
223.260869565
 20
118.604434992
 11
188.260869565
 21
118.604434992
 14
223.260869565
 24
161.526086957
 13
153.260869565
 23
132.604434992
 50
0.000000000
  0
DIMENSION
  8
1
 62
4
  6
CONTINUOUS
  2
*D102
 70
0
 10
236.560869565
 20
118.604434992
 11
229.910869565
 21
118.604434992
 14
236.560869565
 24
165.026086957
 13
223.260869565
 23
161.526086957
 50
0.000000000
  0
LINE
  8
1
 62
7
  6
CONTINUOUS
 10
235.960869565
 20
181.226086957
 11
235.960869565
 21
164.426086957
  0
DIMENSION
  8
1
 62
4
  6
CONTINUOUS
  2
*D104
 70
0
 10
236.560869565
 20
110.604434992
 11
194.910869565
 21
110.604434992
 14
236.560869565
 24
165.026086957
 13
153.260869565
 23
132.604434992
 50
0.000000000
  0
DIMENSION
  8
1
 62
4
  6
CONTINUOUS
  2
*D105
 70
0
 10
223.260869565
 20
126.604434992
 11
198.460869565
 21
126.604434992
 14
223.260869565
 24
161.526086957
 13
173.660869565
 23
161.426086957
 50
0.000000000
  0
DIMENSION
  8
1
 62
4
  6
CONTINUOUS
  2
*D106
 70
1
 10
248.560869565
 20
161.426086957
 11
248.560869565
 21
172.826086957
 14
223.160869565
 24
161.426086957
 13
223.160869565
 23
184.226086957
 50
90.000000000
  0
DIMENSION
  8
1
 62
4
  6
CONTINUOUS
  2
*D107
 70
1
 10
164.660869565
 20
200.926086957
 11
153.260869565
 21
200.926086957
 14
164.660869565
 24
191.826086957
 13
141.860869565
 23
191.826086957
 50
0.000000000
  0
DIMENSION
  8
1
 62
4
  6
CONTINUOUS
  2
*D108
 70
0
 10
123.860869565
 20
192.926086957
 11
123.860869565
 21
168.765260974
 14
143.010869565
 24
192.926086957
 13
150.160869565
 23
144.604434992
 50
90.000000000
  0
DIMENSION
  8
1
 62
4
  6
CONTINUOUS
  2
*D109
 70
0
 10
131.860869565
 20
152.826086957
 11
131.860869565
 21
137.554446577
 14
143.060869565
 24
152.826086957
 13
150.160869565
 23
144.604434992
 50
90.000000000
  0
DIMENSION
  8
1
 62
4
  6
CONTINUOUS
  2
*D110
 70
0
 10
131.860869565
 20
172.826086957
 11
131.860869565
 21
162.826086957
 14
139.860869565
 24
172.826086957
 13
143.060869565
 23
152.826086957
 50
90.000000000
  0
DIMENSION
  8
1
 62
4
  6
CONTINUOUS
  2
*D111
 70
0
 10
131.860869565
 20
192.926086957
 11
131.860869565
 21
182.876086957
 14
143.010869565
 24
192.926086957
 13
139.860869565
 23
172.826086957
 50
90.000000000
  0
TEXT
  8
1
 62
3
  6
CONTINUOUS
 72
5
 10
183.110869565
 20
96.620434992
 40
4.000000000
  1
ＲＡ－１００
 41
0.835205345
 11
206.310869565
 21
96.620434992
  0
ENDSEC
  0
EOF
