  0
SECTION
  2
HEADER
  9
$ACADVER
  1
AC1009
  9
$INSBASE
 10
0.000000000
 20
0.000000000
  9
$EXTMIN
 10
-22.620289855
 20
-20.335072464
  9
$EXTMAX
 10
248.823188405
 20
223.685797101
  9
$LIMMIN
 10
-22.620289855
 20
-20.335072464
  9
$LIMMAX
 10
248.823188405
 20
223.685797101
  9
$SNAPBASE
 10
0.000000000
 20
0.000000000
  9
$SNAPANG
 50
0.000000000
  9
$SNAPSTYLE
 70
0
  9
$GRIDMODE
 70
0
  9
$GRIDUNIT
 10
0.000000000
 20
0.000000000
  9
$DIMEXO
 40
0.000000000
  9
$DIMDLI
 40
8.000000000
  9
$DIMDLE
 40
0.000000000
  9
$DIMEXE
 40
1.000000000
  9
$DIMTIH
 70
1
  9
$DIMTOH
 70
1
  9
$DIMTAD
 70
2
  9
$DIMZIN
 70
0
  9
$FILLETRAD
 40
1.000000000
  9
$CHAMFERA
 40
1.000000000
  9
$CHAMFERB
 40
1.000000000
  9
$TDCREATE
 40
2454152.715740741
  9
$TDUPDATE
 40
2454152.715740741
  9
$ANGBASE
 50
0.000000000
  9
$ANGDIR
 70
0
  0
ENDSEC
  0
SECTION
  2
TABLES
  0
TABLE
  2
LTYPE
 70
3
  0
LTYPE
  2
CENTER
 70
64
  3
___ _ ___ _ __
 72
65
 73
4
 40
13.000000000
 49
8.500000000
 49
-1.500000000
 49
1.500000000
 49
-1.500000000
  0
LTYPE
  2
CONTINUOUS
 70
64
  3
______________
 72
65
 73
0
 40
0.000000000
  0
LTYPE
  2
DIVIDE
 70
64
  3
___ . . ___ . 
 72
65
 73
6
 40
12.999999523
 49
5.199999809
 49
-2.599999905
 49
0.000000000
 49
-2.599999905
 49
0.000000000
 49
-2.599999905
  0
ENDTAB
  0
TABLE
  2
LAYER
 70
1
  0
LAYER
  2
1
 70
0
 62
7
  6
CONTINUOUS
  0
LAYER
  2
_CONSTR
 70
0
 62
5
  6
CONTINUOUS
  0
ENDTAB
  0
TABLE
  2
STYLE
 70
1
  0
STYLE
  2
STANDARD
 70
64
 40
0.000000000
 41
1.000000000
 50
0.000000000
 71
0
 42
3.200000000
  3
TXT
  4
EXTFONT
  0
ENDTAB
  0
TABLE
  2
VIEW
 70
0
  0
ENDTAB
  0
ENDSEC
  0
SECTION
  2
BLOCKS
  0
BLOCK
  8
0
  2
*D47
 70
65
 10
0.000000000
 20
0.000000000
  3
*D
  0
TEXT
  8
1
 62
4
  6
CONTINUOUS
 72
5
 10
223.997898550
 20
165.587524638
 40
2.800000000
  1
φ
 41
1.270648030
 50
90.000000000
 11
223.997898550
 21
168.947524638
  0
TEXT
  8
1
 62
4
  6
CONTINUOUS
 72
5
 10
223.997898550
 20
170.627524638
 40
2.800000000
  1
30
 41
1.000000667
 50
90.000000000
 11
223.997898550
 21
174.827524638
  0
TEXT
  8
1
 62
4
  6
CONTINUOUS
 72
5
 10
222.233898550
 20
175.667524638
 40
1.400000000
  1
 0
 41
2.333335926
 50
90.000000000
 11
222.233898550
 21
178.607524638
  0
TEXT
  8
1
 62
4
  6
CONTINUOUS
 72
5
 10
224.375898550
 20
175.667524638
 40
1.400000000
  1
-0.01
 41
1.710000684
 50
90.000000000
 11
224.375898550
 21
183.647524638
  0
LINE
  8
1
 62
4
  6
CONTINUOUS
 10
201.002898550
 20
188.550724638
 11
228.202898550
 21
188.550724638
  0
POLYLINE
  8
1
 62
4
  6
CONTINUOUS
 66
1
  0
VERTEX
  8
1
 10
226.502898550
 20
186.550724638
  0
VERTEX
  8
1
 10
226.202898550
 20
188.550724638
  0
VERTEX
  8
1
 10
225.902898550
 20
186.550724638
  0
SEQEND
  8
1
  0
LINE
  8
1
 62
4
  6
CONTINUOUS
 10
226.202898550
 20
188.550724638
 11
226.202898550
 21
158.550724638
  0
POLYLINE
  8
1
 62
4
  6
CONTINUOUS
 66
1
  0
VERTEX
  8
1
 10
225.902898550
 20
160.550724638
  0
VERTEX
  8
1
 10
226.202898550
 20
158.550724638
  0
VERTEX
  8
1
 10
226.502898550
 20
160.550724638
  0
SEQEND
  8
1
  0
LINE
  8
1
 62
4
  6
CONTINUOUS
 10
201.002898550
 20
158.550724638
 11
228.202898550
 21
158.550724638
  0
ENDBLK
  8
0
  0
BLOCK
  8
0
  2
*D48
 70
65
 10
0.000000000
 20
0.000000000
  3
*D
  0
TEXT
  8
1
 62
4
  6
CONTINUOUS
 72
5
 10
89.997898551
 20
182.839124638
 40
2.800000000
  1
27.8
 41
1.099999267
 50
90.000000000
 11
89.997898551
 21
192.079124638
  0
POLYLINE
  8
1
 62
4
  6
CONTINUOUS
 66
1
  0
VERTEX
  8
1
 10
91.902898551
 20
175.550724638
  0
VERTEX
  8
1
 10
92.202898551
 20
173.550724638
  0
VERTEX
  8
1
 10
92.502898551
 20
175.550724638
  0
SEQEND
  8
1
  0
LINE
  8
1
 62
4
  6
CONTINUOUS
 10
92.202898551
 20
173.550724638
 11
92.202898551
 21
201.350724638
  0
POLYLINE
  8
1
 62
4
  6
CONTINUOUS
 66
1
  0
VERTEX
  8
1
 10
92.502898551
 20
199.350724638
  0
VERTEX
  8
1
 10
92.202898551
 20
201.350724638
  0
VERTEX
  8
1
 10
91.902898551
 20
199.350724638
  0
SEQEND
  8
1
  0
LINE
  8
1
 62
4
  6
CONTINUOUS
 10
106.302898551
 20
201.350724638
 11
90.202898551
 21
201.350724638
  0
ENDBLK
  8
0
  0
BLOCK
  8
0
  2
*D50
 70
65
 10
0.000000000
 20
0.000000000
  3
*D
  0
TEXT
  8
1
 62
4
  6
CONTINUOUS
 72
5
 10
89.997898551
 20
153.439124638
 40
2.800000000
  1
(
 41
1.800001800
 50
90.000000000
 11
89.997898551
 21
155.119124638
  0
TEXT
  8
1
 62
4
  6
CONTINUOUS
 72
5
 10
89.997898551
 20
155.959124638
 40
2.800000000
  1
31
 41
1.125000281
 50
90.000000000
 11
89.997898551
 21
160.159124638
  0
TEXT
  8
1
 62
4
  6
CONTINUOUS
 72
5
 10
89.997898551
 20
160.999124638
 40
2.800000000
  1
)
 41
1.800001800
 50
90.000000000
 11
89.997898551
 21
162.679124638
  0
LINE
  8
1
 62
4
  6
CONTINUOUS
 10
104.702898551
 20
142.550724638
 11
90.202898551
 21
142.550724638
  0
POLYLINE
  8
1
 62
4
  6
CONTINUOUS
 66
1
  0
VERTEX
  8
1
 10
91.902898551
 20
144.550724638
  0
VERTEX
  8
1
 10
92.202898551
 20
142.550724638
  0
VERTEX
  8
1
 10
92.502898551
 20
144.550724638
  0
SEQEND
  8
1
  0
LINE
  8
1
 62
4
  6
CONTINUOUS
 10
92.202898551
 20
142.550724638
 11
92.202898551
 21
173.550724638
  0
POLYLINE
  8
1
 62
4
  6
CONTINUOUS
 66
1
  0
VERTEX
  8
1
 10
92.502898551
 20
171.550724638
  0
VERTEX
  8
1
 10
92.202898551
 20
173.550724638
  0
VERTEX
  8
1
 10
91.902898551
 20
171.550724638
  0
SEQEND
  8
1
  0
LINE
  8
1
 62
4
  6
CONTINUOUS
 10
102.202898551
 20
173.550724638
 11
90.202898551
 21
173.550724638
  0
ENDBLK
  8
0
  0
BLOCK
  8
0
  2
*D53
 70
65
 10
0.000000000
 20
0.000000000
  3
*D
  0
TEXT
  8
1
 62
4
  6
CONTINUOUS
 72
5
 10
94.458043666
 20
109.384222023
 40
2.800000000
  1
φ
 41
1.270648030
 11
97.818043666
 21
109.384222023
  0
TEXT
  8
1
 62
4
  6
CONTINUOUS
 72
5
 10
99.498043666
 20
109.384222023
 40
2.800000000
  1
16.9
 41
1.237498917
 11
108.738043666
 21
109.384222023
  0
LINE
  8
1
 62
4
  6
CONTINUOUS
 10
110.752898551
 20
129.344285533
 11
110.752898551
 21
105.179222023
  0
POLYLINE
  8
1
 62
4
  6
CONTINUOUS
 66
1
  0
VERTEX
  8
1
 10
112.752898551
 20
107.479222023
  0
VERTEX
  8
1
 10
110.752898551
 20
107.179222023
  0
VERTEX
  8
1
 10
112.752898551
 20
106.879222023
  0
SEQEND
  8
1
  0
LINE
  8
1
 62
4
  6
CONTINUOUS
 10
110.752898551
 20
107.179222023
 11
127.652898551
 21
107.179222023
  0
POLYLINE
  8
1
 62
4
  6
CONTINUOUS
 66
1
  0
VERTEX
  8
1
 10
125.652898551
 20
106.879222023
  0
VERTEX
  8
1
 10
127.652898551
 20
107.179222023
  0
VERTEX
  8
1
 10
125.652898551
 20
107.479222023
  0
SEQEND
  8
1
  0
LINE
  8
1
 62
4
  6
CONTINUOUS
 10
127.652898551
 20
129.344285533
 11
127.652898551
 21
105.179222023
  0
POLYLINE
  8
1
 62
4
  6
CONTINUOUS
 66
1
  0
VERTEX
  8
1
 10
110.752898551
 20
107.179222023
  0
VERTEX
  8
1
 10
92.458043666
 20
107.179222023
  0
SEQEND
  8
1
  0
ENDBLK
  8
0
  0
BLOCK
  8
0
  2
*D54
 70
65
 10
0.000000000
 20
0.000000000
  3
*D
  0
TEXT
  8
1
 62
4
  6
CONTINUOUS
 72
5
 10
115.304412877
 20
155.355724638
 40
2.800000000
  1
φ
 41
1.270648030
 11
118.664412877
 21
155.355724638
  0
TEXT
  8
1
 62
4
  6
CONTINUOUS
 72
5
 10
120.344412877
 20
155.355724638
 40
2.800000000
  1
30
 41
1.000000667
 11
124.544412877
 21
155.355724638
  0
POLYLINE
  8
1
 62
4
  6
CONTINUOUS
 66
1
  0
VERTEX
  8
1
 10
106.202898551
 20
153.450724638
  0
VERTEX
  8
1
 10
104.202898551
 20
153.150724638
  0
VERTEX
  8
1
 10
106.202898551
 20
152.850724638
  0
SEQEND
  8
1
  0
LINE
  8
1
 62
4
  6
CONTINUOUS
 10
104.202898551
 20
153.150724638
 11
134.202898551
 21
153.150724638
  0
POLYLINE
  8
1
 62
4
  6
CONTINUOUS
 66
1
  0
VERTEX
  8
1
 10
132.202898551
 20
152.850724638
  0
VERTEX
  8
1
 10
134.202898551
 20
153.150724638
  0
VERTEX
  8
1
 10
132.202898551
 20
153.450724638
  0
SEQEND
  8
1
  0
ENDBLK
  8
0
  0
BLOCK
  8
0
  2
*D72
 70
65
 10
0.000000000
 20
0.000000000
  3
*D
  0
TEXT
  8
1
 62
4
  6
CONTINUOUS
 72
5
 10
89.997898551
 20
126.733373331
 40
2.800000000
  1
(
 41
1.800001800
 50
90.000000000
 11
89.997898551
 21
128.413373331
  0
TEXT
  8
1
 62
4
  6
CONTINUOUS
 72
5
 10
89.997898551
 20
129.253373331
 40
2.800000000
  1
17.4
 41
1.237498917
 50
90.000000000
 11
89.997898551
 21
138.493373331
  0
TEXT
  8
1
 62
4
  6
CONTINUOUS
 72
5
 10
89.997898551
 20
139.333373331
 40
2.800000000
  1
)
 41
1.800001800
 50
90.000000000
 11
89.997898551
 21
141.013373331
  0
LINE
  8
1
 62
4
  6
CONTINUOUS
 10
113.580248820
 20
125.179222023
 11
90.202898551
 21
125.179222023
  0
POLYLINE
  8
1
 62
4
  6
CONTINUOUS
 66
1
  0
VERTEX
  8
1
 10
91.902898551
 20
127.179222023
  0
VERTEX
  8
1
 10
92.202898551
 20
125.179222023
  0
VERTEX
  8
1
 10
92.502898551
 20
127.179222023
  0
SEQEND
  8
1
  0
LINE
  8
1
 62
4
  6
CONTINUOUS
 10
92.202898551
 20
125.179222023
 11
92.202898551
 21
142.550724638
  0
POLYLINE
  8
1
 62
4
  6
CONTINUOUS
 66
1
  0
VERTEX
  8
1
 10
92.502898551
 20
140.550724638
  0
VERTEX
  8
1
 10
92.202898551
 20
142.550724638
  0
VERTEX
  8
1
 10
91.902898551
 20
140.550724638
  0
SEQEND
  8
1
  0
LINE
  8
1
 62
4
  6
CONTINUOUS
 10
104.702898551
 20
142.550724638
 11
90.202898551
 21
142.550724638
  0
ENDBLK
  8
0
  0
BLOCK
  8
0
  2
*D76
 70
65
 10
0.000000000
 20
0.000000000
  3
*D
  0
TEXT
  8
1
 62
4
  6
CONTINUOUS
 72
5
 10
81.997898551
 20
156.133373331
 40
2.800000000
  1
(
 41
1.800001800
 50
90.000000000
 11
81.997898551
 21
157.813373331
  0
TEXT
  8
1
 62
4
  6
CONTINUOUS
 72
5
 10
81.997898551
 20
158.653373331
 40
2.800000000
  1
76.2
 41
1.099999267
 50
90.000000000
 11
81.997898551
 21
167.893373331
  0
TEXT
  8
1
 62
4
  6
CONTINUOUS
 72
5
 10
81.997898551
 20
168.733373331
 40
2.800000000
  1
)
 41
1.800001800
 50
90.000000000
 11
81.997898551
 21
170.413373331
  0
LINE
  8
1
 62
4
  6
CONTINUOUS
 10
113.580248820
 20
125.179222023
 11
82.202898551
 21
125.179222023
  0
POLYLINE
  8
1
 62
4
  6
CONTINUOUS
 66
1
  0
VERTEX
  8
1
 10
83.902898551
 20
127.179222023
  0
VERTEX
  8
1
 10
84.202898551
 20
125.179222023
  0
VERTEX
  8
1
 10
84.502898551
 20
127.179222023
  0
SEQEND
  8
1
  0
LINE
  8
1
 62
4
  6
CONTINUOUS
 10
84.202898551
 20
125.179222023
 11
84.202898551
 21
201.350724638
  0
POLYLINE
  8
1
 62
4
  6
CONTINUOUS
 66
1
  0
VERTEX
  8
1
 10
84.502898551
 20
199.350724638
  0
VERTEX
  8
1
 10
84.202898551
 20
201.350724638
  0
VERTEX
  8
1
 10
83.902898551
 20
199.350724638
  0
SEQEND
  8
1
  0
LINE
  8
1
 62
4
  6
CONTINUOUS
 10
106.302898551
 20
201.350724638
 11
82.202898551
 21
201.350724638
  0
ENDBLK
  8
0
  0
BLOCK
  8
0
  2
*D79
 70
65
 10
0.000000000
 20
0.000000000
  3
*D
  0
TEXT
  8
1
 62
4
  6
CONTINUOUS
 72
5
 10
170.111298550
 20
109.384222023
 40
2.800000000
  1
58
 41
0.899998740
 11
174.311298550
 21
109.384222023
  0
LINE
  8
1
 62
4
  6
CONTINUOUS
 10
143.202898550
 20
159.300724638
 11
143.202898550
 21
105.179222023
  0
POLYLINE
  8
1
 62
4
  6
CONTINUOUS
 66
1
  0
VERTEX
  8
1
 10
145.202898550
 20
107.479222023
  0
VERTEX
  8
1
 10
143.202898550
 20
107.179222023
  0
VERTEX
  8
1
 10
145.202898550
 20
106.879222023
  0
SEQEND
  8
1
  0
LINE
  8
1
 62
4
  6
CONTINUOUS
 10
143.202898550
 20
107.179222023
 11
201.202898550
 21
107.179222023
  0
POLYLINE
  8
1
 62
4
  6
CONTINUOUS
 66
1
  0
VERTEX
  8
1
 10
199.202898550
 20
106.879222023
  0
VERTEX
  8
1
 10
201.202898550
 20
107.179222023
  0
VERTEX
  8
1
 10
199.202898550
 20
107.479222023
  0
SEQEND
  8
1
  0
LINE
  8
1
 62
4
  6
CONTINUOUS
 10
201.202898550
 20
158.750724638
 11
201.202898550
 21
105.179222023
  0
ENDBLK
  8
0
  0
BLOCK
  8
0
  2
*D80
 70
65
 10
0.000000000
 20
0.000000000
  3
*D
  0
TEXT
  8
1
 62
4
  6
CONTINUOUS
 72
5
 10
164.611298551
 20
93.384222023
 40
2.800000000
  1
95
 41
0.899998740
 11
168.811298551
 21
93.384222023
  0
LINE
  8
1
 62
4
  6
CONTINUOUS
 10
119.202898551
 20
113.179222023
 11
119.202898551
 21
89.179222023
  0
POLYLINE
  8
1
 62
4
  6
CONTINUOUS
 66
1
  0
VERTEX
  8
1
 10
121.202898551
 20
91.479222023
  0
VERTEX
  8
1
 10
119.202898551
 20
91.179222023
  0
VERTEX
  8
1
 10
121.202898551
 20
90.879222023
  0
SEQEND
  8
1
  0
LINE
  8
1
 62
4
  6
CONTINUOUS
 10
119.202898551
 20
91.179222023
 11
214.202898550
 21
91.179222023
  0
POLYLINE
  8
1
 62
4
  6
CONTINUOUS
 66
1
  0
VERTEX
  8
1
 10
212.202898550
 20
90.879222023
  0
VERTEX
  8
1
 10
214.202898550
 20
91.179222023
  0
VERTEX
  8
1
 10
212.202898550
 20
91.479222023
  0
SEQEND
  8
1
  0
LINE
  8
1
 62
4
  6
CONTINUOUS
 10
214.202898550
 20
164.650724638
 11
214.202898550
 21
89.179222023
  0
ENDBLK
  8
0
  0
BLOCK
  8
0
  2
*D143
 70
65
 10
0.000000000
 20
0.000000000
  3
*D
  0
TEXT
  8
1
 62
4
  6
CONTINUOUS
 72
5
 10
203.091298550
 20
101.384222023
 40
2.800000000
  1
(
 41
1.800001800
 11
204.771298550
 21
101.384222023
  0
TEXT
  8
1
 62
4
  6
CONTINUOUS
 72
5
 10
205.611298550
 20
101.384222023
 40
2.800000000
  1
13
 41
1.124997750
 11
209.811298550
 21
101.384222023
  0
TEXT
  8
1
 62
4
  6
CONTINUOUS
 72
5
 10
210.651298550
 20
101.384222023
 40
2.800000000
  1
)
 41
1.800001800
 11
212.331298550
 21
101.384222023
  0
POLYLINE
  8
1
 62
4
  6
CONTINUOUS
 66
1
  0
VERTEX
  8
1
 10
203.202898550
 20
99.479222023
  0
VERTEX
  8
1
 10
201.202898550
 20
99.179222023
  0
VERTEX
  8
1
 10
203.202898550
 20
98.879222023
  0
SEQEND
  8
1
  0
LINE
  8
1
 62
4
  6
CONTINUOUS
 10
201.202898550
 20
99.179222023
 11
214.202898550
 21
99.179222023
  0
POLYLINE
  8
1
 62
4
  6
CONTINUOUS
 66
1
  0
VERTEX
  8
1
 10
212.202898550
 20
98.879222023
  0
VERTEX
  8
1
 10
214.202898550
 20
99.179222023
  0
VERTEX
  8
1
 10
212.202898550
 20
99.479222023
  0
SEQEND
  8
1
  0
LINE
  8
1
 62
4
  6
CONTINUOUS
 10
214.202898550
 20
164.650724638
 11
214.202898550
 21
97.179222023
  0
ENDBLK
  8
0
  0
BLOCK
  8
0
  2
*D145
 70
65
 10
0.000000000
 20
0.000000000
  3
*D
  0
TEXT
  8
1
 62
4
  6
CONTINUOUS
 72
5
 10
158.111298551
 20
101.384222023
 40
2.800000000
  1
82
 41
0.899998740
 11
162.311298551
 21
101.384222023
  0
LINE
  8
1
 62
4
  6
CONTINUOUS
 10
119.202898551
 20
113.179222023
 11
119.202898551
 21
97.179222023
  0
POLYLINE
  8
1
 62
4
  6
CONTINUOUS
 66
1
  0
VERTEX
  8
1
 10
121.202898551
 20
99.479222023
  0
VERTEX
  8
1
 10
119.202898551
 20
99.179222023
  0
VERTEX
  8
1
 10
121.202898551
 20
98.879222023
  0
SEQEND
  8
1
  0
LINE
  8
1
 62
4
  6
CONTINUOUS
 10
119.202898551
 20
99.179222023
 11
201.202898550
 21
99.179222023
  0
POLYLINE
  8
1
 62
4
  6
CONTINUOUS
 66
1
  0
VERTEX
  8
1
 10
199.202898550
 20
98.879222023
  0
VERTEX
  8
1
 10
201.202898550
 20
99.179222023
  0
VERTEX
  8
1
 10
199.202898550
 20
99.479222023
  0
SEQEND
  8
1
  0
LINE
  8
1
 62
4
  6
CONTINUOUS
 10
201.202898550
 20
158.750724638
 11
201.202898550
 21
97.179222023
  0
ENDBLK
  8
0
  0
ENDSEC
  0
SECTION
  2
ENTITIES
  0
LINE
  8
1
 62
7
  6
CONTINUOUS
 10
134.202898551
 20
159.300724638
 11
134.202898551
 21
147.250724638
  0
LINE
  8
1
 62
7
  6
CONTINUOUS
 10
133.902898551
 20
146.850724638
 11
134.002898551
 21
146.750724638
  0
LINE
  8
1
 62
7
  6
CONTINUOUS
 10
134.202898551
 20
192.350724638
 11
134.202898551
 21
187.800724638
  0
LINE
  8
1
 62
7
  6
CONTINUOUS
 10
104.302898551
 20
199.350724638
 11
106.302898551
 21
201.350724638
  0
LINE
  8
1
 62
1
  6
CENTER
 10
102.202898551
 20
173.550724638
 11
216.202898550
 21
173.550724638
  0
LINE
  8
1
 62
7
  6
CONTINUOUS
 10
132.102898551
 20
201.350724638
 11
134.102898551
 21
199.350724638
  0
LINE
  8
1
 62
7
  6
CONTINUOUS
 10
104.302898551
 20
192.350724638
 11
104.302898551
 21
199.350724638
  0
LINE
  8
1
 62
7
  6
CONTINUOUS
 10
110.752898551
 20
136.472115242
 11
127.652898551
 21
136.472115242
  0
LINE
  8
1
 62
7
  6
CONTINUOUS
 10
104.302898551
 20
199.350724638
 11
134.102898551
 21
199.350724638
  0
LINE
  8
1
 62
7
  6
CONTINUOUS
 10
123.686026481
 20
129.879222023
 11
123.936026481
 21
130.129222023
  0
LINE
  8
1
 62
4
  6
CONTINUOUS
 10
122.184508854
 20
141.750724638
 11
116.221288248
 21
138.750724638
  0
LINE
  8
1
 62
7
  6
CONTINUOUS
 10
112.602898551
 20
142.050724638
 11
112.602898551
 21
142.550724638
  0
LINE
  8
1
 62
7
  6
CONTINUOUS
 10
123.936026481
 20
132.629222023
 11
123.686026481
 21
132.879222023
  0
LINE
  8
1
 62
7
  6
CONTINUOUS
 10
110.752898551
 20
129.629222023
 11
127.652898551
 21
129.629222023
  0
LINE
  8
1
 62
7
  6
CONTINUOUS
 10
123.936026481
 20
130.129222023
 11
123.936026481
 21
132.629222023
  0
LINE
  8
1
 62
7
  6
CONTINUOUS
 10
123.936026481
 20
130.129222023
 11
126.202898551
 21
130.129222023
  0
LINE
  8
1
 62
7
  6
CONTINUOUS
 10
112.502898551
 20
137.679222023
 11
112.502898551
 21
142.050724638
  0
LINE
  8
1
 62
7
  6
CONTINUOUS
 10
110.752898551
 20
133.129222023
 11
127.652898551
 21
133.129222023
  0
LINE
  8
1
 62
7
  6
CONTINUOUS
 10
143.202898550
 20
159.300724638
 11
134.202898551
 21
159.300724638
  0
LINE
  8
1
 62
7
  6
CONTINUOUS
 10
111.002898551
 20
132.879222023
 11
127.402898551
 21
132.879222023
  0
LINE
  8
1
 62
7
  6
CONTINUOUS
 10
127.402898551
 20
132.879222023
 11
127.652898551
 21
133.129222023
  0
LINE
  8
1
 62
7
  6
CONTINUOUS
 10
104.202898551
 20
192.350724638
 11
104.202898551
 21
147.250724638
  0
LINE
  8
1
 62
1
  6
CENTER
 10
119.202898551
 20
113.179222023
 11
119.202898551
 21
203.350724638
  0
LINE
  8
1
 62
7
  6
CONTINUOUS
 10
110.752898551
 20
136.472115242
 11
110.752898551
 21
133.129222023
  0
LINE
  8
1
 62
7
  6
CONTINUOUS
 10
111.002898551
 20
132.879222023
 11
110.752898551
 21
133.129222023
  0
LINE
  8
1
 62
7
  6
CONTINUOUS
 10
143.202898550
 20
187.800724638
 11
143.202898550
 21
159.300724638
  0
LINE
  8
1
 62
7
  6
CONTINUOUS
 10
134.202898551
 20
187.800724638
 11
143.202898550
 21
187.800724638
  0
LINE
  8
1
 62
7
  6
CONTINUOUS
 10
120.702898551
 20
125.179222023
 11
120.702898551
 21
115.479222023
  0
LINE
  8
1
 62
7
  6
CONTINUOUS
 10
104.302898551
 20
192.350724638
 11
134.102898551
 21
192.350724638
  0
LINE
  8
1
 62
7
  6
CONTINUOUS
 10
132.102898551
 20
201.350724638
 11
106.302898551
 21
201.350724638
  0
LINE
  8
1
 62
7
  6
CONTINUOUS
 10
134.102898551
 20
192.350724638
 11
134.102898551
 21
199.350724638
  0
LINE
  8
1
 62
7
  6
CONTINUOUS
 10
134.202898551
 20
192.350724638
 11
104.202898551
 21
192.350724638
  0
LINE
  8
1
 62
7
  6
CONTINUOUS
 10
112.202898551
 20
129.879222023
 11
112.202898551
 21
132.879222023
  0
LINE
  8
1
 62
7
  6
CONTINUOUS
 10
125.691573685
 20
125.679222023
 11
127.518923954
 21
128.844285533
  0
LINE
  8
1
 62
7
  6
CONTINUOUS
 10
104.302898551
 20
147.150724638
 11
134.102898551
 21
147.150724638
  0
LINE
  8
1
 62
7
  6
CONTINUOUS
 10
104.202898551
 20
147.250724638
 11
104.302898551
 21
147.150724638
  0
LINE
  8
1
 62
7
  6
CONTINUOUS
 10
105.202898551
 20
147.150724638
 11
105.202898551
 21
146.850724638
  0
LINE
  8
1
 62
7
  6
CONTINUOUS
 10
127.652898551
 20
129.344285533
 11
127.652898551
 21
129.629222023
  0
LINE
  8
1
 62
7
  6
CONTINUOUS
 10
133.202898551
 20
147.150724638
 11
133.202898551
 21
146.850724638
  0
LINE
  8
1
 62
7
  6
CONTINUOUS
 10
134.202898551
 20
147.250724638
 11
134.102898551
 21
147.150724638
  0
ARC
  8
1
 62
7
  6
CONTINUOUS
 10
111.252898551
 20
136.472115242
 40
0.500000000
 50
135.000000000
 51
180.000000000
  0
LINE
  8
1
 62
7
  6
CONTINUOUS
 10
116.221288248
 20
138.750724638
 11
122.184508854
 21
138.750724638
  0
LINE
  8
1
 62
7
  6
CONTINUOUS
 10
111.399345160
 20
136.825668633
 11
127.006451941
 21
136.825668633
  0
LINE
  8
1
 62
7
  6
CONTINUOUS
 10
127.652898551
 20
133.129222023
 11
127.652898551
 21
136.472115242
  0
LINE
  8
1
 62
7
  6
CONTINUOUS
 10
113.580248820
 20
125.179222023
 11
124.825548282
 21
125.179222023
  0
TEXT
  8
1
 62
3
  6
CONTINUOUS
 72
5
 10
150.902898551
 20
77.195222023
 40
4.000000000
  1
ＲＡＸ－２７１Ｅ
 41
0.834724541
 11
182.102898551
 21
77.195222023
  0
TEXT
  8
1
 62
3
  6
CONTINUOUS
 72
5
 10
152.902898551
 20
70.795222023
 40
4.000000000
  1
ＲＡＸ－７０Ｅ
 41
0.834929522
 11
180.102898551
 21
70.795222023
  0
DIMENSION
  8
1
 62
4
  6
CONTINUOUS
  2
*D47
 70
1
 10
226.202898550
 20
158.550724638
 11
226.202898550
 21
173.550724638
 14
201.002898550
 24
158.550724638
 13
201.002898550
 23
188.550724638
 50
90.000000000
  0
DIMENSION
  8
1
 62
4
  6
CONTINUOUS
  2
*D48
 70
0
 10
92.202898551
 20
201.350724638
 11
92.202898551
 21
187.450724638
 14
106.302898551
 24
201.350724638
 13
102.202898551
 23
173.550724638
 50
90.000000000
  0
LINE
  8
1
 62
7
  6
CONTINUOUS
 10
116.221288248
 20
141.750724638
 11
122.184508854
 21
141.750724638
  0
DIMENSION
  8
1
 62
4
  6
CONTINUOUS
  2
*D50
 70
0
 10
92.202898551
 20
173.550724638
 11
92.202898551
 21
158.050724638
 14
102.202898551
 24
173.550724638
 13
104.702898551
 23
142.550724638
 50
90.000000000
  0
LINE
  8
1
 62
7
  6
CONTINUOUS
 10
112.106451941
 20
137.532775414
 11
126.299345160
 21
137.532775414
  0
LINE
  8
1
 62
7
  6
CONTINUOUS
 10
110.752898551
 20
129.629222023
 11
111.002898551
 21
129.879222023
  0
DIMENSION
  8
1
 62
4
  6
CONTINUOUS
  2
*D53
 70
1
 10
127.652898551
 20
107.179222023
 11
101.589643666
 21
107.179222023
 14
127.652898551
 24
129.344285533
 13
110.752898551
 23
129.344285533
 50
0.000000000
  0
DIMENSION
  8
1
 62
4
  6
CONTINUOUS
  2
*D54
 70
1
 10
134.202898551
 20
153.150724638
 11
119.916012877
 21
153.150724638
 14
134.202898551
 24
153.150724638
 13
104.202898551
 23
153.150724638
 50
0.000000000
  0
LINE
  8
1
 62
7
  6
CONTINUOUS
 10
118.002898551
 20
115.179222023
 11
120.402898551
 21
115.179222023
  0
ARC
  8
1
 62
7
  6
CONTINUOUS
 10
118.002898551
 20
115.479222023
 40
0.300000000
 50
180.000000000
 51
270.000000000
  0
ARC
  8
1
 62
7
  6
CONTINUOUS
 10
111.960005332
 20
137.179222023
 40
0.500000000
 50
90.000000000
 51
135.000000000
  0
LINE
  8
1
 62
7
  6
CONTINUOUS
 10
117.702898551
 20
115.479222023
 11
117.702898551
 21
125.179222023
  0
LINE
  8
1
 62
7
  6
CONTINUOUS
 10
112.714223416
 20
125.679222023
 11
110.886873147
 21
128.844285533
  0
ARC
  8
1
 62
7
  6
CONTINUOUS
 10
126.445791770
 20
137.179222023
 40
0.500000000
 50
45.000000000
 51
90.000000000
  0
LINE
  8
1
 62
7
  6
CONTINUOUS
 10
125.902898551
 20
137.679222023
 11
125.902898551
 21
142.050724638
  0
LINE
  8
1
 62
7
  6
CONTINUOUS
 10
127.506451941
 20
136.825668633
 11
126.799345160
 21
137.532775414
  0
LINE
  8
1
 62
7
  6
CONTINUOUS
 10
112.202898551
 20
130.129222023
 11
114.469770621
 21
130.129222023
  0
LINE
  8
1
 62
7
  6
CONTINUOUS
 10
123.936026481
 20
132.629222023
 11
126.202898551
 21
132.629222023
  0
LINE
  8
1
 62
7
  6
CONTINUOUS
 10
126.202898551
 20
129.879222023
 11
126.202898551
 21
132.879222023
  0
LINE
  8
1
 62
7
  6
CONTINUOUS
 10
125.802898551
 20
142.050724638
 11
125.802898551
 21
142.550724638
  0
LINE
  8
1
 62
7
  6
CONTINUOUS
 10
122.184508854
 20
141.750724638
 11
122.184508854
 21
138.750724638
  0
ARC
  8
1
 62
7
  6
CONTINUOUS
 10
127.152898551
 20
136.472115242
 40
0.500000000
 50
0.000000000
 51
45.000000000
  0
LINE
  8
1
 62
7
  6
CONTINUOUS
 10
125.902898551
 20
142.050724638
 11
112.502898551
 21
142.050724638
  0
ARC
  8
1
 62
7
  6
CONTINUOUS
 10
113.580248820
 20
126.179222023
 40
1.000000000
 50
210.000000000
 51
270.000000000
  0
LINE
  8
1
 62
7
  6
CONTINUOUS
 10
113.214223416
 20
125.679222023
 11
125.191573685
 21
125.679222023
  0
DIMENSION
  8
1
 62
4
  6
CONTINUOUS
  2
*D72
 70
0
 10
92.202898551
 20
142.550724638
 11
92.202898551
 21
133.864973331
 14
104.702898551
 24
142.550724638
 13
113.580248820
 23
125.179222023
 50
90.000000000
  0
ARC
  8
1
 62
7
  6
CONTINUOUS
 10
126.652898551
 20
129.344285533
 40
1.000000000
 50
330.000000000
 51
0.000000000
  0
ARC
  8
1
 62
7
  6
CONTINUOUS
 10
124.825548282
 20
126.179222023
 40
1.000000000
 50
270.000000000
 51
330.000000000
  0
LINE
  8
1
 62
7
  6
CONTINUOUS
 10
116.221288248
 20
141.750724638
 11
116.221288248
 21
138.750724638
  0
DIMENSION
  8
1
 62
4
  6
CONTINUOUS
  2
*D76
 70
0
 10
84.202898551
 20
201.350724638
 11
84.202898551
 21
163.264973331
 14
106.302898551
 24
201.350724638
 13
113.580248820
 23
125.179222023
 50
90.000000000
  0
LINE
  8
1
 62
7
  6
CONTINUOUS
 10
144.202898550
 20
188.550724638
 11
144.202898550
 21
158.550724638
  0
LINE
  8
1
 62
7
  6
CONTINUOUS
 10
127.652898551
 20
129.629222023
 11
127.402898551
 21
129.879222023
  0
DIMENSION
  8
1
 62
4
  6
CONTINUOUS
  2
*D79
 70
0
 10
201.202898550
 20
107.179222023
 11
172.202898550
 21
107.179222023
 14
201.202898550
 24
158.750724638
 13
143.202898550
 23
159.300724638
 50
0.000000000
  0
DIMENSION
  8
1
 62
4
  6
CONTINUOUS
  2
*D80
 70
0
 10
214.202898550
 20
91.179222023
 11
166.702898551
 21
91.179222023
 14
214.202898550
 24
164.650724638
 13
119.202898551
 23
113.179222023
 50
0.000000000
  0
LINE
  8
1
 62
7
  6
CONTINUOUS
 10
110.752898551
 20
129.344285533
 11
110.752898551
 21
129.629222023
  0
LINE
  8
1
 62
7
  6
CONTINUOUS
 10
212.802898550
 20
164.400724638
 11
212.802898550
 21
182.700724638
  0
ARC
  8
1
 62
7
  6
CONTINUOUS
 10
120.402898551
 20
115.479222023
 40
0.300000000
 50
270.000000000
 51
0.000000000
  0
LINE
  8
1
 62
7
  6
CONTINUOUS
 10
207.002898550
 20
163.650724638
 11
207.002898550
 21
183.450724638
  0
LINE
  8
1
 62
7
  6
CONTINUOUS
 10
212.052898550
 20
163.650724638
 11
212.052898550
 21
183.450724638
  0
LINE
  8
1
 62
7
  6
CONTINUOUS
 10
206.652898550
 20
163.300724638
 11
206.652898550
 21
183.800724638
  0
ARC
  8
1
 62
7
  6
CONTINUOUS
 10
150.954187245
 20
173.550724638
 40
25.114736710
 50
344.909814821
 51
15.090185179
  0
LINE
  8
1
 62
7
  6
CONTINUOUS
 10
110.752898551
 20
129.344285533
 11
127.652898551
 21
129.344285533
  0
ARC
  8
1
 62
7
  6
CONTINUOUS
 10
195.951609856
 20
173.550724638
 40
25.114736710
 50
164.909814821
 51
195.090185179
  0
LINE
  8
1
 62
7
  6
CONTINUOUS
 10
175.202898550
 20
180.089073053
 11
175.202898550
 21
167.012376222
  0
LINE
  8
1
 62
4
  6
CONTINUOUS
 10
116.221288248
 20
141.750724638
 11
122.184508854
 21
138.750724638
  0
LINE
  8
1
 62
7
  6
CONTINUOUS
 10
171.702898550
 20
180.089073053
 11
171.702898550
 21
167.012376222
  0
LINE
  8
1
 62
7
  6
CONTINUOUS
 10
171.702898550
 20
167.012376222
 11
175.202898550
 21
167.012376222
  0
LINE
  8
1
 62
7
  6
CONTINUOUS
 10
171.702898550
 20
180.089073053
 11
175.202898550
 21
180.089073053
  0
LINE
  8
1
 62
7
  6
CONTINUOUS
 10
202.102898550
 20
163.300724638
 11
206.652898550
 21
163.300724638
  0
LINE
  8
1
 62
7
  6
CONTINUOUS
 10
104.502898551
 20
146.850724638
 11
104.402898551
 21
146.750724638
  0
LINE
  8
1
 62
4
  6
CONTINUOUS
 10
114.719770621
 20
129.879222023
 11
123.686026481
 21
132.879222023
  0
LINE
  8
1
 62
1
  6
CONTINUOUS
 10
212.652898550
 20
164.250724638
 11
208.002898550
 21
164.250724638
  0
LINE
  8
1
 62
1
  6
CONTINUOUS
 10
208.002898550
 20
164.250724638
 11
207.002898550
 21
163.650724638
  0
LINE
  8
1
 62
4
  6
CONTINUOUS
 10
114.719770621
 20
132.879222023
 11
123.686026481
 21
129.879222023
  0
LINE
  8
1
 62
7
  6
CONTINUOUS
 10
111.386873147
 20
128.844285533
 11
127.018923954
 21
128.844285533
  0
LINE
  8
1
 62
7
  6
CONTINUOUS
 10
213.952898550
 20
164.400724638
 11
214.202898550
 21
164.650724638
  0
LINE
  8
1
 62
7
  6
CONTINUOUS
 10
206.652898550
 20
163.300724638
 11
207.002898550
 21
163.650724638
  0
LINE
  8
1
 62
7
  6
CONTINUOUS
 10
207.002898550
 20
163.650724638
 11
212.052898550
 21
163.650724638
  0
LINE
  8
1
 62
7
  6
CONTINUOUS
 10
212.052898550
 20
163.650724638
 11
212.802898550
 21
164.400724638
  0
LINE
  8
1
 62
7
  6
CONTINUOUS
 10
201.202898550
 20
183.650724638
 11
202.102898550
 21
183.650724638
  0
LINE
  8
1
 62
7
  6
CONTINUOUS
 10
202.102898550
 20
163.300724638
 11
202.102898550
 21
183.800724638
  0
LINE
  8
1
 62
7
  6
CONTINUOUS
 10
114.719770621
 20
129.879222023
 11
114.469770621
 21
130.129222023
  0
LINE
  8
1
 62
7
  6
CONTINUOUS
 10
213.952898550
 20
182.700724638
 11
212.802898550
 21
182.700724638
  0
LINE
  8
1
 62
7
  6
CONTINUOUS
 10
212.052898550
 20
183.450724638
 11
212.802898550
 21
182.700724638
  0
LINE
  8
1
 62
7
  6
CONTINUOUS
 10
213.952898550
 20
164.400724638
 11
212.802898550
 21
164.400724638
  0
LINE
  8
1
 62
7
  6
CONTINUOUS
 10
144.202898550
 20
158.550724638
 11
201.002898550
 21
158.550724638
  0
LINE
  8
1
 62
7
  6
CONTINUOUS
 10
144.202898550
 20
188.550724638
 11
201.002898550
 21
188.550724638
  0
LINE
  8
1
 62
7
  6
CONTINUOUS
 10
126.445791770
 20
137.679222023
 11
111.960005332
 21
137.679222023
  0
LINE
  8
1
 62
7
  6
CONTINUOUS
 10
133.702898551
 20
142.550724638
 11
134.002898551
 21
142.850724638
  0
LINE
  8
1
 62
7
  6
CONTINUOUS
 10
201.202898550
 20
163.450724638
 11
202.102898550
 21
163.450724638
  0
LINE
  8
1
 62
7
  6
CONTINUOUS
 10
143.202898550
 20
187.550724638
 11
144.202898550
 21
188.550724638
  0
LINE
  8
1
 62
7
  6
CONTINUOUS
 10
114.469770621
 20
130.129222023
 11
114.469770621
 21
132.629222023
  0
LINE
  8
1
 62
7
  6
CONTINUOUS
 10
111.002898551
 20
129.879222023
 11
127.402898551
 21
129.879222023
  0
LINE
  8
1
 62
7
  6
CONTINUOUS
 10
104.402898551
 20
146.750724638
 11
104.402898551
 21
142.850724638
  0
ARC
  8
1
 62
7
  6
CONTINUOUS
 10
111.752898551
 20
129.344285533
 40
1.000000000
 50
180.000000000
 51
210.000000000
  0
LINE
  8
1
 62
7
  6
CONTINUOUS
 10
114.469770621
 20
132.629222023
 11
114.719770621
 21
132.879222023
  0
LINE
  8
1
 62
7
  6
CONTINUOUS
 10
112.202898551
 20
132.629222023
 11
114.469770621
 21
132.629222023
  0
LINE
  8
1
 62
7
  6
CONTINUOUS
 10
201.202898550
 20
158.750724638
 11
201.202898550
 21
188.350724638
  0
LINE
  8
1
 62
7
  6
CONTINUOUS
 10
134.002898551
 20
146.750724638
 11
134.002898551
 21
142.850724638
  0
LINE
  8
1
 62
7
  6
CONTINUOUS
 10
104.702898551
 20
142.550724638
 11
133.702898551
 21
142.550724638
  0
LINE
  8
1
 62
7
  6
CONTINUOUS
 10
208.002898550
 20
163.650724638
 11
208.002898550
 21
183.450724638
  0
LINE
  8
1
 62
7
  6
CONTINUOUS
 10
104.702898551
 20
142.550724638
 11
104.402898551
 21
142.850724638
  0
LINE
  8
1
 62
7
  6
CONTINUOUS
 10
133.902898551
 20
146.850724638
 11
104.502898551
 21
146.850724638
  0
LINE
  8
1
 62
7
  6
CONTINUOUS
 10
214.202898550
 20
164.650724638
 11
214.202898550
 21
182.450724638
  0
LINE
  8
1
 62
7
  6
CONTINUOUS
 10
207.002898550
 20
183.450724638
 11
212.052898550
 21
183.450724638
  0
LINE
  8
1
 62
7
  6
CONTINUOUS
 10
206.652898550
 20
183.800724638
 11
207.002898550
 21
183.450724638
  0
LINE
  8
1
 62
7
  6
CONTINUOUS
 10
213.952898550
 20
182.700724638
 11
214.202898550
 21
182.450724638
  0
LINE
  8
1
 62
1
  6
CONTINUOUS
 10
208.002898550
 20
182.850724638
 11
207.002898550
 21
183.450724638
  0
LINE
  8
1
 62
7
  6
CONTINUOUS
 10
201.202898550
 20
158.750724638
 11
201.002898550
 21
158.550724638
  0
LINE
  8
1
 62
1
  6
CONTINUOUS
 10
212.652898550
 20
182.850724638
 11
208.002898550
 21
182.850724638
  0
LINE
  8
1
 62
7
  6
CONTINUOUS
 10
201.202898550
 20
188.350724638
 11
201.002898550
 21
188.550724638
  0
LINE
  8
1
 62
4
  6
CONTINUOUS
 10
171.702898550
 20
180.089073053
 11
175.202898550
 21
167.012376222
  0
LINE
  8
1
 62
7
  6
CONTINUOUS
 10
202.102898550
 20
183.800724638
 11
206.652898550
 21
183.800724638
  0
LINE
  8
1
 62
4
  6
CONTINUOUS
 10
175.202898550
 20
180.089073053
 11
171.702898550
 21
167.012376222
  0
LINE
  8
1
 62
7
  6
CONTINUOUS
 10
144.202898550
 20
158.550724638
 11
143.202898550
 21
159.550724638
  0
LINE
  8
1
 62
7
  6
CONTINUOUS
 10
143.202898550
 20
187.550724638
 11
143.202898550
 21
159.550724638
  0
DIMENSION
  8
1
 62
4
  6
CONTINUOUS
  2
*D143
 70
0
 10
214.202898550
 20
99.179222023
 11
207.702898550
 21
99.179222023
 14
214.202898550
 24
164.650724638
 13
201.202898550
 23
158.750724638
 50
0.000000000
  0
ARC
  8
1
 62
7
  6
CONTINUOUS
 10
138.886647050
 20
173.550724638
 40
15.000000000
 50
108.194872339
 51
251.805127661
  0
DIMENSION
  8
1
 62
4
  6
CONTINUOUS
  2
*D145
 70
0
 10
201.202898550
 20
99.179222023
 11
160.202898551
 21
99.179222023
 14
201.202898550
 24
158.750724638
 13
119.202898551
 23
113.179222023
 50
0.000000000
  0
LINE
  8
1
 62
7
  6
CONTINUOUS
 10
111.606451941
 20
137.532775414
 11
110.899345160
 21
136.825668633
  0
ENDSEC
  0
EOF
