  0
SECTION
  2
HEADER
  9
$ACADVER
  1
AC1009
  9
$INSBASE
 10
0.000000000
 20
0.000000000
  9
$EXTMIN
 10
-28.776594203
 20
-21.097173913
  9
$EXTMAX
 10
316.542536232
 20
232.068913043
  9
$LIMMIN
 10
-28.776594203
 20
-21.097173913
  9
$LIMMAX
 10
316.542536232
 20
232.068913043
  9
$SNAPBASE
 10
0.000000000
 20
0.000000000
  9
$SNAPANG
 50
0.000000000
  9
$SNAPSTYLE
 70
0
  9
$GRIDMODE
 70
0
  9
$GRIDUNIT
 10
0.000000000
 20
0.000000000
  9
$DIMEXO
 40
0.000000000
  9
$DIMDLI
 40
8.000000000
  9
$DIMDLE
 40
0.000000000
  9
$DIMEXE
 40
1.000000000
  9
$DIMTIH
 70
1
  9
$DIMTOH
 70
1
  9
$DIMTAD
 70
2
  9
$DIMZIN
 70
0
  9
$FILLETRAD
 40
1.000000000
  9
$CHAMFERA
 40
1.000000000
  9
$CHAMFERB
 40
1.000000000
  9
$TDCREATE
 40
2454152.715960648
  9
$TDUPDATE
 40
2454152.715960648
  9
$ANGBASE
 50
0.000000000
  9
$ANGDIR
 70
0
  0
ENDSEC
  0
SECTION
  2
TABLES
  0
TABLE
  2
LTYPE
 70
3
  0
LTYPE
  2
CENTER
 70
64
  3
___ _ ___ _ __
 72
65
 73
4
 40
13.000000000
 49
8.500000000
 49
-1.500000000
 49
1.500000000
 49
-1.500000000
  0
LTYPE
  2
CONTINUOUS
 70
64
  3
______________
 72
65
 73
0
 40
0.000000000
  0
LTYPE
  2
DIVIDE
 70
64
  3
___ . . ___ . 
 72
65
 73
6
 40
12.999999523
 49
5.199999809
 49
-2.599999905
 49
0.000000000
 49
-2.599999905
 49
0.000000000
 49
-2.599999905
  0
ENDTAB
  0
TABLE
  2
LAYER
 70
2
  0
LAYER
  2
1
 70
0
 62
7
  6
CONTINUOUS
  0
LAYER
  2
8
 70
0
 62
7
  6
CONTINUOUS
999
CSLAYER8
  0
LAYER
  2
_CONSTR
 70
0
 62
5
  6
CONTINUOUS
  0
ENDTAB
  0
TABLE
  2
STYLE
 70
1
  0
STYLE
  2
STANDARD
 70
64
 40
0.000000000
 41
1.000000000
 50
0.000000000
 71
0
 42
3.200000000
  3
TXT
  4
EXTFONT
  0
ENDTAB
  0
TABLE
  2
VIEW
 70
0
  0
ENDTAB
  0
ENDSEC
  0
SECTION
  2
BLOCKS
  0
BLOCK
  8
0
  2
blk71
 70
64
 10
0.000000000
 20
0.000000000
  3
blk71
  0
ARC
  8
1
 62
7
  6
CONTINUOUS
 10
0.000000000
 20
0.000000000
 40
1.000000000
 50
0.000000000
 51
180.000000000
  0
ENDBLK
  8
0
  0
BLOCK
  8
0
  2
blk72
 70
64
 10
0.000000000
 20
0.000000000
  3
blk72
  0
ARC
  8
1
 62
7
  6
CONTINUOUS
 10
0.000000000
 20
0.000000000
 40
1.000000000
 50
0.000000000
 51
180.000000000
  0
ENDBLK
  8
0
  0
BLOCK
  8
0
  2
*D133
 70
65
 10
0.000000000
 20
0.000000000
  3
*D
  0
TEXT
  8
1
 62
4
  6
CONTINUOUS
 72
5
 10
154.324342029
 20
115.726739130
 40
2.800000000
  1
(
 41
1.800001800
 11
156.004342029
 21
115.726739130
  0
TEXT
  8
1
 62
4
  6
CONTINUOUS
 72
5
 10
156.844342029
 20
115.726739130
 40
2.800000000
  1
126.2
 41
1.145453817
 11
168.604342029
 21
115.726739130
  0
TEXT
  8
1
 62
4
  6
CONTINUOUS
 72
5
 10
169.444342029
 20
115.726739130
 40
2.800000000
  1
)
 41
1.800001800
 11
171.124342029
 21
115.726739130
  0
LINE
  8
1
 62
4
  6
CONTINUOUS
 10
99.615942029
 20
141.621739130
 11
99.615942029
 21
111.521739130
  0
POLYLINE
  8
1
 62
4
  6
CONTINUOUS
 66
1
  0
VERTEX
  8
1
 10
101.615942029
 20
113.821739130
  0
VERTEX
  8
1
 10
99.615942029
 20
113.521739130
  0
VERTEX
  8
1
 10
101.615942029
 20
113.221739130
  0
SEQEND
  8
1
  0
LINE
  8
1
 62
4
  6
CONTINUOUS
 10
99.615942029
 20
113.521739130
 11
225.815942029
 21
113.521739130
  0
POLYLINE
  8
1
 62
4
  6
CONTINUOUS
 66
1
  0
VERTEX
  8
1
 10
223.815942029
 20
113.221739130
  0
VERTEX
  8
1
 10
225.815942029
 20
113.521739130
  0
VERTEX
  8
1
 10
223.815942029
 20
113.821739130
  0
SEQEND
  8
1
  0
LINE
  8
1
 62
4
  6
CONTINUOUS
 10
225.815942029
 20
147.571739130
 11
225.815942029
 21
111.521739130
  0
ENDBLK
  8
0
  0
BLOCK
  8
0
  2
*D134
 70
65
 10
0.000000000
 20
0.000000000
  3
*D
  0
TEXT
  8
1
 62
4
  6
CONTINUOUS
 72
5
 10
141.754342029
 20
123.726739130
 40
2.800000000
  1
93.5
 41
1.099999267
 11
150.994342029
 21
123.726739130
  0
LINE
  8
1
 62
4
  6
CONTINUOUS
 10
99.615942029
 20
141.621739130
 11
99.615942029
 21
119.521739130
  0
POLYLINE
  8
1
 62
4
  6
CONTINUOUS
 66
1
  0
VERTEX
  8
1
 10
101.615942029
 20
121.821739130
  0
VERTEX
  8
1
 10
99.615942029
 20
121.521739130
  0
VERTEX
  8
1
 10
101.615942029
 20
121.221739130
  0
SEQEND
  8
1
  0
LINE
  8
1
 62
4
  6
CONTINUOUS
 10
99.615942029
 20
121.521739130
 11
193.115942029
 21
121.521739130
  0
POLYLINE
  8
1
 62
4
  6
CONTINUOUS
 66
1
  0
VERTEX
  8
1
 10
191.115942029
 20
121.221739130
  0
VERTEX
  8
1
 10
193.115942029
 20
121.521739130
  0
VERTEX
  8
1
 10
191.115942029
 20
121.821739130
  0
SEQEND
  8
1
  0
LINE
  8
1
 62
4
  6
CONTINUOUS
 10
193.115942029
 20
141.621739130
 11
193.115942029
 21
119.521739130
  0
ENDBLK
  8
0
  0
BLOCK
  8
0
  2
*D135
 70
65
 10
0.000000000
 20
0.000000000
  3
*D
  0
TEXT
  8
1
 62
4
  6
CONTINUOUS
 72
5
 10
202.334342029
 20
123.726739130
 40
2.800000000
  1
(
 41
1.800001800
 11
204.014342029
 21
123.726739130
  0
TEXT
  8
1
 62
4
  6
CONTINUOUS
 72
5
 10
204.854342029
 20
123.726739130
 40
2.800000000
  1
32.7
 41
1.099999267
 11
214.094342029
 21
123.726739130
  0
TEXT
  8
1
 62
4
  6
CONTINUOUS
 72
5
 10
214.934342029
 20
123.726739130
 40
2.800000000
  1
)
 41
1.800001800
 11
216.614342029
 21
123.726739130
  0
POLYLINE
  8
1
 62
4
  6
CONTINUOUS
 66
1
  0
VERTEX
  8
1
 10
195.115942029
 20
121.821739130
  0
VERTEX
  8
1
 10
193.115942029
 20
121.521739130
  0
VERTEX
  8
1
 10
195.115942029
 20
121.221739130
  0
SEQEND
  8
1
  0
LINE
  8
1
 62
4
  6
CONTINUOUS
 10
193.115942029
 20
121.521739130
 11
225.815942029
 21
121.521739130
  0
POLYLINE
  8
1
 62
4
  6
CONTINUOUS
 66
1
  0
VERTEX
  8
1
 10
223.815942029
 20
121.221739130
  0
VERTEX
  8
1
 10
225.815942029
 20
121.521739130
  0
VERTEX
  8
1
 10
223.815942029
 20
121.821739130
  0
SEQEND
  8
1
  0
LINE
  8
1
 62
4
  6
CONTINUOUS
 10
225.815942029
 20
147.571739130
 11
225.815942029
 21
119.521739130
  0
ENDBLK
  8
0
  0
BLOCK
  8
0
  2
*D137
 70
65
 10
0.000000000
 20
0.000000000
  3
*D
  0
TEXT
  8
1
 62
4
  6
CONTINUOUS
 72
5
 10
85.410942029
 20
148.558539130
 40
2.800000000
  1
φ
 41
1.270648030
 50
90.000000000
 11
85.410942029
 21
151.918539130
  0
TEXT
  8
1
 62
4
  6
CONTINUOUS
 72
5
 10
85.410942029
 20
153.598539130
 40
2.800000000
  1
30
 41
1.000000667
 50
90.000000000
 11
85.410942029
 21
157.798539130
  0
TEXT
  8
1
 62
4
  6
CONTINUOUS
 72
5
 10
83.646942029
 20
158.638539130
 40
1.400000000
  1
-0.01
 41
1.710000684
 50
90.000000000
 11
83.646942029
 21
166.618539130
  0
TEXT
  8
1
 62
4
  6
CONTINUOUS
 72
5
 10
85.788942029
 20
158.638539130
 40
1.400000000
  1
-0.02
 41
1.554544889
 50
90.000000000
 11
85.788942029
 21
166.618539130
  0
LINE
  8
1
 62
4
  6
CONTINUOUS
 10
99.715942029
 20
171.521739130
 11
85.615942029
 21
171.521739130
  0
POLYLINE
  8
1
 62
4
  6
CONTINUOUS
 66
1
  0
VERTEX
  8
1
 10
87.915942029
 20
169.521739130
  0
VERTEX
  8
1
 10
87.615942029
 20
171.521739130
  0
VERTEX
  8
1
 10
87.315942029
 20
169.521739130
  0
SEQEND
  8
1
  0
LINE
  8
1
 62
4
  6
CONTINUOUS
 10
87.615942029
 20
171.521739130
 11
87.615942029
 21
141.521739130
  0
POLYLINE
  8
1
 62
4
  6
CONTINUOUS
 66
1
  0
VERTEX
  8
1
 10
87.315942029
 20
143.521739130
  0
VERTEX
  8
1
 10
87.615942029
 20
141.521739130
  0
VERTEX
  8
1
 10
87.915942029
 20
143.521739130
  0
SEQEND
  8
1
  0
LINE
  8
1
 62
4
  6
CONTINUOUS
 10
99.715942029
 20
141.521739130
 11
85.615942029
 21
141.521739130
  0
ENDBLK
  8
0
  0
BLOCK
  8
0
  2
*D162
 70
65
 10
0.000000000
 20
0.000000000
  3
*D
  0
TEXT
  8
1
 62
4
  6
CONTINUOUS
 72
5
 10
235.610942029
 20
150.640139130
 40
2.800000000
  1
(
 41
1.800001800
 50
90.000000000
 11
235.610942029
 21
152.320139130
  0
TEXT
  8
1
 62
4
  6
CONTINUOUS
 72
5
 10
235.610942029
 20
153.160139130
 40
2.800000000
  1
22.4
 41
1.099999267
 50
90.000000000
 11
235.610942029
 21
162.400139130
  0
TEXT
  8
1
 62
4
  6
CONTINUOUS
 72
5
 10
235.610942029
 20
163.240139130
 40
2.800000000
  1
)
 41
1.800001800
 50
90.000000000
 11
235.610942029
 21
164.920139130
  0
LINE
  8
1
 62
4
  6
CONTINUOUS
 10
224.815942029
 20
146.571739130
 11
239.815942029
 21
146.571739130
  0
POLYLINE
  8
1
 62
4
  6
CONTINUOUS
 66
1
  0
VERTEX
  8
1
 10
237.515942029
 20
148.571739130
  0
VERTEX
  8
1
 10
237.815942029
 20
146.571739130
  0
VERTEX
  8
1
 10
238.115942029
 20
148.571739130
  0
SEQEND
  8
1
  0
LINE
  8
1
 62
4
  6
CONTINUOUS
 10
237.815942029
 20
146.571739130
 11
237.815942029
 21
168.971739130
  0
POLYLINE
  8
1
 62
4
  6
CONTINUOUS
 66
1
  0
VERTEX
  8
1
 10
238.115942029
 20
166.971739130
  0
VERTEX
  8
1
 10
237.815942029
 20
168.971739130
  0
VERTEX
  8
1
 10
237.515942029
 20
166.971739130
  0
SEQEND
  8
1
  0
LINE
  8
1
 62
4
  6
CONTINUOUS
 10
224.815942029
 20
168.971739130
 11
239.815942029
 21
168.971739130
  0
ENDBLK
  8
0
  0
BLOCK
  8
0
  2
*D173
 70
65
 10
0.000000000
 20
0.000000000
  3
*D
  0
TEXT
  8
1
 62
4
  6
CONTINUOUS
 72
5
 10
235.610942029
 20
170.860139130
 40
2.800000000
  1
(
 41
1.800001800
 50
90.000000000
 11
235.610942029
 21
172.540139130
  0
TEXT
  8
1
 62
4
  6
CONTINUOUS
 72
5
 10
235.610942029
 20
173.380139130
 40
2.800000000
  1
13
 41
1.124997750
 50
90.000000000
 11
235.610942029
 21
177.580139130
  0
TEXT
  8
1
 62
4
  6
CONTINUOUS
 72
5
 10
235.610942029
 20
178.420139130
 40
2.800000000
  1
)
 41
1.800001800
 50
90.000000000
 11
235.610942029
 21
180.100139130
  0
LINE
  8
1
 62
4
  6
CONTINUOUS
 10
224.815942029
 20
168.971739130
 11
239.815942029
 21
168.971739130
  0
POLYLINE
  8
1
 62
4
  6
CONTINUOUS
 66
1
  0
VERTEX
  8
1
 10
237.515942029
 20
170.971739130
  0
VERTEX
  8
1
 10
237.815942029
 20
168.971739130
  0
VERTEX
  8
1
 10
238.115942029
 20
170.971739130
  0
SEQEND
  8
1
  0
LINE
  8
1
 62
4
  6
CONTINUOUS
 10
237.815942029
 20
168.971739130
 11
237.815942029
 21
181.971739130
  0
POLYLINE
  8
1
 62
4
  6
CONTINUOUS
 66
1
  0
VERTEX
  8
1
 10
238.115942029
 20
179.971739130
  0
VERTEX
  8
1
 10
237.815942029
 20
181.971739130
  0
VERTEX
  8
1
 10
237.515942029
 20
179.971739130
  0
SEQEND
  8
1
  0
LINE
  8
1
 62
4
  6
CONTINUOUS
 10
223.815942029
 20
181.971739130
 11
239.815942029
 21
181.971739130
  0
ENDBLK
  8
0
  0
ENDSEC
  0
SECTION
  2
ENTITIES
  0
LINE
  8
1
 62
7
  6
CONTINUOUS
 10
193.015942029
 20
171.521739130
 11
193.115942029
 21
171.421739130
  0
LINE
  8
8
 62
1
  6
CENTER
 10
97.615942029
 20
156.521739130
 11
227.815942029
 21
156.521739130
  0
LINE
  8
1
 62
7
  6
CONTINUOUS
 10
99.715942029
 20
171.521739130
 11
193.015942029
 21
171.521739130
  0
LINE
  8
1
 62
7
  6
CONTINUOUS
 10
99.615942029
 20
171.421739130
 11
99.715942029
 21
171.521739130
  0
LINE
  8
1
 62
7
  6
CONTINUOUS
 10
193.115942029
 20
171.421739130
 11
193.115942029
 21
141.621739130
  0
LINE
  8
1
 62
7
  6
CONTINUOUS
 10
193.015942029
 20
141.521739130
 11
193.115942029
 21
141.621739130
  0
LINE
  8
1
 62
7
  6
CONTINUOUS
 10
267.869789606
 20
181.471739130
 11
269.315942029
 21
181.471739130
  0
LINE
  8
1
 62
4
  6
CONTINUOUS
 10
131.615942029
 20
163.060087546
 11
135.115942029
 21
149.983390715
  0
LINE
  8
1
 62
7
  6
CONTINUOUS
 10
99.615942029
 20
171.421739130
 11
99.615942029
 21
141.621739130
  0
LINE
  8
1
 62
4
  6
CONTINUOUS
 10
135.115942029
 20
163.060087546
 11
131.615942029
 21
149.983390715
  0
LINE
  8
1
 62
7
  6
CONTINUOUS
 10
99.715942029
 20
141.521739130
 11
193.015942029
 21
141.521739130
  0
LINE
  8
1
 62
7
  6
CONTINUOUS
 10
99.615942029
 20
141.621739130
 11
99.715942029
 21
141.521739130
  0
ARC
  8
1
 62
7
  6
CONTINUOUS
 10
266.665034214
 20
180.270303575
 40
1.701435555
 50
44.920948698
 51
135.079051302
  0
LINE
  8
1
 62
7
  6
CONTINUOUS
 10
265.315942029
 20
181.471739130
 11
265.460278822
 21
181.471739130
  0
LINE
  8
1
 62
7
  6
CONTINUOUS
 10
265.315942029
 20
178.171739130
 11
265.460278822
 21
178.171739130
  0
LINE
  8
1
 62
7
  6
CONTINUOUS
 10
265.749810186
 20
177.971739130
 11
265.460278822
 21
178.171739130
  0
LINE
  8
1
 62
7
  6
CONTINUOUS
 10
267.869789606
 20
178.171739130
 11
267.580258242
 21
177.971739130
  0
LINE
  8
1
 62
7
  6
CONTINUOUS
 10
278.315942029
 20
178.171739130
 11
278.115942029
 21
177.971739130
  0
LINE
  8
1
 62
7
  6
CONTINUOUS
 10
267.869789606
 20
178.171739130
 11
269.315942029
 21
178.171739130
  0
LINE
  8
1
 62
7
  6
CONTINUOUS
 10
131.615942029
 20
163.060087546
 11
135.115942029
 21
163.060087546
  0
LINE
  8
1
 62
7
  6
CONTINUOUS
 10
131.615942029
 20
149.983390715
 11
135.115942029
 21
149.983390715
  0
LINE
  8
1
 62
7
  6
CONTINUOUS
 10
131.615942029
 20
163.060087546
 11
131.615942029
 21
149.983390715
  0
LINE
  8
1
 62
7
  6
CONTINUOUS
 10
135.115942029
 20
163.060087546
 11
135.115942029
 21
149.983390715
  0
ARC
  8
1
 62
7
  6
CONTINUOUS
 10
155.864653335
 20
156.521739130
 40
25.114736710
 50
164.909814821
 51
195.090185179
  0
ARC
  8
1
 62
7
  6
CONTINUOUS
 10
110.867230723
 20
156.521739130
 40
25.114736710
 50
344.909814821
 51
15.090185179
  0
LINE
  8
1
 62
7
  6
CONTINUOUS
 10
275.762094452
 20
178.171739130
 11
274.315942029
 21
178.171739130
  0
LINE
  8
1
 62
7
  6
CONTINUOUS
 10
275.762094452
 20
178.171739130
 11
276.051625816
 21
177.971739130
  0
LINE
  8
1
 62
7
  6
CONTINUOUS
 10
277.882073872
 20
177.971739130
 11
278.171605236
 21
178.171739130
  0
LINE
  8
1
 62
7
  6
CONTINUOUS
 10
278.315942029
 20
178.171739130
 11
278.171605236
 21
178.171739130
  0
LINE
  8
1
 62
7
  6
CONTINUOUS
 10
278.315942029
 20
181.471739130
 11
278.171605236
 21
181.471739130
  0
ARC
  8
1
 62
7
  6
CONTINUOUS
 10
276.966849844
 20
180.270303575
 40
1.701435555
 50
44.920948698
 51
135.079051302
  0
LINE
  8
1
 62
7
  6
CONTINUOUS
 10
265.315942029
 20
177.471739130
 11
265.315942029
 21
169.171739130
  0
LINE
  8
1
 62
7
  6
CONTINUOUS
 10
275.762094452
 20
181.471739130
 11
274.315942029
 21
181.471739130
  0
LINE
  8
1
 62
7
  6
CONTINUOUS
 10
275.762094452
 20
181.471739130
 11
275.762094452
 21
178.171739130
  0
LINE
  8
1
 62
7
  6
CONTINUOUS
 10
278.171605236
 20
181.471739130
 11
278.171605236
 21
178.171739130
  0
ARC
  8
1
 62
4
  6
CONTINUOUS
 10
269.815942029
 20
205.471739130
 40
2.500000000
 50
36.869897646
 51
143.130102354
  0
LINE
  8
1
 62
7
  6
CONTINUOUS
 10
277.815942029
 20
181.971739130
 11
278.315942029
 21
181.471739130
  0
LINE
  8
1
 62
7
  6
CONTINUOUS
 10
221.815942029
 20
181.971739130
 11
221.815942029
 21
206.971739130
  0
LINE
  8
1
 62
7
  6
CONTINUOUS
 10
213.815942029
 20
181.971739130
 11
213.815942029
 21
206.971739130
  0
LINE
  8
1
 62
7
  6
CONTINUOUS
 10
211.815942029
 20
181.971739130
 11
211.815942029
 21
168.971739130
  0
LINE
  8
1
 62
7
  6
CONTINUOUS
 10
223.815942029
 20
181.471739130
 11
222.981005538
 21
181.471739130
  0
LINE
  8
1
 62
7
  6
CONTINUOUS
 10
222.981005538
 20
181.471739130
 11
222.981005538
 21
178.171739130
  0
LINE
  8
1
 62
7
  6
CONTINUOUS
 10
223.815942029
 20
181.971739130
 11
211.815942029
 21
181.971739130
  0
LINE
  8
1
 62
7
  6
CONTINUOUS
 10
212.650878519
 20
181.471739130
 11
211.815942029
 21
181.471739130
  0
LINE
  8
1
 62
7
  6
CONTINUOUS
 10
218.650878519
 20
181.471739130
 11
216.981005538
 21
181.471739130
  0
LINE
  8
1
 62
7
  6
CONTINUOUS
 10
216.981005538
 20
181.471739130
 11
216.981005538
 21
178.171739130
  0
LINE
  8
1
 62
7
  6
CONTINUOUS
 10
216.981005538
 20
178.171739130
 11
216.479522505
 21
177.971739130
  0
LINE
  8
1
 62
7
  6
CONTINUOUS
 10
218.650878519
 20
178.171739130
 11
218.650878519
 21
181.471739130
  0
LINE
  8
1
 62
7
  6
CONTINUOUS
 10
216.981005538
 20
178.171739130
 11
218.650878519
 21
178.171739130
  0
LINE
  8
1
 62
7
  6
CONTINUOUS
 10
219.152361553
 20
177.971739130
 11
218.650878519
 21
178.171739130
  0
ARC
  8
1
 62
4
  6
CONTINUOUS
 10
215.815942029
 20
205.471739130
 40
2.500000000
 50
36.869897646
 51
143.130102354
  0
LINE
  8
1
 62
7
  6
CONTINUOUS
 10
211.815942029
 20
178.171739130
 11
212.650878519
 21
178.171739130
  0
LINE
  8
1
 62
7
  6
CONTINUOUS
 10
212.650878519
 20
178.171739130
 11
212.650878519
 21
181.471739130
  0
ARC
  8
1
 62
4
  6
CONTINUOUS
 10
219.815942029
 20
208.471739130
 40
2.500000000
 50
216.869897646
 51
323.130102354
  0
ARC
  8
1
 62
4
  6
CONTINUOUS
 10
219.815942029
 20
205.471739130
 40
2.500000000
 50
36.869897646
 51
143.130102354
  0
LINE
  8
1
 62
7
  6
CONTINUOUS
 10
223.815942029
 20
168.971739130
 11
223.815942029
 21
181.971739130
  0
ARC
  8
1
 62
7
  6
CONTINUOUS
 10
220.815942029
 20
177.034239130
 40
4.937500000
 50
63.992176114
 51
116.007823886
  0
LINE
  8
1
 62
7
  6
CONTINUOUS
 10
225.815942029
 20
147.571739130
 11
224.815942029
 21
146.571739130
  0
LINE
  8
1
 62
7
  6
CONTINUOUS
 10
211.815942029
 20
146.571739130
 11
210.815942029
 21
147.571739130
  0
LINE
  8
1
 62
7
  6
CONTINUOUS
 10
224.815942029
 20
168.971739130
 11
225.815942029
 21
167.971739130
  0
LINE
  8
1
 62
7
  6
CONTINUOUS
 10
210.815942029
 20
167.971739130
 11
211.815942029
 21
168.971739130
  0
LINE
  8
1
 62
7
  6
CONTINUOUS
 10
211.815942029
 20
168.971739130
 11
224.815942029
 21
168.971739130
  0
ARC
  8
1
 62
7
  6
CONTINUOUS
 10
214.815942029
 20
177.034239130
 40
4.937500000
 50
63.992176114
 51
116.007823886
  0
LINE
  8
1
 62
4
  6
CONTINUOUS
 10
194.115942029
 20
150.380613633
 11
197.874816532
 21
146.621739130
  0
LINE
  8
1
 62
4
  6
CONTINUOUS
 10
194.115942029
 20
147.552186509
 11
195.046389407
 21
146.621739130
  0
LINE
  8
1
 62
4
  6
CONTINUOUS
 10
194.115942029
 20
161.694322132
 11
209.188525031
 21
146.621739130
  0
LINE
  8
1
 62
4
  6
CONTINUOUS
 10
194.115942029
 20
158.865895008
 11
206.360097906
 21
146.621739130
  0
LINE
  8
1
 62
4
  6
CONTINUOUS
 10
194.115942029
 20
156.037467883
 11
203.531670782
 21
146.621739130
  0
LINE
  8
1
 62
4
  6
CONTINUOUS
 10
209.187514904
 20
166.421739130
 11
210.615942029
 21
164.993312006
  0
LINE
  8
1
 62
4
  6
CONTINUOUS
 10
206.359087779
 20
166.421739130
 11
210.615942029
 21
162.164884881
  0
INSERT
  8
1
 62
7
  6
CONTINUOUS
  2
blk71
 10
193.615942029
 20
147.603059130
 41
0.500000000
 42
-0.768680000
 50
0.000000000
  0
INSERT
  8
1
 62
7
  6
CONTINUOUS
  2
blk72
 10
193.615942029
 20
165.440419130
 41
0.500000000
 42
0.768680000
 50
0.000000000
  0
LINE
  8
1
 62
4
  6
CONTINUOUS
 10
194.115942029
 20
153.209040758
 11
200.703243657
 21
146.621739130
  0
LINE
  8
1
 62
4
  6
CONTINUOUS
 10
203.530660655
 20
166.421739130
 11
210.615942029
 21
159.336457756
  0
LINE
  8
1
 62
4
  6
CONTINUOUS
 10
194.115942029
 20
164.522749257
 11
210.615942029
 21
148.022749257
  0
LINE
  8
1
 62
4
  6
CONTINUOUS
 10
195.045379281
 20
166.421739130
 11
210.615942029
 21
150.851176382
  0
LINE
  8
1
 62
4
  6
CONTINUOUS
 10
197.873806405
 20
166.421739130
 11
210.615942029
 21
153.679603507
  0
LINE
  8
1
 62
4
  6
CONTINUOUS
 10
194.115942029
 20
163.891291752
 11
196.646389407
 21
166.421739130
  0
LINE
  8
1
 62
4
  6
CONTINUOUS
 10
194.115942029
 20
161.062864627
 11
199.474816532
 21
166.421739130
  0
LINE
  8
1
 62
4
  6
CONTINUOUS
 10
194.115942029
 20
158.234437503
 11
202.303243657
 21
166.421739130
  0
LINE
  8
1
 62
4
  6
CONTINUOUS
 10
194.115942029
 20
155.406010378
 11
205.131670782
 21
166.421739130
  0
LINE
  8
1
 62
4
  6
CONTINUOUS
 10
194.115942029
 20
152.577583253
 11
207.960097906
 21
166.421739130
  0
LINE
  8
1
 62
4
  6
CONTINUOUS
 10
194.115942029
 20
149.749156128
 11
210.602233530
 21
166.235447629
  0
LINE
  8
1
 62
7
  6
CONTINUOUS
 10
225.815942029
 20
156.521739130
 11
210.815942029
 21
156.521739130
  0
LINE
  8
1
 62
4
  6
CONTINUOUS
 10
194.216447092
 20
147.021234067
 11
210.615942029
 21
163.420729004
  0
LINE
  8
1
 62
4
  6
CONTINUOUS
 10
196.645379281
 20
146.621739130
 11
210.615942029
 21
160.592301879
  0
LINE
  8
1
 62
7
  6
CONTINUOUS
 10
225.815942029
 20
147.571739130
 11
225.815942029
 21
167.971739130
  0
LINE
  8
1
 62
4
  6
CONTINUOUS
 10
199.473806405
 20
146.621739130
 11
210.615942029
 21
157.763874754
  0
LINE
  8
1
 62
4
  6
CONTINUOUS
 10
202.302233530
 20
146.621739130
 11
210.615942029
 21
154.935447629
  0
LINE
  8
1
 62
4
  6
CONTINUOUS
 10
205.130660655
 20
146.621739130
 11
210.615942029
 21
152.107020505
  0
LINE
  8
1
 62
4
  6
CONTINUOUS
 10
207.959087779
 20
146.621739130
 11
210.615942029
 21
149.278593380
  0
LINE
  8
1
 62
7
  6
CONTINUOUS
 10
211.815942029
 20
146.571739130
 11
224.815942029
 21
146.571739130
  0
LINE
  8
1
 62
4
  6
CONTINUOUS
 10
200.702233530
 20
166.421739130
 11
210.615942029
 21
156.508030631
  0
LINE
  8
1
 62
7
  6
CONTINUOUS
 10
210.415942029
 20
166.421739130
 11
210.615942029
 21
166.221739130
  0
LINE
  8
1
 62
7
  6
CONTINUOUS
 10
210.615942029
 20
146.821739130
 11
210.415942029
 21
146.621739130
  0
LINE
  8
1
 62
7
  6
CONTINUOUS
 10
194.315942029
 20
146.621739130
 11
194.115942029
 21
146.821739130
  0
LINE
  8
1
 62
7
  6
CONTINUOUS
 10
194.115942029
 20
166.221739130
 11
194.315942029
 21
166.421739130
  0
LINE
  8
1
 62
7
  6
CONTINUOUS
 10
210.415942029
 20
166.421739130
 11
194.315942029
 21
166.421739130
  0
LINE
  8
1
 62
7
  6
CONTINUOUS
 10
210.615942029
 20
146.821739130
 11
210.615942029
 21
166.221739130
  0
LINE
  8
1
 62
7
  6
CONTINUOUS
 10
194.315942029
 20
146.621739130
 11
210.415942029
 21
146.621739130
  0
LINE
  8
1
 62
7
  6
CONTINUOUS
 10
194.115942029
 20
166.221739130
 11
194.115942029
 21
146.821739130
  0
LINE
  8
1
 62
7
  6
CONTINUOUS
 10
210.815942029
 20
167.971739130
 11
210.815942029
 21
147.571739130
  0
LINE
  8
1
 62
7
  6
CONTINUOUS
 10
223.815942029
 20
168.971739130
 11
211.815942029
 21
168.971739130
  0
LINE
  8
1
 62
1
  6
CENTER
 10
217.815942029
 20
166.971739130
 11
217.815942029
 21
206.971739130
  0
LINE
  8
1
 62
7
  6
CONTINUOUS
 10
285.715942029
 20
178.571737529
 11
285.715942029
 21
169.071738766
  0
LINE
  8
1
 62
7
  6
CONTINUOUS
 10
278.715942029
 20
169.071738766
 11
278.715942029
 21
178.571737529
  0
LINE
  8
1
 62
7
  6
CONTINUOUS
 10
285.715941949
 20
180.071738637
 11
285.715942029
 21
178.971736850
  0
LINE
  8
1
 62
7
  6
CONTINUOUS
 10
278.715942029
 20
178.971736850
 11
278.715942165
 21
180.071738637
  0
ARC
  8
1
 62
7
  6
CONTINUOUS
 10
279.215942165
 20
180.071738637
 40
0.500000000
 50
90.000000000
 51
180.000000000
  0
ARC
  8
1
 62
7
  6
CONTINUOUS
 10
285.215941949
 20
180.071738637
 40
0.500000000
 50
0.000000000
 51
90.000000000
  0
LINE
  8
1
 62
7
  6
CONTINUOUS
 10
284.290942029
 20
178.971736850
 11
284.290942029
 21
178.571737529
  0
LINE
  8
1
 62
7
  6
CONTINUOUS
 10
280.140942029
 20
178.571737529
 11
280.140942029
 21
178.971736850
  0
LINE
  8
1
 62
7
  6
CONTINUOUS
 10
279.215942165
 20
180.571738637
 11
285.215941949
 21
180.571738637
  0
LINE
  8
1
 62
7
  6
CONTINUOUS
 10
285.715942029
 20
178.971736850
 11
278.715942029
 21
178.971736850
  0
LINE
  8
1
 62
7
  6
CONTINUOUS
 10
280.615942029
 20
195.571738637
 11
280.615942029
 21
180.571738637
  0
LINE
  8
1
 62
7
  6
CONTINUOUS
 10
285.715942029
 20
169.071738766
 11
278.715942029
 21
169.071738766
  0
LINE
  8
1
 62
7
  6
CONTINUOUS
 10
278.715942029
 20
178.571737529
 11
285.715942029
 21
178.571737529
  0
LINE
  8
1
 62
7
  6
CONTINUOUS
 10
284.965942029
 20
169.071738766
 11
284.965942029
 21
168.971738936
  0
LINE
  8
1
 62
7
  6
CONTINUOUS
 10
279.465942029
 20
168.971738936
 11
279.465942029
 21
169.071738766
  0
ARC
  8
1
 62
4
  6
CONTINUOUS
 10
281.415942029
 20
194.971738637
 40
1.000000000
 50
36.869897646
 51
143.130102354
  0
ARC
  8
1
 62
4
  6
CONTINUOUS
 10
283.015942029
 20
194.971738637
 40
1.000000000
 50
36.869897646
 51
143.130102354
  0
ARC
  8
1
 62
4
  6
CONTINUOUS
 10
283.015942029
 20
196.171738637
 40
1.000000000
 50
216.869897646
 51
323.130102354
  0
LINE
  8
1
 62
1
  6
CENTER
 10
282.215942029
 20
166.971739130
 11
282.215942029
 21
195.571738637
  0
LINE
  8
1
 62
7
  6
CONTINUOUS
 10
283.815942029
 20
180.571738637
 11
283.815942029
 21
195.571738637
  0
LINE
  8
1
 62
1
  6
CENTER
 10
271.815942029
 20
166.971739130
 11
271.815942029
 21
206.971739130
  0
LINE
  8
1
 62
7
  6
CONTINUOUS
 10
278.115942029
 20
168.971739130
 11
265.515942029
 21
168.971739130
  0
LINE
  8
1
 62
7
  6
CONTINUOUS
 10
278.115942029
 20
168.971739130
 11
278.315942029
 21
169.171739130
  0
LINE
  8
1
 62
7
  6
CONTINUOUS
 10
265.315942029
 20
169.171739130
 11
265.515942029
 21
168.971739130
  0
LINE
  8
1
 62
7
  6
CONTINUOUS
 10
278.315942029
 20
169.171739130
 11
278.315942029
 21
177.471739130
  0
ARC
  8
1
 62
4
  6
CONTINUOUS
 10
273.815942029
 20
205.471739130
 40
2.500000000
 50
36.869897646
 51
143.130102354
  0
ARC
  8
1
 62
4
  6
CONTINUOUS
 10
273.815942029
 20
208.471739130
 40
2.500000000
 50
216.869897646
 51
323.130102354
  0
LINE
  8
1
 62
7
  6
CONTINUOUS
 10
265.315942029
 20
181.471739130
 11
265.815942029
 21
181.971739130
  0
DIMENSION
  8
1
 62
4
  6
CONTINUOUS
  2
*D133
 70
0
 10
225.815942029
 20
113.521739130
 11
162.715942029
 21
113.521739130
 14
225.815942029
 24
147.571739130
 13
99.615942029
 23
141.621739130
 50
0.000000000
  0
DIMENSION
  8
1
 62
4
  6
CONTINUOUS
  2
*D134
 70
1
 10
193.115942029
 20
121.521739130
 11
146.365942029
 21
121.521739130
 14
193.115942029
 24
141.621739130
 13
99.615942029
 23
141.621739130
 50
0.000000000
  0
DIMENSION
  8
1
 62
4
  6
CONTINUOUS
  2
*D135
 70
0
 10
225.815942029
 20
121.521739130
 11
209.465942029
 21
121.521739130
 14
225.815942029
 24
147.571739130
 13
193.115942029
 23
141.621739130
 50
0.000000000
  0
TEXT
  8
1
 62
3
  6
CONTINUOUS
 72
5
 10
124.915942029
 20
99.537739130
 40
4.000000000
  1
ＥＭ－３０６０ ＋ ＥＭＣＤ－３０００Ａ
 41
0.848973104
 11
200.115942029
 21
99.537739130
  0
DIMENSION
  8
1
 62
4
  6
CONTINUOUS
  2
*D137
 70
1
 10
87.615942029
 20
141.521739130
 11
87.615942029
 21
156.521739130
 14
99.715942029
 24
141.521739130
 13
99.715942029
 23
171.521739130
 50
90.000000000
  0
LINE
  8
1
 62
7
  6
CONTINUOUS
 10
265.515942029
 20
177.971739130
 11
265.315942029
 21
178.171739130
  0
LINE
  8
1
 62
7
  6
CONTINUOUS
 10
267.869789606
 20
181.471739130
 11
267.869789606
 21
178.171739130
  0
LINE
  8
1
 62
7
  6
CONTINUOUS
 10
265.460278822
 20
181.471739130
 11
265.460278822
 21
178.171739130
  0
LINE
  8
1
 62
7
  6
CONTINUOUS
 10
277.815942029
 20
177.971739130
 11
278.315942029
 21
177.471739130
  0
LINE
  8
1
 62
7
  6
CONTINUOUS
 10
278.315942029
 20
178.171739130
 11
278.315942029
 21
181.471739130
  0
LINE
  8
1
 62
7
  6
CONTINUOUS
 10
265.315942029
 20
177.471739130
 11
265.815942029
 21
177.971739130
  0
LINE
  8
1
 62
7
  6
CONTINUOUS
 10
277.815942029
 20
181.971739130
 11
265.815942029
 21
181.971739130
  0
LINE
  8
1
 62
7
  6
CONTINUOUS
 10
278.115942029
 20
177.971739130
 11
265.515942029
 21
177.971739130
  0
LINE
  8
1
 62
7
  6
CONTINUOUS
 10
265.815942029
 20
177.971739130
 11
277.815942029
 21
177.971739130
  0
LINE
  8
1
 62
7
  6
CONTINUOUS
 10
265.315942029
 20
181.471739130
 11
265.315942029
 21
178.171739130
  0
LINE
  8
1
 62
7
  6
CONTINUOUS
 10
267.815942029
 20
181.971739130
 11
267.815942029
 21
206.971739130
  0
LINE
  8
1
 62
7
  6
CONTINUOUS
 10
275.815942029
 20
181.971739130
 11
275.815942029
 21
206.971739130
  0
LINE
  8
1
 62
7
  6
CONTINUOUS
 10
284.765942029
 20
156.521739130
 11
285.765942029
 21
156.521739130
  0
LINE
  8
1
 62
7
  6
CONTINUOUS
 10
265.865942029
 20
156.521739130
 11
266.865942029
 21
156.521739130
  0
LINE
  8
1
 62
7
  6
CONTINUOUS
 10
284.765942029
 20
167.971739130
 11
285.665942029
 21
168.871739130
  0
LINE
  8
1
 62
7
  6
CONTINUOUS
 10
266.865942029
 20
167.971739130
 11
265.965942029
 21
168.871739130
  0
LINE
  8
1
 62
7
  6
CONTINUOUS
 10
224.815942029
 20
168.971739130
 11
224.815942029
 21
146.571739130
  0
LINE
  8
1
 62
7
  6
CONTINUOUS
 10
266.865942029
 20
167.971739130
 11
284.765942029
 21
167.971739130
  0
LINE
  8
1
 62
7
  6
CONTINUOUS
 10
284.765942029
 20
167.971739130
 11
284.765942029
 21
156.521739130
  0
LINE
  8
1
 62
7
  6
CONTINUOUS
 10
266.865942029
 20
156.521739130
 11
266.865942029
 21
167.971739130
  0
ARC
  8
1
 62
7
  6
CONTINUOUS
 10
275.815942029
 20
156.521739130
 40
8.950000000
 50
180.000000000
 51
0.000000000
  0
LINE
  8
1
 62
7
  6
CONTINUOUS
 10
211.815942029
 20
168.971739130
 11
211.815942029
 21
146.571739130
  0
LINE
  8
1
 62
7
  6
CONTINUOUS
 10
285.565942029
 20
168.971739130
 11
285.765942029
 21
168.771739130
  0
LINE
  8
1
 62
7
  6
CONTINUOUS
 10
265.865942029
 20
168.771739130
 11
266.065942029
 21
168.971739130
  0
DIMENSION
  8
1
 62
4
  6
CONTINUOUS
  2
*D162
 70
1
 10
237.815942029
 20
168.971739130
 11
237.815942029
 21
157.771739130
 14
224.815942029
 24
168.971739130
 13
224.815942029
 23
146.571739130
 50
90.000000000
  0
LINE
  8
1
 62
1
  6
CENTER
 10
263.865942029
 20
156.521739130
 11
287.765942029
 21
156.521739130
  0
CIRCLE
  8
1
 62
7
  6
CONTINUOUS
 10
271.485815010
 20
154.021739130
 40
0.600000000
  0
LINE
  8
1
 62
7
  6
CONTINUOUS
 10
285.765942029
 20
168.771739130
 11
285.765942029
 21
156.521739130
  0
LINE
  8
1
 62
7
  6
CONTINUOUS
 10
266.065942029
 20
168.971739130
 11
285.565942029
 21
168.971739130
  0
LINE
  8
1
 62
7
  6
CONTINUOUS
 10
265.865942029
 20
156.521739130
 11
265.865942029
 21
168.771739130
  0
CIRCLE
  8
1
 62
7
  6
CONTINUOUS
 10
280.146069048
 20
154.021739130
 40
0.600000000
  0
ARC
  8
1
 62
7
  6
CONTINUOUS
 10
275.815942029
 20
156.521739130
 40
9.950000000
 50
180.000000000
 51
0.000000000
  0
LINE
  8
1
 62
1
  6
CENTER
 10
275.815942029
 20
170.971739130
 11
275.815942029
 21
144.571739130
  0
CIRCLE
  8
1
 62
7
  6
CONTINUOUS
 10
275.815942029
 20
161.521739130
 40
0.600000000
  0
CIRCLE
  8
1
 62
7
  6
CONTINUOUS
 10
275.815942029
 20
156.521739130
 40
8.500000000
  0
DIMENSION
  8
1
 62
4
  6
CONTINUOUS
  2
*D173
 70
0
 10
237.815942029
 20
181.971739130
 11
237.815942029
 21
175.471739130
 14
223.815942029
 24
181.971739130
 13
224.815942029
 23
168.971739130
 50
90.000000000
  0
LINE
  8
1
 62
7
  6
CONTINUOUS
 10
210.615942029
 20
163.871739130
 11
210.815942029
 21
163.871739130
  0
LINE
  8
1
 62
7
  6
CONTINUOUS
 10
210.615942029
 20
149.171739130
 11
210.815942029
 21
149.171739130
  0
LINE
  8
1
 62
7
  6
CONTINUOUS
 10
218.650878519
 20
177.471739130
 11
216.981005538
 21
177.471739130
  0
LINE
  8
1
 62
7
  6
CONTINUOUS
 10
218.650878581
 20
168.971739130
 11
218.650878519
 21
177.471739130
  0
LINE
  8
1
 62
7
  6
CONTINUOUS
 10
222.981005538
 20
178.171739130
 11
223.815942029
 21
178.171739130
  0
LINE
  8
1
 62
7
  6
CONTINUOUS
 10
223.815942029
 20
177.971739130
 11
211.815942029
 21
177.971739130
  0
LINE
  8
1
 62
7
  6
CONTINUOUS
 10
222.981005499
 20
178.171738674
 11
222.502666214
 21
177.971739130
  0
ARC
  8
1
 62
7
  6
CONTINUOUS
 10
214.815942029
 20
173.034239130
 40
4.937500000
 50
63.992176114
 51
116.007823886
  0
LINE
  8
1
 62
7
  6
CONTINUOUS
 10
223.815942029
 20
177.471739130
 11
222.981005538
 21
177.471739130
  0
LINE
  8
1
 62
7
  6
CONTINUOUS
 10
212.650878528
 20
168.971739130
 11
212.650878519
 21
177.471739130
  0
LINE
  8
1
 62
7
  6
CONTINUOUS
 10
212.650878519
 20
177.471739130
 11
211.815942029
 21
177.471739130
  0
ARC
  8
1
 62
7
  6
CONTINUOUS
 10
220.815942029
 20
173.034239130
 40
4.937500000
 50
63.992176114
 51
116.007823886
  0
LINE
  8
1
 62
7
  6
CONTINUOUS
 10
222.981005538
 20
177.471739130
 11
222.981005499
 21
168.971739130
  0
LINE
  8
1
 62
7
  6
CONTINUOUS
 10
213.152361553
 20
177.971739130
 11
212.650878519
 21
178.171739130
  0
LINE
  8
1
 62
7
  6
CONTINUOUS
 10
216.981005538
 20
177.471739130
 11
216.981005563
 21
168.971739130
  0
ARC
  8
1
 62
7
  6
CONTINUOUS
 10
271.815942029
 20
175.471739130
 40
6.500000000
 50
67.380135052
 51
112.619864948
  0
LINE
  8
1
 62
7
  6
CONTINUOUS
 10
274.315942029
 20
178.171739130
 11
273.736879300
 21
177.971739130
  0
LINE
  8
1
 62
7
  6
CONTINUOUS
 10
274.315942029
 20
181.471739130
 11
274.315942029
 21
178.171739130
  0
LINE
  8
1
 62
7
  6
CONTINUOUS
 10
269.895004758
 20
177.971739130
 11
269.315942029
 21
178.171739130
  0
LINE
  8
1
 62
7
  6
CONTINUOUS
 10
269.315942029
 20
178.171739130
 11
269.315942029
 21
181.471739130
  0
LINE
  8
1
 62
7
  6
CONTINUOUS
 10
269.315942029
 20
168.971739130
 11
269.315942029
 21
177.471739130
  0
LINE
  8
1
 62
7
  6
CONTINUOUS
 10
274.315942029
 20
177.471739130
 11
274.315942029
 21
168.971739130
  0
ARC
  8
1
 62
7
  6
CONTINUOUS
 10
271.815942029
 20
171.471739130
 40
6.500000000
 50
67.380135052
 51
112.619864948
  0
LINE
  8
1
 62
7
  6
CONTINUOUS
 10
265.460278822
 20
177.471739130
 11
265.460278822
 21
169.027402338
  0
LINE
  8
1
 62
7
  6
CONTINUOUS
 10
267.869789606
 20
177.471739130
 11
267.869789606
 21
168.971739130
  0
LINE
  8
1
 62
7
  6
CONTINUOUS
 10
267.869789606
 20
177.471739130
 11
269.315942029
 21
177.471739130
  0
ARC
  8
1
 62
7
  6
CONTINUOUS
 10
266.665034214
 20
176.270303575
 40
1.701435555
 50
44.920948698
 51
135.079051302
  0
LINE
  8
1
 62
7
  6
CONTINUOUS
 10
265.315942029
 20
177.471739130
 11
265.460278822
 21
177.471739130
  0
LINE
  8
1
 62
7
  6
CONTINUOUS
 10
278.315942029
 20
177.471739130
 11
278.171605236
 21
177.471739130
  0
ARC
  8
1
 62
7
  6
CONTINUOUS
 10
276.966849844
 20
176.270303575
 40
1.701435555
 50
44.920948698
 51
135.079051302
  0
LINE
  8
1
 62
7
  6
CONTINUOUS
 10
275.762094452
 20
177.471739130
 11
274.315942029
 21
177.471739130
  0
LINE
  8
1
 62
7
  6
CONTINUOUS
 10
275.762094452
 20
177.471739130
 11
275.762094452
 21
168.971739130
  0
LINE
  8
1
 62
7
  6
CONTINUOUS
 10
278.171605236
 20
177.471739130
 11
278.171605236
 21
169.027402338
  0
ENDSEC
  0
EOF
