  0
SECTION
  2
HEADER
  9
$ACADVER
  1
AC1009
  9
$INSBASE
 10
0.000000000
 20
0.000000000
  9
$EXTMIN
 10
-20.393513119
 20
-19.552028986
  9
$EXTMAX
 10
224.328644306
 20
215.072318841
  9
$LIMMIN
 10
-20.393513119
 20
-19.552028986
  9
$LIMMAX
 10
224.328644306
 20
215.072318841
  9
$SNAPBASE
 10
0.000000000
 20
0.000000000
  9
$SNAPANG
 50
0.000000000
  9
$SNAPSTYLE
 70
0
  9
$GRIDMODE
 70
0
  9
$GRIDUNIT
 10
0.000000000
 20
0.000000000
  9
$DIMEXO
 40
0.000000000
  9
$DIMDLI
 40
8.000000000
  9
$DIMDLE
 40
0.000000000
  9
$DIMEXE
 40
1.000000000
  9
$DIMTIH
 70
1
  9
$DIMTOH
 70
1
  9
$DIMTAD
 70
2
  9
$DIMZIN
 70
0
  9
$FILLETRAD
 40
1.000000000
  9
$CHAMFERA
 40
1.000000000
  9
$CHAMFERB
 40
1.000000000
  9
$TDCREATE
 40
2454152.715740741
  9
$TDUPDATE
 40
2454152.715740741
  9
$ANGBASE
 50
0.000000000
  9
$ANGDIR
 70
0
  0
ENDSEC
  0
SECTION
  2
TABLES
  0
TABLE
  2
LTYPE
 70
3
  0
LTYPE
  2
CENTER
 70
64
  3
___ _ ___ _ __
 72
65
 73
4
 40
13.000000000
 49
8.500000000
 49
-1.500000000
 49
1.500000000
 49
-1.500000000
  0
LTYPE
  2
CONTINUOUS
 70
64
  3
______________
 72
65
 73
0
 40
0.000000000
  0
LTYPE
  2
DIVIDE
 70
64
  3
___ . . ___ . 
 72
65
 73
6
 40
12.999999523
 49
5.199999809
 49
-2.599999905
 49
0.000000000
 49
-2.599999905
 49
0.000000000
 49
-2.599999905
  0
ENDTAB
  0
TABLE
  2
LAYER
 70
2
  0
LAYER
  2
1
 70
0
 62
7
  6
CONTINUOUS
999
Comment001
  0
LAYER
  2
3
 70
0
 62
7
  6
CONTINUOUS
  0
LAYER
  2
_CONSTR
 70
0
 62
5
  6
CONTINUOUS
  0
ENDTAB
  0
TABLE
  2
STYLE
 70
1
  0
STYLE
  2
STANDARD
 70
64
 40
0.000000000
 41
1.000000000
 50
0.000000000
 71
0
 42
3.200000000
  3
TXT
  4
EXTFONT
  0
ENDTAB
  0
TABLE
  2
VIEW
 70
0
  0
ENDTAB
  0
ENDSEC
  0
SECTION
  2
BLOCKS
  0
BLOCK
  8
0
  2
*D15
 70
65
 10
0.000000000
 20
0.000000000
  3
*D
  0
TEXT
  8
1
 62
4
  6
CONTINUOUS
 72
5
 10
63.680131188
 20
152.288689855
 40
2.800000000
  1
φ
 41
1.270648030
 50
90.000000000
 11
63.680131188
 21
155.648689855
  0
TEXT
  8
1
 62
4
  6
CONTINUOUS
 72
5
 10
63.680131188
 20
157.328689855
 40
2.800000000
  1
10.8
 41
1.319998944
 50
90.000000000
 11
63.680131188
 21
166.568689855
  0
LINE
  8
1
 62
4
  6
CONTINUOUS
 10
85.134169293
 20
164.820289855
 11
63.885131188
 21
164.820289855
  0
POLYLINE
  8
1
 62
4
  6
CONTINUOUS
 66
1
  0
VERTEX
  8
1
 10
66.185131188
 20
162.820289855
  0
VERTEX
  8
1
 10
65.885131188
 20
164.820289855
  0
VERTEX
  8
1
 10
65.585131188
 20
162.820289855
  0
SEQEND
  8
1
  0
LINE
  8
1
 62
4
  6
CONTINUOUS
 10
65.885131188
 20
164.820289855
 11
65.885131188
 21
154.020289855
  0
POLYLINE
  8
1
 62
4
  6
CONTINUOUS
 66
1
  0
VERTEX
  8
1
 10
65.585131188
 20
156.020289855
  0
VERTEX
  8
1
 10
65.885131188
 20
154.020289855
  0
VERTEX
  8
1
 10
66.185131188
 20
156.020289855
  0
SEQEND
  8
1
  0
LINE
  8
1
 62
4
  6
CONTINUOUS
 10
85.134169293
 20
154.020289855
 11
63.885131188
 21
154.020289855
  0
ENDBLK
  8
0
  0
BLOCK
  8
0
  2
*D16
 70
65
 10
0.000000000
 20
0.000000000
  3
*D
  0
TEXT
  8
1
 62
4
  6
CONTINUOUS
 72
5
 10
134.343531188
 20
121.625289855
 40
2.800000000
  1
81
 41
1.125000281
 11
138.543531188
 21
121.625289855
  0
POLYLINE
  8
1
 62
4
  6
CONTINUOUS
 66
1
  0
VERTEX
  8
1
 10
97.935131188
 20
119.720289855
  0
VERTEX
  8
1
 10
95.935131188
 20
119.420289855
  0
VERTEX
  8
1
 10
97.935131188
 20
119.120289855
  0
SEQEND
  8
1
  0
LINE
  8
1
 62
4
  6
CONTINUOUS
 10
95.935131188
 20
119.420289855
 11
176.935131188
 21
119.420289855
  0
POLYLINE
  8
1
 62
4
  6
CONTINUOUS
 66
1
  0
VERTEX
  8
1
 10
174.935131188
 20
119.120289855
  0
VERTEX
  8
1
 10
176.935131188
 20
119.420289855
  0
VERTEX
  8
1
 10
174.935131188
 20
119.720289855
  0
SEQEND
  8
1
  0
LINE
  8
1
 62
4
  6
CONTINUOUS
 10
176.935131188
 20
141.420289855
 11
176.935131188
 21
117.420289855
  0
ENDBLK
  8
0
  0
BLOCK
  8
0
  2
*D17
 70
65
 10
0.000000000
 20
0.000000000
  3
*D
  0
TEXT
  8
1
 62
4
  6
CONTINUOUS
 72
5
 10
201.730131188
 20
151.457089855
 40
2.800000000
  1
φ
 41
1.270648030
 50
90.000000000
 11
201.730131188
 21
154.817089855
  0
TEXT
  8
1
 62
4
  6
CONTINUOUS
 72
5
 10
201.730131188
 20
156.497089855
 40
2.800000000
  1
40
 41
1.000000667
 50
90.000000000
 11
201.730131188
 21
160.697089855
  0
TEXT
  8
1
 62
4
  6
CONTINUOUS
 72
5
 10
199.966131188
 20
161.537089855
 40
1.400000000
  1
 0
 41
2.333335926
 50
90.000000000
 11
199.966131188
 21
164.477089855
  0
TEXT
  8
1
 62
4
  6
CONTINUOUS
 72
5
 10
202.108131188
 20
161.537089855
 40
1.400000000
  1
-0.01
 41
1.710000684
 50
90.000000000
 11
202.108131188
 21
169.517089855
  0
LINE
  8
1
 62
4
  6
CONTINUOUS
 10
174.935131188
 20
179.420289855
 11
205.935131188
 21
179.420289855
  0
POLYLINE
  8
1
 62
4
  6
CONTINUOUS
 66
1
  0
VERTEX
  8
1
 10
204.235131188
 20
177.420289855
  0
VERTEX
  8
1
 10
203.935131188
 20
179.420289855
  0
VERTEX
  8
1
 10
203.635131188
 20
177.420289855
  0
SEQEND
  8
1
  0
LINE
  8
1
 62
4
  6
CONTINUOUS
 10
203.935131188
 20
179.420289855
 11
203.935131188
 21
139.420289855
  0
POLYLINE
  8
1
 62
4
  6
CONTINUOUS
 66
1
  0
VERTEX
  8
1
 10
203.635131188
 20
141.420289855
  0
VERTEX
  8
1
 10
203.935131188
 20
139.420289855
  0
VERTEX
  8
1
 10
204.235131188
 20
141.420289855
  0
SEQEND
  8
1
  0
LINE
  8
1
 62
4
  6
CONTINUOUS
 10
174.935131188
 20
139.420289855
 11
205.935131188
 21
139.420289855
  0
ENDBLK
  8
0
  0
BLOCK
  8
0
  2
*D18
 70
65
 10
0.000000000
 20
0.000000000
  3
*D
  0
TEXT
  8
1
 62
4
  6
CONTINUOUS
 72
5
 10
67.639042186
 20
121.625289855
 40
2.800000000
  1
(
 41
1.800001800
 11
69.319042186
 21
121.625289855
  0
TEXT
  8
1
 62
4
  6
CONTINUOUS
 72
5
 10
70.159042186
 20
121.625289855
 40
2.800000000
  1
6.1
 41
1.440000576
 11
76.879042186
 21
121.625289855
  0
TEXT
  8
1
 62
4
  6
CONTINUOUS
 72
5
 10
77.719042186
 20
121.625289855
 40
2.800000000
  1
)
 41
1.800001800
 11
79.399042186
 21
121.625289855
  0
LINE
  8
1
 62
4
  6
CONTINUOUS
 10
80.823594215
 20
156.345289855
 11
80.823594215
 21
117.420289855
  0
POLYLINE
  8
1
 62
4
  6
CONTINUOUS
 66
1
  0
VERTEX
  8
1
 10
78.823594215
 20
119.720289855
  0
VERTEX
  8
1
 10
80.823594215
 20
119.420289855
  0
SEQEND
  8
1
  0
POLYLINE
  8
1
 62
4
  6
CONTINUOUS
 66
1
  0
VERTEX
  8
1
 10
77.823594215
 20
119.420289855
  0
VERTEX
  8
1
 10
80.823594215
 20
119.420289855
  0
VERTEX
  8
1
 10
78.823594215
 20
119.120289855
  0
SEQEND
  8
1
  0
LINE
  8
1
 62
4
  6
CONTINUOUS
 10
80.823594215
 20
119.420289855
 11
86.935131188
 21
119.420289855
  0
POLYLINE
  8
1
 62
4
  6
CONTINUOUS
 66
1
  0
VERTEX
  8
1
 10
88.935131188
 20
119.120289855
  0
VERTEX
  8
1
 10
86.935131188
 20
119.420289855
  0
SEQEND
  8
1
  0
POLYLINE
  8
1
 62
4
  6
CONTINUOUS
 66
1
  0
VERTEX
  8
1
 10
89.935131188
 20
119.420289855
  0
VERTEX
  8
1
 10
86.935131188
 20
119.420289855
  0
VERTEX
  8
1
 10
88.935131188
 20
119.720289855
  0
SEQEND
  8
1
  0
LINE
  8
1
 62
4
  6
CONTINUOUS
 10
86.935131188
 20
147.420289855
 11
86.935131188
 21
117.420289855
  0
POLYLINE
  8
1
 62
4
  6
CONTINUOUS
 66
1
  0
VERTEX
  8
1
 10
80.823594215
 20
119.420289855
  0
VERTEX
  8
1
 10
65.639042186
 20
119.420289855
  0
SEQEND
  8
1
  0
ENDBLK
  8
0
  0
BLOCK
  8
0
  2
*D21
 70
65
 10
0.000000000
 20
0.000000000
  3
*D
  0
TEXT
  8
1
 62
4
  6
CONTINUOUS
 72
5
 10
178.823531188
 20
121.625289855
 40
2.800000000
  1
(
 41
1.800001800
 11
180.503531188
 21
121.625289855
  0
TEXT
  8
1
 62
4
  6
CONTINUOUS
 72
5
 10
181.343531188
 20
121.625289855
 40
2.800000000
  1
13
 41
1.124997750
 11
185.543531188
 21
121.625289855
  0
TEXT
  8
1
 62
4
  6
CONTINUOUS
 72
5
 10
186.383531188
 20
121.625289855
 40
2.800000000
  1
)
 41
1.800001800
 11
188.063531188
 21
121.625289855
  0
POLYLINE
  8
1
 62
4
  6
CONTINUOUS
 66
1
  0
VERTEX
  8
1
 10
178.935131188
 20
119.720289855
  0
VERTEX
  8
1
 10
176.935131188
 20
119.420289855
  0
VERTEX
  8
1
 10
178.935131188
 20
119.120289855
  0
SEQEND
  8
1
  0
LINE
  8
1
 62
4
  6
CONTINUOUS
 10
176.935131188
 20
119.420289855
 11
189.935131188
 21
119.420289855
  0
POLYLINE
  8
1
 62
4
  6
CONTINUOUS
 66
1
  0
VERTEX
  8
1
 10
187.935131188
 20
119.120289855
  0
VERTEX
  8
1
 10
189.935131188
 20
119.420289855
  0
VERTEX
  8
1
 10
187.935131188
 20
119.720289855
  0
SEQEND
  8
1
  0
LINE
  8
1
 62
4
  6
CONTINUOUS
 10
189.935131188
 20
150.370289855
 11
189.935131188
 21
117.420289855
  0
ENDBLK
  8
0
  0
BLOCK
  8
0
  2
*D27
 70
65
 10
0.000000000
 20
0.000000000
  3
*D
  0
TEXT
  8
1
 62
4
  6
CONTINUOUS
 72
5
 10
88.083531188
 20
121.625289855
 40
2.800000000
  1
(
 41
1.800001800
 11
89.763531188
 21
121.625289855
  0
TEXT
  8
1
 62
4
  6
CONTINUOUS
 72
5
 10
90.603531188
 20
121.625289855
 40
2.800000000
  1
9
 41
0.899996850
 11
92.283531188
 21
121.625289855
  0
TEXT
  8
1
 62
4
  6
CONTINUOUS
 72
5
 10
93.123531188
 20
121.625289855
 40
2.800000000
  1
)
 41
1.800001800
 11
94.803531188
 21
121.625289855
  0
LINE
  8
1
 62
4
  6
CONTINUOUS
 10
86.935131188
 20
147.420289855
 11
86.935131188
 21
117.420289855
  0
POLYLINE
  8
1
 62
4
  6
CONTINUOUS
 66
1
  0
VERTEX
  8
1
 10
84.935131188
 20
119.720289855
  0
VERTEX
  8
1
 10
86.935131188
 20
119.420289855
  0
SEQEND
  8
1
  0
POLYLINE
  8
1
 62
4
  6
CONTINUOUS
 66
1
  0
VERTEX
  8
1
 10
83.935131188
 20
119.420289855
  0
VERTEX
  8
1
 10
86.935131188
 20
119.420289855
  0
VERTEX
  8
1
 10
84.935131188
 20
119.120289855
  0
SEQEND
  8
1
  0
LINE
  8
1
 62
4
  6
CONTINUOUS
 10
86.935131188
 20
119.420289855
 11
95.935131188
 21
119.420289855
  0
POLYLINE
  8
1
 62
4
  6
CONTINUOUS
 66
1
  0
VERTEX
  8
1
 10
97.935131188
 20
119.120289855
  0
VERTEX
  8
1
 10
95.935131188
 20
119.420289855
  0
SEQEND
  8
1
  0
POLYLINE
  8
1
 62
4
  6
CONTINUOUS
 66
1
  0
VERTEX
  8
1
 10
98.935131188
 20
119.420289855
  0
VERTEX
  8
1
 10
95.935131188
 20
119.420289855
  0
VERTEX
  8
1
 10
97.935131188
 20
119.720289855
  0
SEQEND
  8
1
  0
LINE
  8
1
 62
4
  6
CONTINUOUS
 10
95.935131188
 20
139.420289855
 11
95.935131188
 21
117.420289855
  0
ENDBLK
  8
0
  0
BLOCK
  8
0
  2
*D30
 70
65
 10
0.000000000
 20
0.000000000
  3
*D
  0
TEXT
  8
1
 62
4
  6
CONTINUOUS
 72
5
 10
126.987762701
 20
113.625289855
 40
2.800000000
  1
(
 41
1.800001800
 11
128.667762701
 21
113.625289855
  0
TEXT
  8
1
 62
4
  6
CONTINUOUS
 72
5
 10
129.507762701
 20
113.625289855
 40
2.800000000
  1
109.1
 41
1.326316069
 11
141.267762701
 21
113.625289855
  0
TEXT
  8
1
 62
4
  6
CONTINUOUS
 72
5
 10
142.107762701
 20
113.625289855
 40
2.800000000
  1
)
 41
1.800001800
 11
143.787762701
 21
113.625289855
  0
LINE
  8
1
 62
4
  6
CONTINUOUS
 10
80.823594215
 20
156.345289855
 11
80.823594215
 21
109.420289855
  0
POLYLINE
  8
1
 62
4
  6
CONTINUOUS
 66
1
  0
VERTEX
  8
1
 10
82.823594215
 20
111.720289855
  0
VERTEX
  8
1
 10
80.823594215
 20
111.420289855
  0
VERTEX
  8
1
 10
82.823594215
 20
111.120289855
  0
SEQEND
  8
1
  0
LINE
  8
1
 62
4
  6
CONTINUOUS
 10
80.823594215
 20
111.420289855
 11
189.935131188
 21
111.420289855
  0
POLYLINE
  8
1
 62
4
  6
CONTINUOUS
 66
1
  0
VERTEX
  8
1
 10
187.935131188
 20
111.120289855
  0
VERTEX
  8
1
 10
189.935131188
 20
111.420289855
  0
VERTEX
  8
1
 10
187.935131188
 20
111.720289855
  0
SEQEND
  8
1
  0
LINE
  8
1
 62
4
  6
CONTINUOUS
 10
189.935131188
 20
150.370289855
 11
189.935131188
 21
109.420289855
  0
ENDBLK
  8
0
  0
ENDSEC
  0
SECTION
  2
ENTITIES
  0
LINE
  8
1
 62
7
  6
CONTINUOUS
 10
167.485131188
 20
192.620289855
 11
167.485131188
 21
186.866289855
  0
LINE
  8
1
 62
7
  6
CONTINUOUS
 10
168.235131188
 20
193.920289855
 11
168.235131188
 21
186.518186407
  0
LINE
  8
1
 62
7
  6
CONTINUOUS
 10
167.485131188
 20
186.866289855
 11
164.035131188
 21
186.866289855
  0
LINE
  8
1
 62
7
  6
CONTINUOUS
 10
170.385131188
 20
185.520289855
 11
167.485131188
 21
186.866289855
  0
LINE
  8
1
 62
7
  6
CONTINUOUS
 10
176.935131188
 20
169.520289855
 11
177.835131188
 21
169.520289855
  0
LINE
  8
1
 62
7
  6
CONTINUOUS
 10
189.835131188
 20
168.570289855
 11
189.935131188
 21
168.470289855
  0
LINE
  8
1
 62
7
  6
CONTINUOUS
 10
188.335131188
 20
168.570289855
 11
187.585131188
 21
169.320289855
  0
LINE
  8
1
 62
7
  6
CONTINUOUS
 10
177.835131188
 20
169.670289855
 11
177.835131188
 21
149.170289855
  0
LINE
  8
1
 62
7
  6
CONTINUOUS
 10
189.835131188
 20
168.570289855
 11
188.335131188
 21
168.570289855
  0
LINE
  8
1
 62
1
  6
CONTINUOUS
 10
183.735131188
 20
150.120289855
 11
182.735131188
 21
149.520289855
  0
LINE
  8
1
 62
1
  6
CENTER
 10
166.935131188
 20
190.720289856
 11
166.935131188
 21
177.420289855
  0
LINE
  8
1
 62
1
  6
CONTINUOUS
 10
188.185131188
 20
150.120289855
 11
183.735131188
 21
150.120289855
  0
LINE
  8
1
 62
7
  6
CONTINUOUS
 10
189.835131188
 20
168.570289855
 11
189.935131188
 21
168.470289855
  0
LINE
  8
1
 62
7
  6
CONTINUOUS
 10
182.385131188
 20
149.170289855
 11
182.735131188
 21
149.520289855
  0
DIMENSION
  8
1
 62
4
  6
CONTINUOUS
  2
*D15
 70
1
 10
65.885131188
 20
154.020289855
 11
65.885131188
 21
159.420289855
 14
85.134169293
 24
154.020289855
 13
85.134169293
 23
164.820289855
 50
90.000000000
  0
DIMENSION
  8
1
 62
4
  6
CONTINUOUS
  2
*D16
 70
0
 10
176.935131188
 20
119.420289855
 11
136.435131188
 21
119.420289855
 14
176.935131188
 24
141.420289855
 13
95.935131188
 23
139.420289855
 50
0.000000000
  0
DIMENSION
  8
1
 62
4
  6
CONTINUOUS
  2
*D17
 70
1
 10
203.935131188
 20
139.420289855
 11
203.935131188
 21
159.420289855
 14
174.935131188
 24
139.420289855
 13
174.935131188
 23
179.420289855
 50
90.000000000
  0
DIMENSION
  8
1
 62
4
  6
CONTINUOUS
  2
*D18
 70
0
 10
86.935131188
 20
119.420289855
 11
73.510642186
 21
119.420289855
 14
86.935131188
 24
147.420289855
 13
80.823594215
 23
156.345289855
 50
0.000000000
  0
LINE
  8
1
 62
7
  6
CONTINUOUS
 10
74.185131188
 20
161.007789855
 11
80.823594215
 21
161.007789855
  0
LINE
  8
1
 62
7
  6
CONTINUOUS
 10
80.823594215
 20
157.832789855
 11
74.185131188
 21
157.832789855
  0
DIMENSION
  8
1
 62
4
  6
CONTINUOUS
  2
*D21
 70
0
 10
189.935131188
 20
119.420289855
 11
183.435131188
 21
119.420289855
 14
189.935131188
 24
150.370289855
 13
176.935131188
 23
141.420289855
 50
0.000000000
  0
LINE
  8
1
 62
7
  6
CONTINUOUS
 10
73.885131188
 20
160.707789855
 11
73.885131188
 21
158.132789855
  0
LINE
  8
1
 62
7
  6
CONTINUOUS
 10
177.835131188
 20
169.670289855
 11
182.385131188
 21
169.670289855
  0
TEXT
  8
1
 62
3
  6
CONTINUOUS
 72
5
 10
109.579362701
 20
97.436289855
 40
4.000000000
  1
ＮＲ４０－５１００　ＡＴＣ
 41
0.834180548
 11
160.779362701
 21
97.436289855
  0
LINE
  8
1
 62
7
  6
CONTINUOUS
 10
182.735131188
 20
169.320289855
 11
187.585131188
 21
169.320289855
  0
LINE
  8
1
 62
7
  6
CONTINUOUS
 10
182.385131188
 20
169.670289855
 11
182.735131188
 21
169.320289855
  0
DIMENSION
  8
1
 62
4
  6
CONTINUOUS
  2
*D27
 70
0
 10
95.935131188
 20
119.420289855
 11
91.435131188
 21
119.420289855
 14
95.935131188
 24
139.420289855
 13
86.935131188
 23
147.420289855
 50
0.000000000
  0
ARC
  8
1
 62
7
  6
CONTINUOUS
 10
74.185131188
 20
158.132789855
 40
0.300000000
 50
180.000000000
 51
269.999999997
  0
ARC
  8
1
 62
7
  6
CONTINUOUS
 10
74.185131188
 20
160.707789855
 40
0.300000000
 50
90.000000000
 51
180.000000000
  0
DIMENSION
  8
1
 62
4
  6
CONTINUOUS
  2
*D30
 70
0
 10
189.935131188
 20
111.420289855
 11
135.379362701
 21
111.420289855
 14
189.935131188
 24
150.370289855
 13
80.823594215
 23
156.345289855
 50
0.000000000
  0
LINE
  8
1
 62
7
  6
CONTINUOUS
 10
174.935131188
 20
179.420289855
 11
176.935131188
 21
177.420289855
  0
LINE
  8
1
 62
4
  6
CONTINUOUS
 10
80.823594215
 20
161.906539259
 11
83.223594215
 21
159.659040451
  0
LINE
  8
1
 62
7
  6
CONTINUOUS
 10
83.935131188
 20
162.770289855
 11
83.223594215
 21
162.870289855
  0
LINE
  8
1
 62
7
  6
CONTINUOUS
 10
81.223594215
 20
156.320289855
 11
81.223594215
 21
157.483318451
  0
LINE
  8
1
 62
7
  6
CONTINUOUS
 10
81.223594215
 20
157.483318451
 11
83.223594215
 21
157.483318451
  0
LINE
  8
1
 62
7
  6
CONTINUOUS
 10
81.223594215
 20
157.916331153
 11
83.223594215
 21
157.916331153
  0
LINE
  8
1
 62
7
  6
CONTINUOUS
 10
80.823594215
 20
157.671373229
 11
81.223594215
 21
157.483318451
  0
LINE
  8
1
 62
7
  6
CONTINUOUS
 10
80.823594215
 20
158.104385931
 11
81.223594215
 21
157.916331153
  0
LINE
  8
1
 62
7
  6
CONTINUOUS
 10
83.223594215
 20
157.916331153
 11
83.935131187
 21
157.966497696
  0
LINE
  8
1
 62
7
  6
CONTINUOUS
 10
83.223594215
 20
157.483318451
 11
83.935131187
 21
157.533484994
  0
LINE
  8
1
 62
7
  6
CONTINUOUS
 10
82.823594215
 20
156.320289855
 11
82.823594215
 21
155.970289855
  0
LINE
  8
1
 62
7
  6
CONTINUOUS
 10
80.823594215
 20
156.345289855
 11
80.848594215
 21
156.320289855
  0
LINE
  8
1
 62
7
  6
CONTINUOUS
 10
80.823594215
 20
159.420289855
 11
80.823594215
 21
156.345289855
  0
LINE
  8
1
 62
7
  6
CONTINUOUS
 10
81.223594215
 20
157.916331153
 11
81.223594215
 21
159.659040451
  0
LINE
  8
1
 62
7
  6
CONTINUOUS
 10
95.935131188
 20
179.420289855
 11
174.935131188
 21
179.420289855
  0
LINE
  8
1
 62
7
  6
CONTINUOUS
 10
83.223594215
 20
157.483318451
 11
83.223594215
 21
155.970289855
  0
LINE
  8
1
 62
7
  6
CONTINUOUS
 10
80.823594215
 20
159.420289855
 11
80.823594215
 21
162.495289855
  0
LINE
  8
1
 62
7
  6
CONTINUOUS
 10
80.823594215
 20
162.495289855
 11
81.198594215
 21
162.870289855
  0
LINE
  8
1
 62
7
  6
CONTINUOUS
 10
82.823594215
 20
155.970289855
 11
83.223594215
 21
155.970289855
  0
LINE
  8
1
 62
7
  6
CONTINUOUS
 10
189.935131188
 20
168.470289855
 11
189.935131188
 21
150.370289855
  0
LINE
  8
1
 62
7
  6
CONTINUOUS
 10
182.735131188
 20
149.520289855
 11
187.585131188
 21
149.520289855
  0
LINE
  8
1
 62
7
  6
CONTINUOUS
 10
177.835131188
 20
149.170289855
 11
182.385131188
 21
149.170289855
  0
LINE
  8
1
 62
7
  6
CONTINUOUS
 10
86.935131187
 20
154.120289855
 11
86.835131187
 21
154.020289855
  0
LINE
  8
1
 62
1
  6
CENTER
 10
191.935131188
 20
159.420289855
 11
71.885131188
 21
159.420289855
  0
LINE
  8
1
 62
7
  6
CONTINUOUS
 10
85.134169293
 20
154.020289855
 11
85.134169293
 21
156.435327544
  0
POLYLINE
  8
1
 62
7
  6
CONTINUOUS
 66
1
  0
VERTEX
  8
1
 10
83.935131187
 20
158.037260902
  0
VERTEX
  8
1
 10
83.968243294
 20
157.973592372
 42
0.004087650
  0
VERTEX
  8
1
 10
84.037455291
 20
157.847941798
 42
0.003839095
  0
VERTEX
  8
1
 10
84.110410985
 20
157.724473858
 42
0.003588747
  0
VERTEX
  8
1
 10
84.186821288
 20
157.603109494
 42
0.003333192
  0
VERTEX
  8
1
 10
84.266386958
 20
157.483771206
 42
0.003073836
  0
VERTEX
  8
1
 10
84.348803514
 20
157.366382298
 42
0.002821375
  0
VERTEX
  8
1
 10
84.433798089
 20
157.250861226
 42
0.002624465
  0
VERTEX
  8
1
 10
84.521153359
 20
157.137117925
 42
0.002429660
  0
VERTEX
  8
1
 10
84.610664368
 20
157.025063074
 42
0.002259244
  0
VERTEX
  8
1
 10
84.702150853
 20
156.914613237
 42
0.002096195
  0
VERTEX
  8
1
 10
84.795439972
 20
156.805686566
 42
0.001946965
  0
VERTEX
  8
1
 10
84.890386121
 20
156.698204959
 42
0.001822795
  0
VERTEX
  8
1
 10
84.986864717
 20
156.592093198
 42
0.001696188
  0
VERTEX
  8
1
 10
85.084745496
 20
156.487275288
 42
0.001563904
  0
VERTEX
  8
1
 10
85.134169293
 20
156.435327544
  0
VERTEX
  8
1
 10
85.134169293
 20
156.435327544
  0
VERTEX
  8
1
 10
85.134169293
 20
156.435327544
  0
VERTEX
  8
1
 10
85.134169293
 20
156.435327544
  0
VERTEX
  8
1
 10
85.134169293
 20
156.435327544
  0
VERTEX
  8
1
 10
85.134169293
 20
156.435327544
  0
VERTEX
  8
1
 10
85.134169293
 20
156.435327544
  0
VERTEX
  8
1
 10
85.134169293
 20
156.435327544
  0
VERTEX
  8
1
 10
85.134169293
 20
156.435327544
  0
VERTEX
  8
1
 10
85.134169293
 20
156.435327544
  0
VERTEX
  8
1
 10
85.134169293
 20
156.435327544
  0
VERTEX
  8
1
 10
85.134169293
 20
156.435327544
  0
VERTEX
  8
1
 10
85.134169293
 20
156.435327544
  0
VERTEX
  8
1
 10
85.134169293
 20
156.435327544
  0
VERTEX
  8
1
 10
85.134169293
 20
156.435327544
  0
VERTEX
  8
1
 10
85.134169293
 20
156.435327544
  0
VERTEX
  8
1
 10
85.134169293
 20
156.435327544
  0
VERTEX
  8
1
 10
85.134169293
 20
156.435327544
  0
VERTEX
  8
1
 10
85.134169293
 20
156.435327544
  0
VERTEX
  8
1
 10
85.134169293
 20
156.435327544
  0
VERTEX
  8
1
 10
85.134169293
 20
156.435327544
  0
VERTEX
  8
1
 10
85.134169293
 20
156.435327544
  0
VERTEX
  8
1
 10
85.134169293
 20
156.435327544
  0
VERTEX
  8
1
 10
85.134169293
 20
156.435327544
  0
VERTEX
  8
1
 10
85.134169293
 20
156.435327544
  0
VERTEX
  8
1
 10
85.134169293
 20
156.435327544
  0
VERTEX
  8
1
 10
85.134169293
 20
156.435327544
  0
VERTEX
  8
1
 10
85.134169293
 20
156.435327544
  0
VERTEX
  8
1
 10
85.134169293
 20
156.435327544
  0
VERTEX
  8
1
 10
85.134169293
 20
156.435327544
  0
VERTEX
  8
1
 10
85.134169293
 20
156.435327544
  0
VERTEX
  8
1
 10
85.134169293
 20
156.435327544
  0
SEQEND
  8
1
  0
LINE
  8
1
 62
7
  6
CONTINUOUS
 10
86.435131187
 20
156.435327544
 11
85.134169293
 21
156.435327544
  0
LINE
  8
1
 62
7
  6
CONTINUOUS
 10
81.198594215
 20
162.870289855
 11
83.223594215
 21
162.870289855
  0
LINE
  8
1
 62
7
  6
CONTINUOUS
 10
174.935131188
 20
139.420289855
 11
176.935131188
 21
141.420289855
  0
LINE
  8
1
 62
7
  6
CONTINUOUS
 10
81.223594215
 20
159.659040451
 11
83.223594215
 21
159.659040451
  0
LINE
  8
1
 62
7
  6
CONTINUOUS
 10
176.935131188
 20
141.420289855
 11
176.935131188
 21
177.420289855
  0
LINE
  8
1
 62
7
  6
CONTINUOUS
 10
183.735131188
 20
169.320289855
 11
183.735131188
 21
149.520289855
  0
LINE
  8
1
 62
1
  6
CONTINUOUS
 10
188.185131188
 20
168.720289855
 11
183.735131188
 21
168.720289855
  0
LINE
  8
1
 62
7
  6
CONTINUOUS
 10
80.848594215
 20
156.320289855
 11
82.823594215
 21
156.320289855
  0
LINE
  8
1
 62
7
  6
CONTINUOUS
 10
81.198594215
 20
162.281539259
 11
81.198594215
 21
162.870289855
  0
LINE
  8
1
 62
7
  6
CONTINUOUS
 10
86.935131187
 20
164.720289855
 11
86.935131187
 21
154.120289855
  0
LINE
  8
1
 62
7
  6
CONTINUOUS
 10
95.935131188
 20
139.420289855
 11
95.935131188
 21
179.420289855
  0
LINE
  8
1
 62
7
  6
CONTINUOUS
 10
83.223594215
 20
162.870289855
 11
83.223594215
 21
157.916331153
  0
LINE
  8
1
 62
7
  6
CONTINUOUS
 10
86.435131187
 20
156.435327544
 11
86.435131187
 21
162.405252166
  0
LINE
  8
3
 62
7
  6
CONTINUOUS
 10
86.835131187
 20
154.020289855
 11
85.134169293
 21
154.020289855
  0
LINE
  8
3
 62
7
  6
CONTINUOUS
 10
83.935131187
 20
154.712554828
 11
83.935131188
 21
164.128024882
  0
LINE
  8
3
 62
7
  6
CONTINUOUS
 10
83.935131187
 20
154.712554828
 11
85.134169293
 21
154.020289855
  0
LINE
  8
1
 62
7
  6
CONTINUOUS
 10
95.935131188
 20
139.420289855
 11
174.935131188
 21
139.420289855
  0
LINE
  8
1
 62
7
  6
CONTINUOUS
 10
94.935131188
 20
139.420289855
 11
94.935131188
 21
179.420289855
  0
LINE
  8
1
 62
7
  6
CONTINUOUS
 10
83.935131187
 20
156.070289855
 11
83.223594215
 21
155.970289855
  0
LINE
  8
1
 62
7
  6
CONTINUOUS
 10
80.823594215
 20
161.906539259
 11
81.198594215
 21
162.281539259
  0
LINE
  8
1
 62
7
  6
CONTINUOUS
 10
80.823594215
 20
160.059040451
 11
81.223594215
 21
159.659040451
  0
LINE
  8
1
 62
7
  6
CONTINUOUS
 10
81.198594215
 20
162.281539259
 11
83.223594215
 21
162.281539259
  0
LINE
  8
1
 62
4
  6
CONTINUOUS
 10
83.223594215
 20
162.281539259
 11
80.823594215
 21
160.059040451
  0
LINE
  8
1
 62
7
  6
CONTINUOUS
 10
174.935131188
 20
139.420289855
 11
174.935131188
 21
179.420289855
  0
LINE
  8
1
 62
7
  6
CONTINUOUS
 10
86.935131187
 20
159.420289855
 11
86.935131188
 21
147.420289855
  0
LINE
  8
1
 62
7
  6
CONTINUOUS
 10
86.935131188
 20
147.420289855
 11
94.935131188
 21
139.420289855
  0
LINE
  8
1
 62
4
  6
CONTINUOUS
 10
83.935131187
 20
160.803318808
 11
86.435131187
 21
156.435327544
  0
LINE
  8
1
 62
7
  6
CONTINUOUS
 10
94.935131188
 20
139.420289855
 11
95.935131188
 21
139.420289855
  0
LINE
  8
3
 62
7
  6
CONTINUOUS
 10
83.935131188
 20
164.128024882
 11
85.134169293
 21
164.820289855
  0
LINE
  8
3
 62
7
  6
CONTINUOUS
 10
86.835131187
 20
164.820289855
 11
85.134169293
 21
164.820289855
  0
LINE
  8
1
 62
4
  6
CONTINUOUS
 10
86.435131187
 20
162.405252166
 11
83.935131187
 21
158.037260902
  0
LINE
  8
1
 62
7
  6
CONTINUOUS
 10
86.435131187
 20
162.405252166
 11
85.134169293
 21
162.405252166
  0
POLYLINE
  8
1
 62
7
  6
CONTINUOUS
 66
1
  0
VERTEX
  8
1
 10
83.935131187
 20
160.803318808
  0
VERTEX
  8
1
 10
83.968243294
 20
160.866987338
 42
-0.004087649
  0
VERTEX
  8
1
 10
84.037455291
 20
160.992637912
 42
-0.003839095
  0
VERTEX
  8
1
 10
84.110410985
 20
161.116105852
 42
-0.003588747
  0
VERTEX
  8
1
 10
84.186821288
 20
161.237470217
 42
-0.003333192
  0
VERTEX
  8
1
 10
84.266386958
 20
161.356808504
 42
-0.003073837
  0
VERTEX
  8
1
 10
84.348803514
 20
161.474197412
 42
-0.002821375
  0
VERTEX
  8
1
 10
84.433798089
 20
161.589718484
 42
-0.002624465
  0
VERTEX
  8
1
 10
84.521153359
 20
161.703461785
 42
-0.002429659
  0
VERTEX
  8
1
 10
84.610664368
 20
161.815516636
 42
-0.002259245
  0
VERTEX
  8
1
 10
84.702150853
 20
161.925966474
 42
-0.002096195
  0
VERTEX
  8
1
 10
84.795439972
 20
162.034893144
 42
-0.001946966
  0
VERTEX
  8
1
 10
84.890386121
 20
162.142374752
 42
-0.001822795
  0
VERTEX
  8
1
 10
84.986864717
 20
162.248486512
 42
-0.001696188
  0
VERTEX
  8
1
 10
85.084745496
 20
162.353304422
 42
-0.001563905
  0
VERTEX
  8
1
 10
85.134169293
 20
162.405252166
  0
VERTEX
  8
1
 10
85.134169293
 20
162.405252166
  0
VERTEX
  8
1
 10
85.134169293
 20
162.405252166
  0
VERTEX
  8
1
 10
85.134169293
 20
162.405252166
  0
VERTEX
  8
1
 10
85.134169293
 20
162.405252166
  0
VERTEX
  8
1
 10
85.134169293
 20
162.405252166
  0
VERTEX
  8
1
 10
85.134169293
 20
162.405252166
  0
VERTEX
  8
1
 10
85.134169293
 20
162.405252166
  0
VERTEX
  8
1
 10
85.134169293
 20
162.405252166
  0
VERTEX
  8
1
 10
85.134169293
 20
162.405252166
  0
VERTEX
  8
1
 10
85.134169293
 20
162.405252166
  0
VERTEX
  8
1
 10
85.134169293
 20
162.405252166
  0
VERTEX
  8
1
 10
85.134169293
 20
162.405252166
  0
VERTEX
  8
1
 10
85.134169293
 20
162.405252166
  0
VERTEX
  8
1
 10
85.134169293
 20
162.405252166
  0
VERTEX
  8
1
 10
85.134169293
 20
162.405252166
  0
VERTEX
  8
1
 10
85.134169293
 20
162.405252166
  0
VERTEX
  8
1
 10
85.134169293
 20
162.405252166
  0
VERTEX
  8
1
 10
85.134169293
 20
162.405252166
  0
VERTEX
  8
1
 10
85.134169293
 20
162.405252166
  0
VERTEX
  8
1
 10
85.134169293
 20
162.405252166
  0
VERTEX
  8
1
 10
85.134169293
 20
162.405252166
  0
VERTEX
  8
1
 10
85.134169293
 20
162.405252166
  0
VERTEX
  8
1
 10
85.134169293
 20
162.405252166
  0
VERTEX
  8
1
 10
85.134169293
 20
162.405252166
  0
VERTEX
  8
1
 10
85.134169293
 20
162.405252166
  0
VERTEX
  8
1
 10
85.134169293
 20
162.405252166
  0
VERTEX
  8
1
 10
85.134169293
 20
162.405252166
  0
VERTEX
  8
1
 10
85.134169293
 20
162.405252166
  0
VERTEX
  8
1
 10
85.134169293
 20
162.405252166
  0
VERTEX
  8
1
 10
85.134169293
 20
162.405252166
  0
VERTEX
  8
1
 10
85.134169293
 20
162.405252166
  0
SEQEND
  8
1
  0
LINE
  8
1
 62
7
  6
CONTINUOUS
 10
85.134169293
 20
164.820289855
 11
85.134169293
 21
162.405252166
  0
LINE
  8
1
 62
7
  6
CONTINUOUS
 10
86.935131187
 20
159.420289855
 11
86.935131188
 21
171.420289855
  0
LINE
  8
1
 62
7
  6
CONTINUOUS
 10
86.935131188
 20
171.420289855
 11
94.935131188
 21
179.420289855
  0
LINE
  8
1
 62
7
  6
CONTINUOUS
 10
86.935131187
 20
164.720289855
 11
86.835131187
 21
164.820289855
  0
LINE
  8
1
 62
7
  6
CONTINUOUS
 10
94.935131188
 20
179.420289855
 11
95.935131188
 21
179.420289855
  0
LINE
  8
1
 62
7
  6
CONTINUOUS
 10
95.935131188
 20
179.420289855
 11
95.935131188
 21
139.420289855
  0
LINE
  8
1
 62
7
  6
CONTINUOUS
 10
164.914131188
 20
184.520289855
 11
164.914131188
 21
179.520289855
  0
LINE
  8
1
 62
7
  6
CONTINUOUS
 10
168.956131188
 20
184.520289855
 11
168.956131188
 21
179.520289855
  0
ARC
  8
1
 62
7
  6
CONTINUOUS
 10
166.935131188
 20
189.720289855
 40
2.900000000
 50
90.000000000
 51
180.000000000
  0
LINE
  8
1
 62
7
  6
CONTINUOUS
 10
162.894131188
 20
179.520289855
 11
170.977131188
 21
179.520289855
  0
LINE
  8
1
 62
7
  6
CONTINUOUS
 10
170.977131188
 20
184.520289855
 11
162.894131188
 21
184.520289855
  0
LINE
  8
1
 62
7
  6
CONTINUOUS
 10
162.894131188
 20
184.520289855
 11
162.894131188
 21
179.520289855
  0
LINE
  8
1
 62
7
  6
CONTINUOUS
 10
163.485131188
 20
179.420289855
 11
163.485131188
 21
179.520289855
  0
LINE
  8
1
 62
7
  6
CONTINUOUS
 10
163.435131188
 20
186.520289855
 11
164.035131188
 21
186.866289855
  0
LINE
  8
1
 62
7
  6
CONTINUOUS
 10
163.435131188
 20
186.520289855
 11
163.435131188
 21
184.520289855
  0
LINE
  8
1
 62
7
  6
CONTINUOUS
 10
164.035131188
 20
189.720289855
 11
164.035131188
 21
186.866289855
  0
LINE
  8
1
 62
7
  6
CONTINUOUS
 10
180.885131188
 20
192.858289855
 11
181.485131188
 21
192.858289855
  0
LINE
  8
1
 62
7
  6
CONTINUOUS
 10
180.885131188
 20
186.582289855
 11
181.485131188
 21
186.582289855
  0
LINE
  8
1
 62
7
  6
CONTINUOUS
 10
170.977131188
 20
179.520289855
 11
170.977131188
 21
184.520289855
  0
LINE
  8
1
 62
7
  6
CONTINUOUS
 10
170.385131188
 20
184.520289855
 11
170.385131188
 21
185.520289855
  0
LINE
  8
1
 62
7
  6
CONTINUOUS
 10
170.385131188
 20
179.420289855
 11
170.385131188
 21
179.520289855
  0
LINE
  8
1
 62
7
  6
CONTINUOUS
 10
170.385131188
 20
185.520289855
 11
170.485131188
 21
185.520289855
  0
LINE
  8
1
 62
7
  6
CONTINUOUS
 10
171.408131188
 20
183.920289855
 11
180.885131188
 21
183.920289855
  0
LINE
  8
1
 62
7
  6
CONTINUOUS
 10
171.408131188
 20
195.520289855
 11
180.885131188
 21
195.520289855
  0
LINE
  8
1
 62
7
  6
CONTINUOUS
 10
180.885131188
 20
183.920289855
 11
180.885131188
 21
195.520289855
  0
LINE
  8
1
 62
7
  6
CONTINUOUS
 10
171.408131188
 20
183.920289855
 11
170.485131188
 21
185.520289855
  0
LINE
  8
1
 62
7
  6
CONTINUOUS
 10
170.485131188
 20
193.920289855
 11
168.235131188
 21
193.920289855
  0
LINE
  8
1
 62
7
  6
CONTINUOUS
 10
171.408131188
 20
195.520289855
 11
170.485131188
 21
193.920289855
  0
LINE
  8
1
 62
7
  6
CONTINUOUS
 10
168.235131188
 20
193.920289855
 11
167.485131188
 21
192.620289855
  0
LINE
  8
1
 62
7
  6
CONTINUOUS
 10
166.935131188
 20
192.620289855
 11
167.485131188
 21
192.620289855
  0
LINE
  8
1
 62
1
  6
CENTER
 10
184.985131188
 20
189.720289856
 11
165.935131188
 21
189.720289856
  0
LINE
  8
1
 62
7
  6
CONTINUOUS
 10
182.985131188
 20
195.420289855
 11
181.485131188
 21
195.420289855
  0
LINE
  8
1
 62
7
  6
CONTINUOUS
 10
182.985131188
 20
184.020289855
 11
182.985131188
 21
195.420289855
  0
LINE
  8
1
 62
7
  6
CONTINUOUS
 10
181.485131188
 20
184.020289855
 11
181.485131188
 21
195.420289855
  0
LINE
  8
1
 62
7
  6
CONTINUOUS
 10
182.985131188
 20
184.020289855
 11
181.485131188
 21
184.020289855
  0
LINE
  8
1
 62
7
  6
CONTINUOUS
 10
171.408131188
 20
195.520289855
 11
171.408131188
 21
183.920289855
  0
LINE
  8
1
 62
7
  6
CONTINUOUS
 10
170.485131188
 20
193.920289855
 11
170.485131188
 21
185.520289855
  0
LINE
  8
1
 62
7
  6
CONTINUOUS
 10
168.230599241
 20
186.520289855
 11
163.435131188
 21
186.520289855
  0
LINE
  8
1
 62
7
  6
CONTINUOUS
 10
189.835131188
 20
150.270289855
 11
189.935131188
 21
150.370289855
  0
LINE
  8
1
 62
7
  6
CONTINUOUS
 10
189.835131188
 20
150.270289855
 11
188.335131188
 21
150.270289855
  0
LINE
  8
1
 62
7
  6
CONTINUOUS
 10
188.335131188
 20
150.270289855
 11
187.585131188
 21
149.520289855
  0
LINE
  8
1
 62
7
  6
CONTINUOUS
 10
187.585131188
 20
169.320289855
 11
187.585131188
 21
149.520289855
  0
LINE
  8
1
 62
7
  6
CONTINUOUS
 10
188.335131188
 20
168.570289855
 11
188.335131188
 21
150.270289855
  0
LINE
  8
1
 62
7
  6
CONTINUOUS
 10
189.835131188
 20
150.270289855
 11
189.935131188
 21
150.370289855
  0
LINE
  8
1
 62
7
  6
CONTINUOUS
 10
182.385131188
 20
169.670289855
 11
182.385131188
 21
149.170289855
  0
LINE
  8
1
 62
7
  6
CONTINUOUS
 10
182.735131188
 20
169.320289855
 11
182.735131188
 21
149.520289855
  0
LINE
  8
1
 62
1
  6
CONTINUOUS
 10
183.735131188
 20
168.720289855
 11
182.735131188
 21
169.320289855
  0
LINE
  8
1
 62
7
  6
CONTINUOUS
 10
176.935131188
 20
149.320289855
 11
177.835131188
 21
149.320289855
  0
ENDSEC
  0
EOF
