  0
SECTION
  2
HEADER
  9
$ACADVER
  1
AC1009
  9
$INSBASE
 10
0.000000000
 20
0.000000000
  9
$EXTMIN
 10
-17.478737738
 20
-21.718695652
  9
$EXTMAX
 10
192.266115114
 20
238.905652173
  9
$LIMMIN
 10
-17.478737738
 20
-21.718695652
  9
$LIMMAX
 10
192.266115114
 20
238.905652173
  9
$SNAPBASE
 10
0.000000000
 20
0.000000000
  9
$SNAPANG
 50
0.000000000
  9
$SNAPSTYLE
 70
0
  9
$GRIDMODE
 70
0
  9
$GRIDUNIT
 10
0.000000000
 20
0.000000000
  9
$DIMEXO
 40
0.000000000
  9
$DIMDLI
 40
8.000000000
  9
$DIMDLE
 40
0.000000000
  9
$DIMEXE
 40
1.000000000
  9
$DIMTIH
 70
1
  9
$DIMTOH
 70
1
  9
$DIMTAD
 70
2
  9
$DIMZIN
 70
0
  9
$FILLETRAD
 40
1.000000000
  9
$CHAMFERA
 40
1.000000000
  9
$CHAMFERB
 40
1.000000000
  9
$TDCREATE
 40
2454558.761226852
  9
$TDUPDATE
 40
2454558.761226852
  9
$ANGBASE
 50
0.000000000
  9
$ANGDIR
 70
0
  0
ENDSEC
  0
SECTION
  2
TABLES
  0
TABLE
  2
LTYPE
 70
3
  0
LTYPE
  2
CENTER
 70
64
  3
___ _ ___ _ __
 72
65
 73
4
 40
13.000000000
 49
8.500000000
 49
-1.500000000
 49
1.500000000
 49
-1.500000000
  0
LTYPE
  2
CONTINUOUS
 70
64
  3
______________
 72
65
 73
0
 40
0.000000000
  0
LTYPE
  2
DIVIDE
 70
64
  3
___ . . ___ . 
 72
65
 73
6
 40
12.999999523
 49
5.199999809
 49
-2.599999905
 49
0.000000000
 49
-2.599999905
 49
0.000000000
 49
-2.599999905
  0
ENDTAB
  0
TABLE
  2
LAYER
 70
1
  0
LAYER
  2
1
 70
0
 62
7
  6
CONTINUOUS
999
Comment001
  0
LAYER
  2
_CONSTR
 70
0
 62
5
  6
CONTINUOUS
  0
ENDTAB
  0
TABLE
  2
STYLE
 70
1
  0
STYLE
  2
STANDARD
 70
64
 40
0.000000000
 41
1.000000000
 50
0.000000000
 71
0
 42
3.200000000
  3
TXT
  4
EXTFONT
  0
ENDTAB
  0
TABLE
  2
VIEW
 70
0
  0
ENDTAB
  0
ENDSEC
  0
SECTION
  2
BLOCKS
  0
BLOCK
  8
0
  2
*D92
 70
65
 10
0.000000000
 20
0.000000000
  3
*D
  0
TEXT
  8
1
 62
4
  6
CONTINUOUS
 72
5
 10
12.636304348
 20
168.955356522
 40
2.800000000
  1
φ
 41
1.270648030
 50
90.000000000
 11
12.636304348
 21
172.315356522
  0
TEXT
  8
1
 62
4
  6
CONTINUOUS
 72
5
 10
12.636304348
 20
173.995356522
 40
2.800000000
  1
15.8
 41
1.237498917
 50
90.000000000
 11
12.636304348
 21
183.235356522
  0
LINE
  8
1
 62
4
  6
CONTINUOUS
 10
37.603739913
 20
183.986956522
 11
12.841304348
 21
183.986956522
  0
POLYLINE
  8
1
 62
4
  6
CONTINUOUS
 66
1
  0
VERTEX
  8
1
 10
15.141304348
 20
181.986956522
  0
VERTEX
  8
1
 10
14.841304348
 20
183.986956522
  0
VERTEX
  8
1
 10
14.541304348
 20
181.986956522
  0
SEQEND
  8
1
  0
LINE
  8
1
 62
4
  6
CONTINUOUS
 10
14.841304348
 20
183.986956522
 11
14.841304348
 21
168.186956522
  0
POLYLINE
  8
1
 62
4
  6
CONTINUOUS
 66
1
  0
VERTEX
  8
1
 10
14.541304348
 20
170.186956522
  0
VERTEX
  8
1
 10
14.841304348
 20
168.186956522
  0
VERTEX
  8
1
 10
15.141304348
 20
170.186956522
  0
SEQEND
  8
1
  0
LINE
  8
1
 62
4
  6
CONTINUOUS
 10
37.603739913
 20
168.186956522
 11
12.841304348
 21
168.186956522
  0
ENDBLK
  8
0
  0
BLOCK
  8
0
  2
*D93
 70
65
 10
0.000000000
 20
0.000000000
  3
*D
  0
TEXT
  8
1
 62
4
  6
CONTINUOUS
 72
5
 10
4.636304348
 20
168.955356522
 40
2.800000000
  1
φ
 41
1.270648030
 50
90.000000000
 11
4.636304348
 21
172.315356522
  0
TEXT
  8
1
 62
4
  6
CONTINUOUS
 72
5
 10
4.636304348
 20
173.995356522
 40
2.800000000
  1
20.9
 41
1.164705197
 50
90.000000000
 11
4.636304348
 21
183.235356522
  0
LINE
  8
1
 62
4
  6
CONTINUOUS
 10
41.591304348
 20
186.536956522
 11
4.841304348
 21
186.536956522
  0
POLYLINE
  8
1
 62
4
  6
CONTINUOUS
 66
1
  0
VERTEX
  8
1
 10
7.141304348
 20
184.536956522
  0
VERTEX
  8
1
 10
6.841304348
 20
186.536956522
  0
VERTEX
  8
1
 10
6.541304348
 20
184.536956522
  0
SEQEND
  8
1
  0
LINE
  8
1
 62
4
  6
CONTINUOUS
 10
6.841304348
 20
186.536956522
 11
6.841304348
 21
165.636956522
  0
POLYLINE
  8
1
 62
4
  6
CONTINUOUS
 66
1
  0
VERTEX
  8
1
 10
6.541304348
 20
167.636956522
  0
VERTEX
  8
1
 10
6.841304348
 20
165.636956522
  0
VERTEX
  8
1
 10
7.141304348
 20
167.636956522
  0
SEQEND
  8
1
  0
LINE
  8
1
 62
4
  6
CONTINUOUS
 10
41.591304348
 20
165.636956522
 11
4.841304348
 21
165.636956522
  0
ENDBLK
  8
0
  0
BLOCK
  8
0
  2
*D94
 70
65
 10
0.000000000
 20
0.000000000
  3
*D
  0
TEXT
  8
1
 62
4
  6
CONTINUOUS
 72
5
 10
20.068960730
 20
141.291956522
 40
2.800000000
  1
(
 41
1.800001800
 11
21.748960730
 21
141.291956522
  0
TEXT
  8
1
 62
4
  6
CONTINUOUS
 72
5
 10
22.588960730
 20
141.291956522
 40
2.800000000
  1
8.6
 41
1.199998800
 11
29.308960730
 21
141.291956522
  0
TEXT
  8
1
 62
4
  6
CONTINUOUS
 72
5
 10
30.148960730
 20
141.291956522
 40
2.800000000
  1
)
 41
1.800001800
 11
31.828960730
 21
141.291956522
  0
LINE
  8
1
 62
4
  6
CONTINUOUS
 10
32.841304348
 20
171.586956522
 11
32.841304348
 21
137.086956522
  0
POLYLINE
  8
1
 62
4
  6
CONTINUOUS
 66
1
  0
VERTEX
  8
1
 10
30.841304348
 20
139.386956522
  0
VERTEX
  8
1
 10
32.841304348
 20
139.086956522
  0
SEQEND
  8
1
  0
POLYLINE
  8
1
 62
4
  6
CONTINUOUS
 66
1
  0
VERTEX
  8
1
 10
29.841304348
 20
139.086956522
  0
VERTEX
  8
1
 10
32.841304348
 20
139.086956522
  0
VERTEX
  8
1
 10
30.841304348
 20
138.786956522
  0
SEQEND
  8
1
  0
LINE
  8
1
 62
4
  6
CONTINUOUS
 10
32.841304348
 20
139.086956522
 11
41.391304348
 21
139.086956522
  0
POLYLINE
  8
1
 62
4
  6
CONTINUOUS
 66
1
  0
VERTEX
  8
1
 10
43.391304348
 20
138.786956522
  0
VERTEX
  8
1
 10
41.391304348
 20
139.086956522
  0
SEQEND
  8
1
  0
POLYLINE
  8
1
 62
4
  6
CONTINUOUS
 66
1
  0
VERTEX
  8
1
 10
44.391304348
 20
139.086956522
  0
VERTEX
  8
1
 10
41.391304348
 20
139.086956522
  0
VERTEX
  8
1
 10
43.391304348
 20
139.386956522
  0
SEQEND
  8
1
  0
LINE
  8
1
 62
4
  6
CONTINUOUS
 10
41.391304348
 20
165.836956522
 11
41.391304348
 21
137.086956522
  0
POLYLINE
  8
1
 62
4
  6
CONTINUOUS
 66
1
  0
VERTEX
  8
1
 10
32.841304348
 20
139.086956522
  0
VERTEX
  8
1
 10
18.068960730
 20
139.086956522
  0
SEQEND
  8
1
  0
ENDBLK
  8
0
  0
BLOCK
  8
0
  2
*D95
 70
65
 10
0.000000000
 20
0.000000000
  3
*D
  0
TEXT
  8
1
 62
4
  6
CONTINUOUS
 72
5
 10
172.582377376
 20
168.123756522
 40
2.800000000
  1
φ
 41
1.270648030
 50
90.000000000
 11
172.582377376
 21
171.483756522
  0
TEXT
  8
1
 62
4
  6
CONTINUOUS
 72
5
 10
172.582377376
 20
173.163756522
 40
2.800000000
  1
50
 41
1.000000667
 50
90.000000000
 11
172.582377376
 21
177.363756522
  0
TEXT
  8
1
 62
4
  6
CONTINUOUS
 72
5
 10
170.818377376
 20
178.203756522
 40
1.400000000
  1
 0
 41
2.333335926
 50
90.000000000
 11
170.818377376
 21
181.143756522
  0
TEXT
  8
1
 62
4
  6
CONTINUOUS
 72
5
 10
172.960377376
 20
178.203756522
 40
1.400000000
  1
-0.01
 41
1.710000684
 50
90.000000000
 11
172.960377376
 21
186.183756522
  0
LINE
  8
1
 62
4
  6
CONTINUOUS
 10
146.391304348
 20
201.086956522
 11
176.787377376
 21
201.086956522
  0
POLYLINE
  8
1
 62
4
  6
CONTINUOUS
 66
1
  0
VERTEX
  8
1
 10
175.087377376
 20
199.086956522
  0
VERTEX
  8
1
 10
174.787377376
 20
201.086956522
  0
VERTEX
  8
1
 10
174.487377376
 20
199.086956522
  0
SEQEND
  8
1
  0
LINE
  8
1
 62
4
  6
CONTINUOUS
 10
174.787377376
 20
201.086956522
 11
174.787377376
 21
151.086956522
  0
POLYLINE
  8
1
 62
4
  6
CONTINUOUS
 66
1
  0
VERTEX
  8
1
 10
174.487377376
 20
153.086956522
  0
VERTEX
  8
1
 10
174.787377376
 20
151.086956522
  0
VERTEX
  8
1
 10
175.087377376
 20
153.086956522
  0
SEQEND
  8
1
  0
LINE
  8
1
 62
4
  6
CONTINUOUS
 10
146.391304348
 20
151.086956522
 11
176.787377376
 21
151.086956522
  0
ENDBLK
  8
0
  0
BLOCK
  8
0
  2
*D96
 70
65
 10
0.000000000
 20
0.000000000
  3
*D
  0
TEXT
  8
1
 62
4
  6
CONTINUOUS
 72
5
 10
150.279704348
 20
133.291956522
 40
2.800000000
  1
(
 41
1.800001800
 11
151.959704348
 21
133.291956522
  0
TEXT
  8
1
 62
4
  6
CONTINUOUS
 72
5
 10
152.799704348
 20
133.291956522
 40
2.800000000
  1
13
 41
1.124997750
 11
156.999704348
 21
133.291956522
  0
TEXT
  8
1
 62
4
  6
CONTINUOUS
 72
5
 10
157.839704348
 20
133.291956522
 40
2.800000000
  1
)
 41
1.800001800
 11
159.519704348
 21
133.291956522
  0
POLYLINE
  8
1
 62
4
  6
CONTINUOUS
 66
1
  0
VERTEX
  8
1
 10
150.391304348
 20
131.386956522
  0
VERTEX
  8
1
 10
148.391304348
 20
131.086956522
  0
VERTEX
  8
1
 10
150.391304348
 20
130.786956522
  0
SEQEND
  8
1
  0
LINE
  8
1
 62
4
  6
CONTINUOUS
 10
148.391304348
 20
131.086956522
 11
161.391304348
 21
131.086956522
  0
POLYLINE
  8
1
 62
4
  6
CONTINUOUS
 66
1
  0
VERTEX
  8
1
 10
159.391304348
 20
130.786956522
  0
VERTEX
  8
1
 10
161.391304348
 20
131.086956522
  0
VERTEX
  8
1
 10
159.391304348
 20
131.386956522
  0
SEQEND
  8
1
  0
LINE
  8
1
 62
4
  6
CONTINUOUS
 10
161.391304348
 20
167.036956522
 11
161.391304348
 21
129.086956522
  0
ENDBLK
  8
0
  0
BLOCK
  8
0
  2
*D97
 70
65
 10
0.000000000
 20
0.000000000
  3
*D
  0
TEXT
  8
1
 62
4
  6
CONTINUOUS
 72
5
 10
97.299704348
 20
133.291956522
 40
2.800000000
  1
98
 41
0.899998740
 11
101.499704348
 21
133.291956522
  0
POLYLINE
  8
1
 62
4
  6
CONTINUOUS
 66
1
  0
VERTEX
  8
1
 10
52.391304348
 20
131.386956522
  0
VERTEX
  8
1
 10
50.391304348
 20
131.086956522
  0
VERTEX
  8
1
 10
52.391304348
 20
130.786956522
  0
SEQEND
  8
1
  0
LINE
  8
1
 62
4
  6
CONTINUOUS
 10
50.391304348
 20
131.086956522
 11
148.391304348
 21
131.086956522
  0
POLYLINE
  8
1
 62
4
  6
CONTINUOUS
 66
1
  0
VERTEX
  8
1
 10
146.391304348
 20
130.786956522
  0
VERTEX
  8
1
 10
148.391304348
 20
131.086956522
  0
VERTEX
  8
1
 10
146.391304348
 20
131.386956522
  0
SEQEND
  8
1
  0
LINE
  8
1
 62
4
  6
CONTINUOUS
 10
148.391304348
 20
153.086956522
 11
148.391304348
 21
129.086956522
  0
ENDBLK
  8
0
  0
BLOCK
  8
0
  2
*D98
 70
65
 10
0.000000000
 20
0.000000000
  3
*D
  0
TEXT
  8
1
 62
4
  6
CONTINUOUS
 72
5
 10
43.039704348
 20
133.291956522
 40
2.800000000
  1
(
 41
1.800001800
 11
44.719704348
 21
133.291956522
  0
TEXT
  8
1
 62
4
  6
CONTINUOUS
 72
5
 10
45.559704348
 20
133.291956522
 40
2.800000000
  1
8
 41
0.899996850
 11
47.239704348
 21
133.291956522
  0
TEXT
  8
1
 62
4
  6
CONTINUOUS
 72
5
 10
48.079704348
 20
133.291956522
 40
2.800000000
  1
)
 41
1.800001800
 11
49.759704348
 21
133.291956522
  0
POLYLINE
  8
1
 62
4
  6
CONTINUOUS
 66
1
  0
VERTEX
  8
1
 10
40.391304348
 20
131.386956522
  0
VERTEX
  8
1
 10
42.391304348
 20
131.086956522
  0
SEQEND
  8
1
  0
POLYLINE
  8
1
 62
4
  6
CONTINUOUS
 66
1
  0
VERTEX
  8
1
 10
39.391304348
 20
131.086956522
  0
VERTEX
  8
1
 10
42.391304348
 20
131.086956522
  0
VERTEX
  8
1
 10
40.391304348
 20
130.786956522
  0
SEQEND
  8
1
  0
LINE
  8
1
 62
4
  6
CONTINUOUS
 10
42.391304348
 20
131.086956522
 11
50.391304348
 21
131.086956522
  0
POLYLINE
  8
1
 62
4
  6
CONTINUOUS
 66
1
  0
VERTEX
  8
1
 10
52.391304348
 20
130.786956522
  0
VERTEX
  8
1
 10
50.391304348
 20
131.086956522
  0
SEQEND
  8
1
  0
POLYLINE
  8
1
 62
4
  6
CONTINUOUS
 66
1
  0
VERTEX
  8
1
 10
53.391304348
 20
131.086956522
  0
VERTEX
  8
1
 10
50.391304348
 20
131.086956522
  0
VERTEX
  8
1
 10
52.391304348
 20
131.386956522
  0
SEQEND
  8
1
  0
LINE
  8
1
 62
4
  6
CONTINUOUS
 10
50.391304348
 20
151.186956522
 11
50.391304348
 21
129.086956522
  0
ENDBLK
  8
0
  0
BLOCK
  8
0
  2
*D99
 70
65
 10
0.000000000
 20
0.000000000
  3
*D
  0
TEXT
  8
1
 62
4
  6
CONTINUOUS
 72
5
 10
20.068960730
 20
133.291956522
 40
2.800000000
  1
(
 41
1.800001800
 11
21.748960730
 21
133.291956522
  0
TEXT
  8
1
 62
4
  6
CONTINUOUS
 72
5
 10
22.588960730
 20
133.291956522
 40
2.800000000
  1
9.6
 41
1.199998800
 11
29.308960730
 21
133.291956522
  0
TEXT
  8
1
 62
4
  6
CONTINUOUS
 72
5
 10
30.148960730
 20
133.291956522
 40
2.800000000
  1
)
 41
1.800001800
 11
31.828960730
 21
133.291956522
  0
LINE
  8
1
 62
4
  6
CONTINUOUS
 10
32.841304348
 20
171.586956522
 11
32.841304348
 21
129.086956522
  0
POLYLINE
  8
1
 62
4
  6
CONTINUOUS
 66
1
  0
VERTEX
  8
1
 10
30.841304348
 20
131.386956522
  0
VERTEX
  8
1
 10
32.841304348
 20
131.086956522
  0
SEQEND
  8
1
  0
POLYLINE
  8
1
 62
4
  6
CONTINUOUS
 66
1
  0
VERTEX
  8
1
 10
29.841304348
 20
131.086956522
  0
VERTEX
  8
1
 10
32.841304348
 20
131.086956522
  0
VERTEX
  8
1
 10
30.841304348
 20
130.786956522
  0
SEQEND
  8
1
  0
LINE
  8
1
 62
4
  6
CONTINUOUS
 10
32.841304348
 20
131.086956522
 11
42.391304348
 21
131.086956522
  0
POLYLINE
  8
1
 62
4
  6
CONTINUOUS
 66
1
  0
VERTEX
  8
1
 10
44.391304348
 20
130.786956522
  0
VERTEX
  8
1
 10
42.391304348
 20
131.086956522
  0
SEQEND
  8
1
  0
POLYLINE
  8
1
 62
4
  6
CONTINUOUS
 66
1
  0
VERTEX
  8
1
 10
45.391304348
 20
131.086956522
  0
VERTEX
  8
1
 10
42.391304348
 20
131.086956522
  0
VERTEX
  8
1
 10
44.391304348
 20
131.386956522
  0
SEQEND
  8
1
  0
LINE
  8
1
 62
4
  6
CONTINUOUS
 10
42.391304348
 20
158.086956522
 11
42.391304348
 21
129.086956522
  0
POLYLINE
  8
1
 62
4
  6
CONTINUOUS
 66
1
  0
VERTEX
  8
1
 10
32.841304348
 20
131.086956522
  0
VERTEX
  8
1
 10
18.068960730
 20
131.086956522
  0
SEQEND
  8
1
  0
ENDBLK
  8
0
  0
BLOCK
  8
0
  2
*D143
 70
65
 10
0.000000000
 20
0.000000000
  3
*D
  0
TEXT
  8
1
 62
4
  6
CONTINUOUS
 72
5
 10
88.724704348
 20
125.291956522
 40
2.800000000
  1
(
 41
1.800001800
 11
90.404704348
 21
125.291956522
  0
TEXT
  8
1
 62
4
  6
CONTINUOUS
 72
5
 10
91.244704348
 20
125.291956522
 40
2.800000000
  1
128.6
 41
1.145453817
 11
103.004704348
 21
125.291956522
  0
TEXT
  8
1
 62
4
  6
CONTINUOUS
 72
5
 10
103.844704348
 20
125.291956522
 40
2.800000000
  1
)
 41
1.800001800
 11
105.524704348
 21
125.291956522
  0
LINE
  8
1
 62
4
  6
CONTINUOUS
 10
161.391304348
 20
167.036956522
 11
161.391304348
 21
121.086956522
  0
POLYLINE
  8
1
 62
4
  6
CONTINUOUS
 66
1
  0
VERTEX
  8
1
 10
159.391304348
 20
122.786956522
  0
VERTEX
  8
1
 10
161.391304348
 20
123.086956522
  0
VERTEX
  8
1
 10
159.391304348
 20
123.386956522
  0
SEQEND
  8
1
  0
LINE
  8
1
 62
4
  6
CONTINUOUS
 10
161.391304348
 20
123.086956522
 11
32.841304348
 21
123.086956522
  0
POLYLINE
  8
1
 62
4
  6
CONTINUOUS
 66
1
  0
VERTEX
  8
1
 10
34.841304348
 20
123.386956522
  0
VERTEX
  8
1
 10
32.841304348
 20
123.086956522
  0
VERTEX
  8
1
 10
34.841304348
 20
122.786956522
  0
SEQEND
  8
1
  0
LINE
  8
1
 62
4
  6
CONTINUOUS
 10
32.841304348
 20
171.586956522
 11
32.841304348
 21
121.086956522
  0
ENDBLK
  8
0
  0
ENDSEC
  0
SECTION
  2
ENTITIES
  0
LINE
  8
1
 62
7
  6
CONTINUOUS
 10
50.491304348
 20
151.086956522
 11
50.391304348
 21
151.186956522
  0
LINE
  8
1
 62
7
  6
CONTINUOUS
 10
50.391304348
 20
200.986956522
 11
50.491304348
 21
201.086956522
  0
LINE
  8
1
 62
1
  6
CENTER
 10
20.841304348
 20
176.086956522
 11
163.391304348
 21
176.086956522
  0
LINE
  8
1
 62
7
  6
CONTINUOUS
 10
146.391304348
 20
201.086956522
 11
50.491304348
 21
201.086956522
  0
LINE
  8
1
 62
7
  6
CONTINUOUS
 10
148.391304348
 20
153.086956522
 11
148.391304348
 21
199.086956522
  0
LINE
  8
1
 62
7
  6
CONTINUOUS
 10
50.491304348
 20
151.086956522
 11
146.391304348
 21
151.086956522
  0
LINE
  8
1
 62
7
  6
CONTINUOUS
 10
50.391304348
 20
200.986956522
 11
50.391304348
 21
151.186956522
  0
LINE
  8
1
 62
7
  6
CONTINUOUS
 10
149.291304348
 20
186.336956522
 11
149.291304348
 21
165.836956522
  0
LINE
  8
1
 62
7
  6
CONTINUOUS
 10
159.491304348
 20
185.336956522
 11
158.841304348
 21
185.986956522
  0
LINE
  8
1
 62
7
  6
CONTINUOUS
 10
161.191304348
 20
185.336956522
 11
161.391304348
 21
185.136956522
  0
LINE
  8
1
 62
7
  6
CONTINUOUS
 10
42.391304348
 20
194.086956522
 11
42.391304348
 21
158.086956522
  0
LINE
  8
1
 62
7
  6
CONTINUOUS
 10
42.391304348
 20
158.086956522
 11
49.291304348
 21
151.186956522
  0
LINE
  8
1
 62
7
  6
CONTINUOUS
 10
49.291304348
 20
151.186956522
 11
50.391304348
 21
151.186956522
  0
LINE
  8
1
 62
7
  6
CONTINUOUS
 10
50.391304348
 20
151.186956522
 11
50.391304348
 21
200.986956522
  0
LINE
  8
1
 62
7
  6
CONTINUOUS
 10
50.391304348
 20
200.986956522
 11
49.291304348
 21
200.986956522
  0
LINE
  8
1
 62
7
  6
CONTINUOUS
 10
49.291304348
 20
200.986956522
 11
42.391304348
 21
194.086956522
  0
LINE
  8
1
 62
7
  6
CONTINUOUS
 10
49.291304348
 20
200.986956522
 11
49.291304348
 21
151.186956522
  0
LINE
  8
1
 62
7
  6
CONTINUOUS
 10
148.391304348
 20
186.186956522
 11
149.291304348
 21
186.186956522
  0
LINE
  8
1
 62
7
  6
CONTINUOUS
 10
148.391304348
 20
153.086956522
 11
146.391304348
 21
151.086956522
  0
LINE
  8
1
 62
7
  6
CONTINUOUS
 10
146.391304348
 20
201.086956522
 11
148.391304348
 21
199.086956522
  0
LINE
  8
1
 62
7
  6
CONTINUOUS
 10
161.191304348
 20
185.336956522
 11
159.491304348
 21
185.336956522
  0
LINE
  8
1
 62
1
  6
CONTINUOUS
 10
155.291304348
 20
166.786956522
 11
154.252073863
 21
166.186956522
  0
LINE
  8
1
 62
1
  6
CONTINUOUS
 10
159.441304348
 20
166.786956522
 11
155.291304348
 21
166.786956522
  0
LINE
  8
1
 62
7
  6
CONTINUOUS
 10
32.841304348
 20
173.620450171
 11
35.241304348
 21
173.620450171
  0
LINE
  8
1
 62
7
  6
CONTINUOUS
 10
153.841304348
 20
165.836956522
 11
154.191304348
 21
166.186956522
  0
LINE
  8
1
 62
7
  6
CONTINUOUS
 10
149.291304348
 20
186.336956522
 11
153.841304348
 21
186.336956522
  0
LINE
  8
1
 62
7
  6
CONTINUOUS
 10
154.191304348
 20
185.986956522
 11
158.841304348
 21
185.986956522
  0
LINE
  8
1
 62
7
  6
CONTINUOUS
 10
153.841304348
 20
186.336956522
 11
154.191304348
 21
185.986956522
  0
LINE
  8
1
 62
7
  6
CONTINUOUS
 10
161.391304348
 20
185.136956522
 11
161.391304348
 21
167.036956522
  0
LINE
  8
1
 62
7
  6
CONTINUOUS
 10
154.191304348
 20
166.186956522
 11
158.841304348
 21
166.186956522
  0
LINE
  8
1
 62
7
  6
CONTINUOUS
 10
149.291304348
 20
165.836956522
 11
153.841304348
 21
165.836956522
  0
LINE
  8
1
 62
7
  6
CONTINUOUS
 10
155.291304348
 20
185.986956522
 11
155.291304348
 21
166.186956522
  0
LINE
  8
1
 62
1
  6
CONTINUOUS
 10
159.441304348
 20
185.386956522
 11
155.291304348
 21
185.386956522
  0
LINE
  8
1
 62
7
  6
CONTINUOUS
 10
32.841304348
 20
180.586956522
 11
35.241304348
 21
180.586956522
  0
LINE
  8
1
 62
7
  6
CONTINUOUS
 10
161.191304348
 20
166.836956522
 11
159.491304348
 21
166.836956522
  0
LINE
  8
1
 62
7
  6
CONTINUOUS
 10
159.491304348
 20
166.836956522
 11
158.841304348
 21
166.186956522
  0
LINE
  8
1
 62
7
  6
CONTINUOUS
 10
158.841304348
 20
185.986956522
 11
158.841304348
 21
166.186956522
  0
LINE
  8
1
 62
7
  6
CONTINUOUS
 10
159.491304348
 20
185.336956522
 11
159.491304348
 21
166.836956522
  0
LINE
  8
1
 62
7
  6
CONTINUOUS
 10
35.241304348
 20
173.620450171
 11
35.241304348
 21
170.986956522
  0
LINE
  8
1
 62
7
  6
CONTINUOUS
 10
153.841304348
 20
186.336956522
 11
153.841304348
 21
165.836956522
  0
LINE
  8
1
 62
7
  6
CONTINUOUS
 10
154.191304348
 20
185.986956522
 11
154.191304348
 21
166.186956522
  0
LINE
  8
1
 62
1
  6
CONTINUOUS
 10
155.291304348
 20
185.386956522
 11
154.252073863
 21
185.986956522
  0
LINE
  8
1
 62
7
  6
CONTINUOUS
 10
148.391304348
 20
165.986956522
 11
149.291304348
 21
165.986956522
  0
LINE
  8
1
 62
7
  6
CONTINUOUS
 10
35.408162763
 20
170.820098106
 11
36.391304348
 21
170.940812714
  0
LINE
  8
1
 62
7
  6
CONTINUOUS
 10
161.391304348
 20
167.036956522
 11
161.191304348
 21
166.836956522
  0
LINE
  8
1
 62
7
  6
CONTINUOUS
 10
35.408162763
 20
173.223399926
 11
35.408162763
 21
170.820098106
  0
LINE
  8
1
 62
4
  6
CONTINUOUS
 10
37.891304348
 20
179.748923206
 11
40.891304348
 21
172.424989837
  0
LINE
  8
1
 62
4
  6
CONTINUOUS
 10
40.891304348
 20
179.748923206
 11
37.891304348
 21
172.424989837
  0
LINE
  8
1
 62
7
  6
CONTINUOUS
 10
40.891304348
 20
179.748923206
 11
40.891304348
 21
172.424989837
  0
LINE
  8
1
 62
7
  6
CONTINUOUS
 10
37.891304348
 20
179.748923206
 11
37.891304348
 21
172.424989837
  0
LINE
  8
1
 62
7
  6
CONTINUOUS
 10
37.603739913
 20
168.186956522
 11
37.603739913
 21
183.986956522
  0
LINE
  8
1
 62
7
  6
CONTINUOUS
 10
36.391304348
 20
168.886956522
 11
37.603739913
 21
168.186956522
  0
LINE
  8
1
 62
7
  6
CONTINUOUS
 10
37.603739913
 20
183.986956522
 11
36.391304348
 21
183.286956522
  0
LINE
  8
1
 62
4
  6
CONTINUOUS
 10
32.841304348
 20
176.086956522
 11
35.241304348
 21
174.053462873
  0
LINE
  8
1
 62
4
  6
CONTINUOUS
 10
35.241304348
 20
176.086956522
 11
32.841304348
 21
174.053462873
  0
LINE
  8
1
 62
7
  6
CONTINUOUS
 10
35.408162763
 20
173.656412628
 11
36.391304348
 21
173.777127235
  0
LINE
  8
1
 62
7
  6
CONTINUOUS
 10
35.408162763
 20
173.223399926
 11
36.391304348
 21
173.344114533
  0
LINE
  8
1
 62
7
  6
CONTINUOUS
 10
41.391304348
 20
168.286956522
 11
41.291304348
 21
168.186956522
  0
LINE
  8
1
 62
7
  6
CONTINUOUS
 10
41.291304348
 20
183.986956522
 11
41.391304348
 21
183.886956522
  0
LINE
  8
1
 62
7
  6
CONTINUOUS
 10
41.391304348
 20
183.886956522
 11
41.391304348
 21
168.286956522
  0
LINE
  8
1
 62
7
  6
CONTINUOUS
 10
41.291304348
 20
183.986956522
 11
37.603739913
 21
183.986956522
  0
LINE
  8
1
 62
7
  6
CONTINUOUS
 10
36.391304348
 20
183.286956522
 11
36.391304348
 21
168.886956522
  0
LINE
  8
1
 62
7
  6
CONTINUOUS
 10
37.603739913
 20
168.186956522
 11
41.291304348
 21
168.186956522
  0
LINE
  8
1
 62
7
  6
CONTINUOUS
 10
40.891304348
 20
172.424989837
 11
37.891304348
 21
172.424989837
  0
LINE
  8
1
 62
7
  6
CONTINUOUS
 10
40.891304348
 20
179.748923206
 11
37.891304348
 21
179.748923206
  0
LINE
  8
1
 62
7
  6
CONTINUOUS
 10
35.408162763
 20
181.353814937
 11
36.391304348
 21
181.233100329
  0
LINE
  8
1
 62
7
  6
CONTINUOUS
 10
32.841304348
 20
176.086956522
 11
35.241304348
 21
176.086956522
  0
LINE
  8
1
 62
4
  6
CONTINUOUS
 10
35.241304348
 20
173.620450171
 11
32.841304348
 21
171.586956522
  0
LINE
  8
1
 62
7
  6
CONTINUOUS
 10
41.591304348
 20
165.636956522
 11
41.391304348
 21
165.836956522
  0
LINE
  8
1
 62
7
  6
CONTINUOUS
 10
42.191304348
 20
165.836956522
 11
41.991304348
 21
165.636956522
  0
LINE
  8
1
 62
7
  6
CONTINUOUS
 10
35.408162763
 20
170.820098106
 11
35.241304348
 21
170.986956522
  0
LINE
  8
1
 62
4
  6
CONTINUOUS
 10
32.841304348
 20
173.620450171
 11
35.241304348
 21
171.586956522
  0
LINE
  8
1
 62
7
  6
CONTINUOUS
 10
32.841304348
 20
180.586956522
 11
32.841304348
 21
171.586956522
  0
LINE
  8
1
 62
7
  6
CONTINUOUS
 10
35.408162763
 20
181.353814937
 11
35.408162763
 21
173.656412628
  0
LINE
  8
1
 62
7
  6
CONTINUOUS
 10
41.991304348
 20
186.536956522
 11
42.191304348
 21
186.336956522
  0
LINE
  8
1
 62
7
  6
CONTINUOUS
 10
41.391304348
 20
186.336956522
 11
41.591304348
 21
186.536956522
  0
LINE
  8
1
 62
7
  6
CONTINUOUS
 10
41.391304348
 20
186.336956522
 11
41.391304348
 21
165.836956522
  0
LINE
  8
1
 62
7
  6
CONTINUOUS
 10
41.591304348
 20
165.636956522
 11
41.991304348
 21
165.636956522
  0
LINE
  8
1
 62
7
  6
CONTINUOUS
 10
42.191304348
 20
165.836956522
 11
42.191304348
 21
186.336956522
  0
LINE
  8
1
 62
7
  6
CONTINUOUS
 10
42.191304348
 20
166.686956522
 11
42.391304348
 21
166.686956522
  0
LINE
  8
1
 62
4
  6
CONTINUOUS
 10
32.841304348
 20
180.586956522
 11
35.241304348
 21
176.086956522
  0
LINE
  8
1
 62
7
  6
CONTINUOUS
 10
35.241304348
 20
174.053462873
 11
35.408162763
 21
173.656412628
  0
LINE
  8
1
 62
7
  6
CONTINUOUS
 10
35.241304348
 20
181.186956522
 11
35.241304348
 21
174.053462873
  0
LINE
  8
1
 62
7
  6
CONTINUOUS
 10
35.241304348
 20
173.620450171
 11
35.408162763
 21
173.223399926
  0
LINE
  8
1
 62
7
  6
CONTINUOUS
 10
42.391304348
 20
185.486956522
 11
42.191304348
 21
185.486956522
  0
LINE
  8
1
 62
4
  6
CONTINUOUS
 10
35.241304348
 20
180.586956522
 11
32.841304348
 21
176.086956522
  0
LINE
  8
1
 62
7
  6
CONTINUOUS
 10
41.991304348
 20
186.536956522
 11
41.591304348
 21
186.536956522
  0
LINE
  8
1
 62
7
  6
CONTINUOUS
 10
32.841304348
 20
171.586956522
 11
35.241304348
 21
171.586956522
  0
LINE
  8
1
 62
7
  6
CONTINUOUS
 10
32.841304348
 20
174.053462873
 11
35.241304348
 21
174.053462873
  0
LINE
  8
1
 62
7
  6
CONTINUOUS
 10
35.408162763
 20
181.353814937
 11
35.241304348
 21
181.186956522
  0
TEXT
  8
1
 62
3
  6
CONTINUOUS
 72
5
 10
71.332007431
 20
109.102956522
 40
4.000000000
  1
ＮＲ５０－５１００　ＡＴＣ
 41
0.834180548
 11
122.532007431
 21
109.102956522
  0
DIMENSION
  8
1
 62
4
  6
CONTINUOUS
  2
*D92
 70
1
 10
14.841304348
 20
168.186956522
 11
14.841304348
 21
176.086956522
 14
37.603739913
 24
168.186956522
 13
37.603739913
 23
183.986956522
 50
90.000000000
  0
DIMENSION
  8
1
 62
4
  6
CONTINUOUS
  2
*D93
 70
1
 10
6.841304348
 20
165.636956522
 11
6.841304348
 21
176.086956522
 14
41.591304348
 24
165.636956522
 13
41.591304348
 23
186.536956522
 50
90.000000000
  0
DIMENSION
  8
1
 62
4
  6
CONTINUOUS
  2
*D94
 70
0
 10
41.391304348
 20
139.086956522
 11
25.940560730
 21
139.086956522
 14
41.391304348
 24
165.836956522
 13
32.841304348
 23
171.586956522
 50
0.000000000
  0
DIMENSION
  8
1
 62
4
  6
CONTINUOUS
  2
*D95
 70
1
 10
174.787377376
 20
151.086956522
 11
174.787377376
 21
176.086956522
 14
146.391304348
 24
151.086956522
 13
146.391304348
 23
201.086956522
 50
90.000000000
  0
DIMENSION
  8
1
 62
4
  6
CONTINUOUS
  2
*D96
 70
0
 10
161.391304348
 20
131.086956522
 11
154.891304348
 21
131.086956522
 14
161.391304348
 24
167.036956522
 13
148.391304348
 23
153.086956522
 50
0.000000000
  0
DIMENSION
  8
1
 62
4
  6
CONTINUOUS
  2
*D97
 70
0
 10
148.391304348
 20
131.086956522
 11
99.391304348
 21
131.086956522
 14
148.391304348
 24
153.086956522
 13
50.391304348
 23
151.186956522
 50
0.000000000
  0
DIMENSION
  8
1
 62
4
  6
CONTINUOUS
  2
*D98
 70
0
 10
50.391304348
 20
131.086956522
 11
46.391304348
 21
131.086956522
 14
50.391304348
 24
151.186956522
 13
42.391304348
 23
158.086956522
 50
0.000000000
  0
DIMENSION
  8
1
 62
4
  6
CONTINUOUS
  2
*D99
 70
0
 10
42.391304348
 20
131.086956522
 11
25.940560730
 21
131.086956522
 14
42.391304348
 24
158.086956522
 13
32.841304348
 23
171.586956522
 50
0.000000000
  0
LINE
  8
1
 62
7
  6
CONTINUOUS
 10
146.391304348
 20
201.086956522
 11
146.391304348
 21
151.086956522
  0
LINE
  8
1
 62
7
  6
CONTINUOUS
 10
32.841304348
 20
177.674456522
 11
23.141304348
 21
177.674456522
  0
LINE
  8
1
 62
7
  6
CONTINUOUS
 10
23.141304348
 20
174.499456522
 11
32.841304348
 21
174.499456522
  0
LINE
  8
1
 62
7
  6
CONTINUOUS
 10
136.441304348
 20
208.532956521
 11
132.991304348
 21
208.532956521
  0
LINE
  8
1
 62
7
  6
CONTINUOUS
 10
137.191304348
 20
215.586956521
 11
137.191304348
 21
208.184853073
  0
ARC
  8
1
 62
7
  6
CONTINUOUS
 10
23.141304348
 20
177.374456522
 40
0.300000000
 50
90.000000000
 51
180.000000000
  0
ARC
  8
1
 62
7
  6
CONTINUOUS
 10
23.141304348
 20
174.799456522
 40
0.300000000
 50
180.000000000
 51
270.000000000
  0
LINE
  8
1
 62
7
  6
CONTINUOUS
 10
22.841304348
 20
177.374456522
 11
22.841304348
 21
174.799456522
  0
LINE
  8
1
 62
7
  6
CONTINUOUS
 10
136.441304348
 20
214.286956521
 11
136.441304348
 21
208.532956521
  0
LINE
  8
1
 62
7
  6
CONTINUOUS
 10
139.341304348
 20
207.186956521
 11
136.441304348
 21
208.532956521
  0
LINE
  8
1
 62
1
  6
CENTER
 10
135.891304348
 20
212.386956522
 11
135.891304348
 21
199.086956521
  0
LINE
  8
1
 62
7
  6
CONTINUOUS
 10
133.870304348
 20
206.186956521
 11
133.870304348
 21
201.186956521
  0
LINE
  8
1
 62
7
  6
CONTINUOUS
 10
137.912304348
 20
206.186956521
 11
137.912304348
 21
201.186956521
  0
ARC
  8
1
 62
7
  6
CONTINUOUS
 10
135.891304348
 20
211.386956521
 40
2.900000000
 50
90.000000000
 51
180.000000000
  0
LINE
  8
1
 62
7
  6
CONTINUOUS
 10
131.850304348
 20
201.186956521
 11
139.933304348
 21
201.186956521
  0
LINE
  8
1
 62
7
  6
CONTINUOUS
 10
139.933304348
 20
206.186956521
 11
131.850304348
 21
206.186956521
  0
LINE
  8
1
 62
7
  6
CONTINUOUS
 10
131.850304348
 20
206.186956521
 11
131.850304348
 21
201.186956521
  0
LINE
  8
1
 62
7
  6
CONTINUOUS
 10
132.441304348
 20
201.086956521
 11
132.441304348
 21
201.186956521
  0
LINE
  8
1
 62
7
  6
CONTINUOUS
 10
132.391304348
 20
208.186956521
 11
132.991304348
 21
208.532956521
  0
LINE
  8
1
 62
7
  6
CONTINUOUS
 10
132.391304348
 20
208.186956521
 11
132.391304348
 21
206.186956521
  0
LINE
  8
1
 62
7
  6
CONTINUOUS
 10
132.991304348
 20
211.386956521
 11
132.991304348
 21
208.532956521
  0
LINE
  8
1
 62
7
  6
CONTINUOUS
 10
149.841304348
 20
214.524956521
 11
150.441304348
 21
214.524956521
  0
LINE
  8
1
 62
7
  6
CONTINUOUS
 10
149.841304348
 20
208.248956521
 11
150.441304348
 21
208.248956521
  0
LINE
  8
1
 62
7
  6
CONTINUOUS
 10
139.933304348
 20
201.186956521
 11
139.933304348
 21
206.186956521
  0
LINE
  8
1
 62
7
  6
CONTINUOUS
 10
139.341304348
 20
206.186956521
 11
139.341304348
 21
207.186956521
  0
LINE
  8
1
 62
7
  6
CONTINUOUS
 10
139.341304348
 20
201.086956521
 11
139.341304348
 21
201.186956521
  0
LINE
  8
1
 62
7
  6
CONTINUOUS
 10
139.341304348
 20
207.186956521
 11
139.441304348
 21
207.186956521
  0
LINE
  8
1
 62
7
  6
CONTINUOUS
 10
140.364304348
 20
205.586956521
 11
149.841304348
 21
205.586956521
  0
LINE
  8
1
 62
7
  6
CONTINUOUS
 10
140.364304348
 20
217.186956521
 11
149.841304348
 21
217.186956521
  0
LINE
  8
1
 62
7
  6
CONTINUOUS
 10
149.841304348
 20
205.586956521
 11
149.841304348
 21
217.186956521
  0
LINE
  8
1
 62
7
  6
CONTINUOUS
 10
140.364304348
 20
205.586956521
 11
139.441304348
 21
207.186956521
  0
LINE
  8
1
 62
7
  6
CONTINUOUS
 10
139.441304348
 20
215.586956521
 11
137.191304348
 21
215.586956521
  0
LINE
  8
1
 62
7
  6
CONTINUOUS
 10
140.364304348
 20
217.186956521
 11
139.441304348
 21
215.586956521
  0
LINE
  8
1
 62
7
  6
CONTINUOUS
 10
137.191304348
 20
215.586956521
 11
136.441304348
 21
214.286956521
  0
LINE
  8
1
 62
7
  6
CONTINUOUS
 10
135.891304348
 20
214.286956521
 11
136.441304348
 21
214.286956521
  0
LINE
  8
1
 62
1
  6
CENTER
 10
153.941304348
 20
211.386956522
 11
134.891304348
 21
211.386956522
  0
LINE
  8
1
 62
7
  6
CONTINUOUS
 10
151.941304348
 20
217.086956521
 11
150.441304348
 21
217.086956521
  0
LINE
  8
1
 62
7
  6
CONTINUOUS
 10
151.941304348
 20
205.686956521
 11
151.941304348
 21
217.086956521
  0
LINE
  8
1
 62
7
  6
CONTINUOUS
 10
150.441304348
 20
205.686956521
 11
150.441304348
 21
217.086956521
  0
LINE
  8
1
 62
7
  6
CONTINUOUS
 10
151.941304348
 20
205.686956521
 11
150.441304348
 21
205.686956521
  0
LINE
  8
1
 62
7
  6
CONTINUOUS
 10
140.364304348
 20
217.186956521
 11
140.364304348
 21
205.586956521
  0
LINE
  8
1
 62
7
  6
CONTINUOUS
 10
139.441304348
 20
215.586956521
 11
139.441304348
 21
207.186956521
  0
LINE
  8
1
 62
7
  6
CONTINUOUS
 10
137.186772401
 20
208.186956521
 11
132.391304348
 21
208.186956521
  0
DIMENSION
  8
1
 62
4
  6
CONTINUOUS
  2
*D143
 70
0
 10
32.841304348
 20
123.086956522
 11
97.116304348
 21
123.086956522
 14
32.841304348
 24
171.586956522
 13
161.391304348
 23
167.036956522
 50
0.000000000
  0
ENDSEC
  0
EOF
